#TITLE:I Feed You My Love;
#SUBTITLE:;
#ARTIST:Margaret Berger;
#TITLETRANSLIT:;
#SUBTITLETRANSLIT:;
#ARTISTTRANSLIT:;
#GENRE:;
#CREDIT:;
#BANNER:I Feed You My Love.png;
#BACKGROUND:I Feed You My Love-bg.png;
#LYRICSPATH:;
#CDTITLE:;
#MUSIC:I Feed You My Love.mp3;
#OFFSET:-0.010000;
#SAMPLESTART:43.427193;
#SAMPLELENGTH:15.000000;
#SELECTABLE:YES;
#BPMS:0.000000=96.000000
;
#STOPS:
;
#BGCHANGES:0.000=I Feed You My Love-avi.avi=1.000=0=0=1=====,
186.000=I Feed You My Love-bg.png=1.000=1=0=1===CrossFade==,
99999=-nosongbg-=1.000=0=0=0 // don't automatically add -songbackground-
;
#KEYSOUNDS:;
#ATTACKS:;

//---------------dance-single - Oni-91----------------
#NOTES:
     dance-single:
     :
     Hard:
     7:
     0.342708,0.395573,0.187153,0.323264,0.114844,282.000000,260.000000,22.000000,38.000000,0.000000,0.000000,0.342708,0.395573,0.187153,0.323264,0.114844,282.000000,260.000000,22.000000,38.000000,0.000000,0.000000:
// measure 0
0000
0000
0000
0000
,  // measure 1
0000
0000
0000
0000
,  // measure 2
2002
0000
3003
1000
,  // measure 3
0010
0100
0000
0220
0000
0000
0330
0000
,  // measure 4
2002
0000
0000
0000
0000
0000
3003
1000
,  // measure 5
0100
0010
0001
0200
0000
0000
0310
0000
,  // measure 6
2002
0000
0000
3003
,  // measure 7
0001
1000
0000
0220
0000
0330
0010
2000
,  // measure 8
0002
0000
0000
0000
,  // measure 9
0000
0000
3003
0110
,  // measure 10
1001
0000
0000
0000
0010
0000
0000
1000
0010
0000
0100
0000
0001
0000
0000
0000
,  // measure 11
1000
0100
0010
0002
0000
0013
0001
0100
,  // measure 12
0010
0000
0000
0000
0100
0000
0000
0001
0100
0000
0010
0000
1000
0000
0001
0000
,  // measure 13
0100
1000
0100
0020
0000
0000
1030
0100
,  // measure 14
0010
0000
0000
0000
1001
0000
0000
0001
0010
0000
0001
0000
0100
0000
0010
0000
,  // measure 15
0100
0001
1000
0200
0000
0310
0011
0000
,  // measure 16
1000
0000
0001
0000
0100
0000
0000
0010
0100
0000
0001
0000
1001
0000
0000
0000
,  // measure 17
2002
0000
0000
0000
0000
0000
0000
0000
3003
0000
0000
0000
1000
0001
1000
0001
,  // measure 18
0100
0000
0000
0000
0110
0000
0000
0010
0100
0000
0001
0000
1000
0000
0000
0000
,  // measure 19
0001
0010
0001
1000
0100
0001
0100
1000
,  // measure 20
0002
0000
0103
0010
0100
0000
1001
0000
,  // measure 21
1000
0000
0010
0000
0100
0000
0000
0001
0100
0001
0100
0000
0010
0000
1000
0000
,  // measure 22
1001
0000
0000
0000
0011
0000
0000
0001
1000
0000
0100
0000
0010
0000
0000
0000
,  // measure 23
0001
0100
1000
0000
0001
0010
1000
0001
,  // measure 24
1000
0100
0010
0200
0000
1300
0020
0000
,  // measure 25
0230
0000
1000
0000
0001
0001
0310
0000
,  // measure 26
2001
0000
0000
0000
0010
0000
0000
0001
0000
0000
0001
0000
3010
0000
0000
0000
,  // measure 27
0002
0000
0000
0000
0010
0000
0000
1000
0000
0000
1000
0000
0013
0000
0001
0000
,  // measure 28
0200
0000
0000
0000
0010
0000
0000
0001
0000
0000
0001
0000
0310
0000
1000
0000
,  // measure 29
0200
0000
0000
0000
0010
0000
0000
1000
0000
0000
1000
0000
0310
0000
0001
0000
,  // measure 30
2000
0000
0001
0000
0010
0010
0010
0000
,  // measure 31
3200
0000
0010
0000
1000
1000
1000
0000
,  // measure 32
0320
0000
0001
0000
0100
0100
0100
0000
,  // measure 33
0031
0000
0010
0000
0100
0000
1000
0000
0010
0000
0100
0000
0001
1000
0001
1000
,  // measure 34
0001
0010
1100
0000
0001
0100
1000
0010
,  // measure 35
0001
0000
0000
0000
1001
0000
0000
1000
0100
0000
0010
0000
0100
0000
1000
0000
,  // measure 36
0002
0000
1003
0100
0020
0000
0130
0000
,  // measure 37
0001
0000
0010
0000
0001
0000
0000
1000
0010
0000
0100
0000
0010
0000
1000
0001
,  // measure 38
1000
0000
0000
0000
0101
0000
0000
0010
1000
0000
0100
0000
0010
0000
0000
0001
,  // measure 39
0100
0010
0100
0000
0010
1000
1001
0000
,  // measure 40
0001
0100
1000
0200
0000
0310
1000
0100
,  // measure 41
0020
0000
0000
0000
0031
0000
0000
0001
0100
0000
0001
1000
0001
0000
1000
0000
,  // measure 42
0100
0010
0001
0200
0000
1300
0100
0001
,  // measure 43
2000
0000
0000
0000
3010
0000
0000
1000
0100
0000
0010
0001
0010
0000
0001
0000
,  // measure 44
1001
1000
0010
0002
0000
0103
1000
0100
,  // measure 45
0010
0000
1000
0000
0001
0000
0010
0000
0100
0000
0010
0100
0010
0100
0010
0000
,  // measure 46
2002
0000
3003
0000
;

//---------------dance-single - Oni-91----------------
#NOTES:
     dance-single:
     :
     Medium:
     4:
     0.211458,0.237344,0.059549,0.195660,0.000000,174.000000,167.000000,7.000000,23.000000,0.000000,0.000000,0.211458,0.237344,0.059549,0.195660,0.000000,174.000000,167.000000,7.000000,23.000000,0.000000,0.000000:
// measure 0
0000
0000
0000
0000
,  // measure 1
0000
0000
0000
0000
,  // measure 2
0200
0000
0300
0000
,  // measure 3
0010
0000
0000
1000
0000
0000
0001
0000
,  // measure 4
2000
0000
3000
0000
,  // measure 5
0001
0010
0100
0010
,  // measure 6
0002
0000
0003
0000
,  // measure 7
1000
0000
0000
0010
0000
0000
0100
0000
,  // measure 8
0020
0000
0030
0000
,  // measure 9
0200
0000
0000
0300
,  // measure 10
2002
0000
3003
0000
1000
0001
1000
0000
,  // measure 11
0001
0100
0010
1000
,  // measure 12
0200
0000
0300
0000
0010
0100
0010
0000
,  // measure 13
0001
1000
0100
1000
,  // measure 14
0002
0000
0003
0000
1000
0010
1000
0000
,  // measure 15
0001
0000
0100
0000
0010
1000
0001
0000
,  // measure 16
2000
0010
0001
3100
,  // measure 17
2002
0000
0000
3003
,  // measure 18
0110
0000
0100
0000
0001
1000
0100
0000
,  // measure 19
0010
0000
0100
0000
0010
0001
0010
0000
,  // measure 20
0001
0000
1000
0010
1000
0000
0001
0000
,  // measure 21
0100
0000
0010
0000
1000
0001
1000
0000
,  // measure 22
0110
0000
1000
0000
0100
0010
0100
0000
,  // measure 23
0010
0000
0001
0000
1000
0010
0100
0000
,  // measure 24
0001
0000
1000
0001
0000
0001
1000
0000
,  // measure 25
0001
0000
0100
0000
0010
0100
0010
0000
,  // measure 26
1002
0000
0100
0000
,  // measure 27
2003
0000
0010
0000
0001
0001
0001
0000
,  // measure 28
3200
0000
1000
0000
,  // measure 29
0320
0000
0001
0000
0100
0100
0130
0000
,  // measure 30
2002
0000
3000
0000
,  // measure 31
0200
0000
0003
0000
,  // measure 32
0020
0000
0000
0330
,  // measure 33
0010
0000
1000
0000
0001
1000
0001
1000
,  // measure 34
0002
0000
0000
0000
1003
0000
0001
0100
,  // measure 35
0001
0000
1000
0000
0100
0010
0100
0000
,  // measure 36
0010
0000
0001
1000
0001
0000
1000
0000
,  // measure 37
0010
0000
0100
0000
0001
0010
0001
0000
,  // measure 38
1000
0000
0100
0000
0010
0100
0010
0000
,  // measure 39
0100
1000
0100
0000
1000
0001
1000
0000
,  // measure 40
0001
0000
0100
0010
0000
0100
0010
0000
,  // measure 41
1000
0100
0010
0001
,  // measure 42
0010
0000
0001
1000
0000
0001
1000
0000
,  // measure 43
0001
0100
0010
1000
,  // measure 44
0100
0000
0010
0100
0000
0010
0100
0000
,  // measure 45
0010
0000
0001
0000
1000
0001
1000
0000
,  // measure 46
0220
0000
0330
0000
;

//---------------dance-single - Oni-91----------------
#NOTES:
     dance-single:
     :
     Easy:
     2:
     0.137326,0.197786,0.059549,0.127604,0.000000,113.000000,106.000000,7.000000,15.000000,0.000000,0.000000,0.137326,0.197786,0.059549,0.127604,0.000000,113.000000,106.000000,7.000000,15.000000,0.000000,0.000000:
// measure 0
0000
0000
0000
0000
,  // measure 1
0000
0000
0000
0000
,  // measure 2
0002
0000
0003
0000
,  // measure 3
1000
0000
0001
0000
,  // measure 4
0200
0000
0300
0000
,  // measure 5
0010
0100
0010
0000
,  // measure 6
2000
0000
3000
0000
,  // measure 7
0001
0000
0010
0000
,  // measure 8
0200
0000
0000
0000
,  // measure 9
0300
0000
0000
0000
,  // measure 10
1001
0000
0001
0000
,  // measure 11
0100
0010
0100
0010
,  // measure 12
1000
0000
0001
0000
,  // measure 13
1000
0100
1000
0100
,  // measure 14
0010
0000
0100
0000
,  // measure 15
0010
0001
0010
0000
,  // measure 16
0001
0000
1000
0001
,  // measure 17
2002
0000
3003
0000
,  // measure 18
1001
0000
0001
0000
,  // measure 19
1000
0001
1000
0001
,  // measure 20
0100
0000
0010
0000
,  // measure 21
0100
0010
0100
0000
,  // measure 22
1001
0000
0001
0000
,  // measure 23
1000
0100
1000
0100
,  // measure 24
0010
0000
0100
0000
,  // measure 25
0010
0001
1000
0001
,  // measure 26
2002
0000
3003
0000
,  // measure 27
2000
0000
3000
0000
,  // measure 28
0020
0000
0030
0000
,  // measure 29
0200
0000
0300
0000
,  // measure 30
0001
0000
1000
0000
,  // measure 31
0100
0000
0010
0000
,  // measure 32
0100
0000
1000
0001
,  // measure 33
1000
0100
0010
0100
,  // measure 34
0220
0000
0000
0000
,  // measure 35
0330
0000
0010
0001
,  // measure 36
1000
0000
0001
0000
,  // measure 37
1000
0010
0100
0010
,  // measure 38
1000
0000
0001
0000
,  // measure 39
0010
0001
1000
0001
,  // measure 40
0100
0000
0010
1000
,  // measure 41
0001
0000
1000
0001
,  // measure 42
0010
0000
0100
0010
,  // measure 43
0001
0000
1000
0100
,  // measure 44
0010
0001
1000
0001
,  // measure 45
0100
0010
0100
0001
,  // measure 46
2002
0000
3003
0000
;

//---------------dance-single - Oni-91----------------
#NOTES:
     dance-single:
     :
     Beginner:
     1:
     0.096007,0.136962,0.042535,0.008507,0.000000,79.000000,74.000000,5.000000,1.000000,0.000000,0.000000,0.096007,0.136962,0.042535,0.008507,0.000000,79.000000,74.000000,5.000000,1.000000,0.000000,0.000000:
// measure 0
0000
0000
0000
0000
,  // measure 1
0000
0000
0000
0000
,  // measure 2
0100
0000
0000
0000
,  // measure 3
0010
0000
0000
0000
,  // measure 4
1000
0000
0000
0000
,  // measure 5
0001
0000
0000
0000
,  // measure 6
1000
0000
0000
0000
,  // measure 7
0001
0000
0000
0000
,  // measure 8
0020
0000
0000
0000
,  // measure 9
0030
0000
0000
0000
,  // measure 10
0110
0000
0000
0000
,  // measure 11
0100
0000
1000
0000
,  // measure 12
0001
0000
0000
0000
,  // measure 13
1000
0000
0001
0000
,  // measure 14
0100
0000
0000
0000
,  // measure 15
0010
0000
0100
0000
,  // measure 16
0001
0000
1000
0000
,  // measure 17
0001
0000
0000
0000
,  // measure 18
1001
0000
0001
0000
,  // measure 19
1000
0000
0001
0001
,  // measure 20
0001
0000
0100
0000
,  // measure 21
0010
0000
1000
1000
,  // measure 22
1000
0000
0001
0000
,  // measure 23
1000
0000
0100
0100
,  // measure 24
0100
0000
0010
0000
,  // measure 25
0100
0000
1000
0000
,  // measure 26
1001
0000
0000
0000
,  // measure 27
0000
0000
0000
0000
,  // measure 28
0001
0000
0000
0000
,  // measure 29
0000
0000
0000
0000
,  // measure 30
0100
0000
0000
0000
,  // measure 31
0000
0000
0000
0000
,  // measure 32
1001
0000
0000
0000
,  // measure 33
1000
0000
0001
0000
,  // measure 34
1001
0000
1000
0000
,  // measure 35
0010
0000
0100
0000
,  // measure 36
0001
0000
1000
0000
,  // measure 37
0100
0000
0010
0010
,  // measure 38
0010
0000
0100
0000
,  // measure 39
1000
0000
0001
0000
,  // measure 40
1000
0000
0010
0000
,  // measure 41
0100
0000
0001
0001
,  // measure 42
0001
0000
1000
0000
,  // measure 43
0100
0000
0010
0010
,  // measure 44
0010
0000
0100
0000
,  // measure 45
1000
1000
1000
1000
,  // measure 46
1000
0000
0000
0000
;
