#VERSION:0.83;
#TITLE:Happy Hour;
#SUBTITLE:;
#ARTIST:The Housemartins;
#TITLETRANSLIT:;
#SUBTITLETRANSLIT:;
#ARTISTTRANSLIT:;
#GENRE:;
#ORIGIN:;
#CREDIT:;
#BANNER:Happy Hour.png;
#BACKGROUND:Happy Hour-bg.png;
#PREVIEWVID:;
#JACKET:;
#CDIMAGE:;
#DISCIMAGE:;
#LYRICSPATH:;
#CDTITLE:;
#MUSIC:Happy Hour.mp3;
#OFFSET:-5.170000;
#SAMPLESTART:32.770000;
#SAMPLELENGTH:11.180000;
#SELECTABLE:YES;
#DISPLAYBPM:192.000000;
#BPMS:0.000=191.300,
8.000=197.000,
12.000=194.000,
16.000=192.000,
20.000=191.000,
24.000=193.000,
32.000=194.000,
36.000=193.000,
48.000=192.000,
56.000=188.000,
60.000=187.000,
64.000=188.000,
68.000=187.000,
72.000=190.000,
76.000=187.000,
80.000=191.000,
84.000=192.000,
87.000=185.000,
88.000=189.000,
92.000=190.000,
96.000=193.000,
100.000=196.000,
108.000=192.000,
112.000=193.000,
116.000=198.000,
124.000=196.000,
128.000=193.000,
132.000=200.000,
136.000=181.000,
137.000=197.000,
140.000=192.000,
144.000=193.000,
147.000=185.000,
148.000=196.000,
152.000=192.000,
156.000=196.000,
160.000=194.000,
164.000=196.000,
168.000=193.000,
180.000=190.000,
188.000=187.000,
192.000=185.000,
196.000=192.000,
200.000=189.000,
204.000=187.000,
208.000=188.000,
212.000=187.000,
216.000=194.000,
224.000=198.000,
232.000=196.000,
240.000=201.000,
244.000=195.000,
248.000=199.000,
252.000=198.000,
256.000=200.000,
260.000=198.000,
264.000=199.000,
280.000=194.000,
288.000=193.000,
292.000=195.000,
296.000=192.000,
300.000=193.000,
304.000=196.000,
308.000=194.000,
312.000=191.000,
316.000=193.000,
320.000=192.000,
324.000=195.000;
#STOPS:;
#DELAYS:;
#WARPS:;
#TIMESIGNATURES:0.000=4=4;
#TICKCOUNTS:0.000=4;
#COMBOS:0.000=1;
#SPEEDS:0.000=1.000=0.000=0;
#SCROLLS:0.000=1.000;
#FAKES:;
#LABELS:0.000=Song Start;
#BGCHANGES:-16.000=Happy Hour.avi=1.000=1=0=0=StretchNoLoop==CrossFade==,
333.500=Happy Hour-bg.png=1.000=1=0=1===CrossFade==,
99999=-nosongbg-=1.000=0=0=0 // don't automatically add -songbackground-
;
#KEYSOUNDS:;
#ATTACKS:
;

//---------------dance-single - Oni-91----------------
#NOTEDATA:;
#CHARTNAME:;
#STEPSTYPE:dance-single;
#DESCRIPTION:Oni-91;
#CHARTSTYLE:;
#DIFFICULTY:Hard;
#METER:9;
#RADARVALUES:0.646447,0.672102,0.257817,0.097793,0.000000,509.000000,480.000000,29.000000,11.000000,0.000000,0.000000,0.000000,0.000000,0.000000,0.646447,0.672102,0.257817,0.097793,0.000000,509.000000,480.000000,29.000000,11.000000,0.000000,0.000000,0.000000,0.000000,0.000000;
#CREDIT:Oni-91;
#DISPLAYBPM:192.000000;
#NOTES:
// measure 0
1000
0000
0001
0200
0000
0000
0301
0000
,  // measure 1
1000
0000
0100
2000
0000
0000
3001
0000
,  // measure 2
0100
0000
0010
0200
0000
0000
0301
0000
,  // measure 3
0011
0000
0000
1100
0000
0000
1001
0000
,  // measure 4
0001
0000
1000
0100
0000
1000
0100
0000
,  // measure 5
0010
0000
0001
1000
0000
0001
1000
0000
,  // measure 6
0001
0100
0001
0000
1000
0100
0010
0000
,  // measure 7
0001
0100
0010
1000
0100
0000
1001
0000
,  // measure 8
0001
0000
0100
0010
0000
0010
1000
0000
,  // measure 9
0001
0100
0010
0100
0001
0000
1000
0000
,  // measure 10
0001
0010
0001
1000
0100
0010
0001
0000
,  // measure 11
1000
0000
0001
1000
0000
1000
0100
0000
,  // measure 12
0020
0000
0001
0001
0000
0000
0130
0000
,  // measure 13
0002
0000
1000
1000
0000
0000
0103
0000
,  // measure 14
0001
0100
0010
1000
1100
0000
1100
0000
,  // measure 15
0001
0100
0010
1000
1100
0000
1100
0000
,  // measure 16
1000
0100
0010
0001
0011
0000
0011
0000
,  // measure 17
1000
0000
0001
0100
0000
0010
1000
0000
,  // measure 18
0001
0100
0010
0100
0001
0000
0101
0000
,  // measure 19
0001
0100
0010
0100
0001
0000
0101
0000
,  // measure 20
1000
0001
0100
0010
1000
0100
0010
0001
,  // measure 21
1000
0000
0000
0001
0000
0000
0110
0000
,  // measure 22
2002
0000
0000
3003
,  // measure 23
1000
0000
0001
0100
0000
0100
0010
0000
,  // measure 24
1000
0000
0001
0010
0000
0010
0100
0000
,  // measure 25
0010
0001
0010
0001
1000
0001
1000
0001
,  // measure 26
0100
0010
1000
0100
0010
0001
0100
0010
,  // measure 27
1000
0000
0001
0100
0000
0001
1000
0000
,  // measure 28
0001
0000
1000
0100
0000
1000
0001
0000
,  // measure 29
1000
0100
0010
0001
0000
0100
0001
0000
,  // measure 30
1000
0010
1000
0100
0010
0100
1000
0001
,  // measure 31
1000
0000
0001
0100
0000
0001
0100
0000
,  // measure 32
0001
0000
1000
0100
0000
1000
0100
0000
,  // measure 33
0010
0000
1000
0001
0000
1000
0001
0000
,  // measure 34
0110
0000
0000
1001
0000
0000
0110
0000
,  // measure 35
0001
0000
1000
0010
0000
0100
0001
0000
,  // measure 36
1000
0100
0010
0100
1000
0000
0001
0000
,  // measure 37
1000
0010
0100
0001
0010
0001
1000
0001
,  // measure 38
0000
1000
0010
0100
0001
0010
0001
1000
,  // measure 39
0010
0000
0100
0001
0000
1000
0100
0000
,  // measure 40
0010
0001
1000
0001
0100
0000
0001
0000
,  // measure 41
1000
0100
1000
0001
0100
1000
0100
0010
,  // measure 42
0000
0100
0001
0010
0001
0000
1000
0001
,  // measure 43
1001
0000
1000
0010
0000
0100
0010
1000
,  // measure 44
0001
0000
0010
0001
0000
0001
0100
0010
,  // measure 45
1000
0000
1000
0010
0100
0000
1010
0000
,  // measure 46
1000
0000
1000
0010
0100
0000
1010
0000
,  // measure 47
0100
0000
0010
0001
0100
0000
0101
0000
,  // measure 48
0010
0000
1000
0001
0000
1000
0001
1000
,  // measure 49
0100
0000
0010
0001
0100
0000
0101
0000
,  // measure 50
0001
0000
0010
0001
0100
0000
0101
0000
,  // measure 51
0100
0000
0010
1000
0100
0000
1100
0000
,  // measure 52
0001
0000
1000
0100
0000
0010
0001
1000
,  // measure 53
2002
0000
0000
3003
,  // measure 54
0001
0000
0100
0010
0000
1000
0100
0010
,  // measure 55
0001
0000
1000
0001
0000
1000
0001
0100
,  // measure 56
0010
0000
1000
0010
0100
0001
0100
0001
,  // measure 57
0010
0100
0010
0001
1000
1000
0001
0100
,  // measure 58
0001
0000
1000
0100
0000
1000
0100
0000
,  // measure 59
0010
0000
0001
0100
0000
0010
1000
0001
,  // measure 60
1000
0000
0010
0100
0000
0010
0100
0000
,  // measure 61
0001
0100
0001
1000
0100
1000
0001
1000
,  // measure 62
0100
0000
1000
0001
0000
0100
0100
0000
,  // measure 63
0010
0000
1000
0001
0000
0010
0010
0000
,  // measure 64
0001
0000
1000
0100
0000
0010
0001
0000
,  // measure 65
1000
0000
0100
1000
0000
0001
0100
0010
,  // measure 66
0100
0000
0001
0001
0000
1000
0100
0010
,  // measure 67
0001
0000
1000
1000
0000
0010
0100
0001
,  // measure 68
0011
0000
0000
1100
0000
0000
1001
0000
,  // measure 69
1000
0010
1000
0001
0100
0001
0010
0000
,  // measure 70
0001
0100
0001
0100
0010
0100
0010
0100
,  // measure 71
0010
1000
0010
1000
0001
1000
0100
0010
,  // measure 72
0001
0010
0100
0010
0100
0010
0001
0100
,  // measure 73
0010
1000
0010
0100
0001
0100
0010
1000
,  // measure 74
0100
0010
0001
0010
0100
0001
0100
1000
,  // measure 75
0001
0100
0010
0100
0001
0100
1000
0100
,  // measure 76
0010
1000
0100
0010
0001
0010
0100
0001
,  // measure 77
0100
0010
0001
0100
1000
0100
0010
1000
,  // measure 78
0001
1000
0100
1000
0001
0100
0010
0100
,  // measure 79
0001
0010
0100
0010
0001
1000
0100
0010
,  // measure 80
0100
0001
0100
1000
0100
0010
0100
0010
,  // measure 81
0001
0100
1000
0001
0010
1000
0001
1000
,  // measure 82
2002
0000
0000
0000
,  // measure 83
0000
0000
0000
0000
,  // measure 84
3003
0000
0000
0000
;

//---------------dance-single - Oni-91----------------
#NOTEDATA:;
#CHARTNAME:;
#STEPSTYPE:dance-single;
#DESCRIPTION:Oni-91;
#CHARTSTYLE:;
#DIFFICULTY:Medium;
#METER:7;
#RADARVALUES:0.537224,0.522746,0.266707,0.088902,0.000000,423.000000,393.000000,30.000000,10.000000,0.000000,0.000000,0.000000,0.000000,0.000000,0.537224,0.522746,0.266707,0.088902,0.000000,423.000000,393.000000,30.000000,10.000000,0.000000,0.000000,0.000000,0.000000,0.000000;
#CREDIT:Oni-91;
#DISPLAYBPM:192.000000;
#NOTES:
// measure 0
1000
0000
0000
0001
0000
0000
0100
0000
,  // measure 1
0001
0000
0000
1000
0000
0000
0100
0000
,  // measure 2
1000
0000
0000
0001
0000
0000
0100
0000
,  // measure 3
0010
0000
0000
0100
0000
0000
0001
0000
,  // measure 4
1001
1000
0100
0010
,  // measure 5
0001
0000
1000
0001
0000
1000
0001
0000
,  // measure 6
0100
0010
1000
0001
,  // measure 7
0010
0000
0100
0010
0100
0000
0010
0000
,  // measure 8
0001
1000
0010
0100
,  // measure 9
0001
0000
1000
0100
0000
0010
0001
0000
,  // measure 10
1000
0000
0001
0010
0001
0000
1000
0010
,  // measure 11
1000
0000
0001
0100
0010
0000
1000
0000
,  // measure 12
1001
0000
0001
0200
0000
0000
0310
0000
,  // measure 13
1000
0000
0100
0020
0000
0000
0031
0000
,  // measure 14
1001
0000
1000
0001
1000
0000
0001
0000
,  // measure 15
1001
0000
1000
0001
1000
0000
0010
0000
,  // measure 16
1001
0000
1000
0001
1000
0000
0100
0000
,  // measure 17
1001
0000
0000
0001
0000
0000
0100
0000
,  // measure 18
0110
0000
1000
0001
1000
0000
0001
0000
,  // measure 19
0110
0000
1000
0001
1000
0000
0010
0000
,  // measure 20
0110
0000
1000
0001
1000
0000
0100
0000
,  // measure 21
0011
0000
0000
1001
0000
0000
1100
0000
,  // measure 22
2002
0000
0000
3003
,  // measure 23
1001
0000
0010
0001
0000
1000
0100
0000
,  // measure 24
1000
0000
0010
1000
0000
0001
0100
0000
,  // measure 25
0001
0000
1000
0100
1000
0000
0001
0100
,  // measure 26
0001
0000
1000
0000
0100
0010
0001
0100
,  // measure 27
0001
0000
1000
0010
0000
0010
1000
0000
,  // measure 28
0001
0000
0010
0001
0000
0001
1000
0000
,  // measure 29
0001
0000
0100
0001
0100
0000
0010
1000
,  // measure 30
0001
0000
1000
0100
0010
0001
0100
0000
,  // measure 31
1001
0000
0001
1000
0000
0001
1000
0000
,  // measure 32
0001
0000
0010
0100
0000
0010
0100
0000
,  // measure 33
1000
0000
0001
0100
0000
0010
1000
0001
,  // measure 34
1000
0000
0000
1100
0000
0000
1001
0000
,  // measure 35
0001
0000
0010
0001
0000
0010
0001
0000
,  // measure 36
1000
0001
1000
0001
1000
0000
0001
0000
,  // measure 37
0100
0000
0010
1000
0000
0010
1000
0000
,  // measure 38
0001
0000
1000
0100
0010
0000
0100
0000
,  // measure 39
1000
0000
0001
0100
0000
0001
0100
0000
,  // measure 40
0010
0000
1000
0001
1000
0000
0100
0000
,  // measure 41
0010
0000
0100
0010
0001
0000
1000
0010
,  // measure 42
0000
1000
0010
0100
0001
0000
1000
0000
,  // measure 43
0010
0000
1000
0200
0000
0000
1300
0000
,  // measure 44
0001
0000
0100
0002
0000
0000
0103
0000
,  // measure 45
0001
0000
1000
0100
1000
0000
0001
0000
,  // measure 46
0001
0000
1000
0100
1000
0000
0010
0000
,  // measure 47
0010
0000
1000
0100
1000
0000
0001
0000
,  // measure 48
0100
0000
0010
1000
0000
0001
0100
0000
,  // measure 49
0010
0000
1000
0001
1000
0000
0010
0000
,  // measure 50
0010
0000
1000
0001
1000
0000
0100
0000
,  // measure 51
0100
0000
1000
0001
1000
0000
0001
0000
,  // measure 52
1100
0000
0000
0011
0000
0000
0110
0000
,  // measure 53
2002
0000
0000
3003
,  // measure 54
1000
0000
0100
1000
0000
0100
1000
0000
,  // measure 55
0001
0000
0100
0001
0000
0100
0001
0000
,  // measure 56
1000
0000
0001
0100
0001
0000
1000
0000
,  // measure 57
0100
0000
0010
0100
0010
0000
0001
0000
,  // measure 58
1000
0000
0001
0100
0000
0001
1000
0000
,  // measure 59
0001
0000
1000
0100
0010
0000
0001
0000
,  // measure 60
1000
0000
0001
0010
0001
0000
1000
0000
,  // measure 61
0001
0000
1000
0010
1000
0001
0100
0000
,  // measure 62
1001
0000
1000
0001
0000
1000
0001
0000
,  // measure 63
0100
0000
0010
0100
0000
0010
0100
0000
,  // measure 64
0001
0000
1000
0100
0010
0001
1000
0000
,  // measure 65
0001
0000
1000
0001
0000
1000
0001
0000
,  // measure 66
0100
0000
0010
1000
0100
0000
0010
0000
,  // measure 67
0100
0000
0010
0001
0000
1000
0100
0000
,  // measure 68
1100
0000
0000
1001
0000
0000
0101
0000
,  // measure 69
0001
1000
0000
0000
1010
0000
1001
0000
,  // measure 70
0001
0100
0001
0000
0100
0001
0100
0000
,  // measure 71
0001
1000
0001
0000
1000
0001
1000
0000
,  // measure 72
0100
1000
0100
0000
0010
0001
0010
0000
,  // measure 73
0001
1000
0010
0100
,  // measure 74
0010
0100
0001
0000
1000
0001
0100
0000
,  // measure 75
0001
1000
0100
0000
0010
0001
1000
0000
,  // measure 76
0010
0100
0001
0000
0100
0001
1000
0000
,  // measure 77
1000
0001
0100
0010
,  // measure 78
1000
0010
1000
0000
0001
0100
0010
0000
,  // measure 79
0100
0001
0100
0000
0001
1000
0100
0000
,  // measure 80
0010
0001
0010
0000
0001
1000
0010
0000
,  // measure 81
0100
0010
1010
1001
,  // measure 82
0220
0000
0000
0000
,  // measure 83
0000
0000
0000
0000
,  // measure 84
0330
0000
0000
0000
;

//---------------dance-single - Oni-91----------------
#NOTEDATA:;
#CHARTNAME:;
#STEPSTYPE:dance-single;
#DESCRIPTION:Oni-91;
#CHARTSTYLE:;
#DIFFICULTY:Easy;
#METER:5;
#RADARVALUES:0.377200,0.373390,0.168914,0.177805,0.000000,297.000000,278.000000,19.000000,20.000000,0.000000,0.000000,0.000000,0.000000,0.000000,0.377200,0.373390,0.168914,0.177805,0.000000,297.000000,278.000000,19.000000,20.000000,0.000000,0.000000,0.000000,0.000000,0.000000;
#CREDIT:Oni-91;
#DISPLAYBPM:192.000000;
#NOTES:
// measure 0
1000
0100
0010
0000
,  // measure 1
0001
0100
0010
0000
,  // measure 2
1000
0001
1000
0000
,  // measure 3
1001
0000
0000
1001
0000
0000
1001
0000
,  // measure 4
0001
0100
0001
0000
,  // measure 5
1000
0100
0010
0000
,  // measure 6
0100
0010
0001
0100
,  // measure 7
0010
1000
0010
1000
,  // measure 8
0001
1000
0001
0000
,  // measure 9
0100
0010
0100
0000
,  // measure 10
0010
1000
0100
0010
,  // measure 11
0001
0100
0001
1000
,  // measure 12
0001
0100
0001
0000
,  // measure 13
1000
0100
1000
0000
,  // measure 14
0001
1000
0010
0010
,  // measure 15
1000
0001
0010
0010
,  // measure 16
0001
1000
0010
0010
,  // measure 17
0110
0000
0000
2002
0000
0000
3003
0000
,  // measure 18
1000
0001
0100
0100
,  // measure 19
0010
1000
0100
0100
,  // measure 20
0010
0001
0100
0100
,  // measure 21
0110
0000
0000
2002
0000
0000
3003
0000
,  // measure 22
0220
0000
0000
0330
,  // measure 23
0010
1000
0100
0000
,  // measure 24
0010
0001
1000
0000
,  // measure 25
0001
0100
0010
1000
,  // measure 26
0100
0001
0100
1000
,  // measure 27
0001
0000
1000
0001
,  // measure 28
0100
0000
0010
0100
,  // measure 29
0001
0100
0010
1000
,  // measure 30
0100
0010
0001
1000
,  // measure 31
0001
0001
1000
0000
,  // measure 32
0010
0100
0001
0000
,  // measure 33
1000
0100
0010
0001
,  // measure 34
1001
0000
0000
2002
0000
0000
3003
0000
,  // measure 35
1000
0100
1000
0000
,  // measure 36
0001
0100
0001
0000
,  // measure 37
1000
0010
0100
0001
,  // measure 38
0010
0100
0010
0001
,  // measure 39
1001
0000
1000
0000
,  // measure 40
0010
0100
0001
0000
,  // measure 41
1000
0100
0010
0100
,  // measure 42
0010
0001
1000
0001
,  // measure 43
1001
0000
0000
2002
0000
0000
3003
0000
,  // measure 44
0110
0000
0000
0220
0000
0000
0330
0000
,  // measure 45
0010
1000
0100
0100
,  // measure 46
0010
0001
0100
0100
,  // measure 47
0001
1000
0100
0100
,  // measure 48
1000
0000
0000
2002
0000
0000
3003
0000
,  // measure 49
0001
0100
0010
0010
,  // measure 50
1000
0001
0010
0010
,  // measure 51
0100
1000
0010
0010
,  // measure 52
0100
0000
0000
0220
0000
0000
0330
0000
,  // measure 53
2002
0000
0000
3003
,  // measure 54
1000
0001
0100
0000
,  // measure 55
0001
1000
0100
0000
,  // measure 56
1000
0100
0010
0100
,  // measure 57
1000
0001
0100
0010
,  // measure 58
0100
0000
0001
1000
,  // measure 59
0100
0000
1000
0001
,  // measure 60
0100
0010
0100
0001
,  // measure 61
0010
0100
0010
0001
,  // measure 62
1000
1000
1000
0000
,  // measure 63
0001
0001
0100
0000
,  // measure 64
0010
0100
0001
1000
,  // measure 65
0100
0010
0001
1000
,  // measure 66
0010
0100
0001
0000
,  // measure 67
1000
0100
1000
0000
,  // measure 68
0001
0000
0000
0001
0000
0000
1000
0000
,  // measure 69
0000
1000
0000
0000
0001
0000
1000
0000
,  // measure 70
0001
0100
0001
0100
,  // measure 71
0010
1000
0010
1000
,  // measure 72
0001
1000
0001
1000
,  // measure 73
0001
0010
0001
0010
,  // measure 74
0100
0010
0001
0100
,  // measure 75
0010
1000
0100
1000
,  // measure 76
0001
0100
0010
1000
,  // measure 77
0010
0100
0010
1000
,  // measure 78
0001
0010
0100
0001
,  // measure 79
0100
0010
0001
1000
,  // measure 80
0010
0100
1000
0100
,  // measure 81
0010
1000
0001
1000
,  // measure 82
2002
0000
0000
0000
,  // measure 83
0000
0000
0000
0000
,  // measure 84
3003
0000
0000
0000
;

//---------------dance-single - Oni-91----------------
#NOTEDATA:;
#CHARTNAME:;
#STEPSTYPE:dance-single;
#DESCRIPTION:Oni-91;
#CHARTSTYLE:;
#DIFFICULTY:Beginner;
#METER:2;
#RADARVALUES:0.187965,0.252038,0.071122,0.000000,0.000000,148.000000,140.000000,8.000000,0.000000,0.000000,0.000000,0.000000,0.000000,0.000000,0.187965,0.252038,0.071122,0.000000,0.000000,148.000000,140.000000,8.000000,0.000000,0.000000,0.000000,0.000000,0.000000,0.000000;
#CREDIT:Oni-91;
#DISPLAYBPM:192.000000;
#NOTES:
// measure 0
1000
0000
0001
0000
,  // measure 1
0100
0000
0001
0000
,  // measure 2
1000
0000
0100
0000
,  // measure 3
1001
0000
0000
0000
,  // measure 4
1001
0000
0000
0000
,  // measure 5
0001
0000
0100
0000
,  // measure 6
0001
0000
0001
0000
,  // measure 7
1000
0000
1000
0000
,  // measure 8
0100
0000
0000
0000
,  // measure 9
0010
0000
0100
0000
,  // measure 10
0010
0000
0001
0000
,  // measure 11
1000
0000
0010
0000
,  // measure 12
0100
0000
0000
0000
,  // measure 13
0010
0000
0000
0000
,  // measure 14
0100
0000
0000
0000
,  // measure 15
0001
0000
0000
0000
,  // measure 16
1000
0000
0100
0000
,  // measure 17
1000
0000
0000
0000
,  // measure 18
0001
0000
0000
0000
,  // measure 19
1000
0000
0000
0000
,  // measure 20
0001
0000
0010
0000
,  // measure 21
0001
0000
0000
0000
,  // measure 22
1001
0000
0000
0000
,  // measure 23
0001
0000
0100
0000
,  // measure 24
0001
0000
0000
0000
,  // measure 25
1000
0000
0100
0000
,  // measure 26
0010
0000
0001
0000
,  // measure 27
0100
0000
0010
0000
,  // measure 28
0100
0000
0000
0000
,  // measure 29
0010
0000
1000
0000
,  // measure 30
0001
0000
1000
0000
,  // measure 31
0100
0000
0010
0000
,  // measure 32
0100
0000
0000
0000
,  // measure 33
0010
0000
0001
0000
,  // measure 34
1001
0000
0000
0000
,  // measure 35
0110
0000
0000
0000
,  // measure 36
0100
0000
0010
0000
,  // measure 37
1000
0000
0001
0000
,  // measure 38
1000
0000
0100
0000
,  // measure 39
0010
0000
0000
0000
,  // measure 40
0100
0000
0010
0000
,  // measure 41
0100
0000
0010
0000
,  // measure 42
0001
0000
1000
0000
,  // measure 43
0100
0000
0000
0000
,  // measure 44
0010
0000
0000
0000
,  // measure 45
0001
0000
1000
1000
,  // measure 46
1000
0000
0001
0001
,  // measure 47
0001
0000
0100
0100
,  // measure 48
0100
0000
0000
0000
,  // measure 49
0010
0000
0100
0100
,  // measure 50
0100
0000
0001
0001
,  // measure 51
0001
0000
1000
1000
,  // measure 52
1000
0000
0000
0000
,  // measure 53
1001
0000
0000
0000
,  // measure 54
0001
0000
0100
0000
,  // measure 55
0001
0000
0000
0000
,  // measure 56
1000
0000
0100
0000
,  // measure 57
0010
0000
0100
0000
,  // measure 58
1000
0000
0001
0000
,  // measure 59
1000
0000
0000
0000
,  // measure 60
0001
0000
0100
0000
,  // measure 61
0010
0000
0100
0000
,  // measure 62
0001
0000
0010
0000
,  // measure 63
0001
0000
0000
0000
,  // measure 64
1000
0000
0100
0000
,  // measure 65
1001
0000
0000
0000
,  // measure 66
0001
0000
0100
0000
,  // measure 67
0010
0000
0100
0000
,  // measure 68
1001
0000
0000
0000
,  // measure 69
0000
0000
0000
0000
,  // measure 70
0001
0000
1000
0000
,  // measure 71
0001
0000
1000
0000
,  // measure 72
0010
0000
0100
0000
,  // measure 73
0010
0000
0100
0000
,  // measure 74
0001
0000
0100
0000
,  // measure 75
0010
0000
1000
0000
,  // measure 76
0100
0000
0010
0000
,  // measure 77
0001
0000
1000
0000
,  // measure 78
0100
0000
1000
0000
,  // measure 79
0001
0000
0100
0000
,  // measure 80
0010
0000
0100
0100
,  // measure 81
0100
0000
0000
0000
;
