#TITLE:Girls & Boys;
#SUBTITLE:;
#ARTIST:Blur;
#TITLETRANSLIT:;
#SUBTITLETRANSLIT:;
#ARTISTTRANSLIT:;
#GENRE:;
#CREDIT:;
#BANNER:Girls & Boys.png;
#BACKGROUND:Girls & Boys-bg.png;
#LYRICSPATH:;
#CDTITLE:;
#MUSIC:Girls & Boys.mp3;
#OFFSET:-0.010000;
#SAMPLESTART:47.976097;
#SAMPLELENGTH:13.996033;
#SELECTABLE:YES;
#BPMS:0.000000=120.034004
;
#STOPS:
;
#BGCHANGES:-1.400=Girls & Boys.avi=1.000=1=0=0=StretchNoLoop==CrossFade==,
232.000=Girls & Boys-bg.png=1.000=1=0=1===CrossFade==,
99999=-nosongbg-=1.000=0=0=0 // don't automatically add -songbackground-
;
#KEYSOUNDS:;
#ATTACKS:;

//---------------dance-single - Oni-91----------------
#NOTES:
     dance-single:
     :
     Hard:
     7:
     0.402754,0.458952,0.221281,0.319628,0.000000,344.000000,317.000000,27.000000,39.000000,0.000000,0.000000,0.402754,0.458952,0.221281,0.319628,0.000000,344.000000,317.000000,27.000000,39.000000,0.000000,0.000000:
// measure 0
0000
0000
0000
0000
,  // measure 1
0000
0000
0000
0000
,  // measure 2
0000
0000
0000
0000
,  // measure 3
0000
0000
0000
0000
,  // measure 4
1000
0100
0000
0010
0001
0010
0000
0001
,  // measure 5
1000
0001
0200
0000
1000
0000
0301
0000
,  // measure 6
1020
0031
1200
0301
,  // measure 7
0021
0000
0130
0000
1001
0001
1001
0000
,  // measure 8
1000
0100
0001
0100
1000
0000
0001
0000
,  // measure 9
0100
0000
0010
0000
1000
0010
1000
0000
,  // measure 10
0001
0100
0010
0100
0001
0000
1000
0000
,  // measure 11
0001
0000
0010
0000
0100
0010
0001
0000
,  // measure 12
1000
0010
1000
0010
0100
0000
0010
0000
,  // measure 13
1000
0000
0100
0000
0010
0001
1000
0100
,  // measure 14
0020
1030
0020
0031
,  // measure 15
0200
0000
1300
0000
1100
0100
0101
0000
,  // measure 16
0001
0010
0100
2000
0000
0010
3010
0000
,  // measure 17
1000
0000
0010
1000
0100
0000
0010
0001
,  // measure 18
0100
0001
0100
0010
0100
0000
0010
1000
,  // measure 19
0001
0000
0010
0001
1000
0000
0001
1000
,  // measure 20
0100
0010
0100
2000
0000
0001
3001
0000
,  // measure 21
1000
0010
0200
0000
1000
0000
0301
0000
,  // measure 22
1000
0100
0010
0001
1000
0010
0100
0001
,  // measure 23
1000
0001
1000
0001
0110
0000
1001
0000
,  // measure 24
1000
0100
0010
0002
0000
0013
0001
0200
,  // measure 25
0000
0301
0100
2000
0000
3100
1000
0020
,  // measure 26
0000
1030
0010
0002
0000
0013
0001
2000
,  // measure 27
0000
3001
1000
0002
0000
1000
1003
0000
,  // measure 28
0001
0020
0000
2030
0000
3200
0000
0302
,  // measure 29
0000
0023
0000
0130
0010
0001
1000
0000
,  // measure 30
0001
0100
0020
0000
1030
0100
0020
0000
,  // measure 31
0130
0010
0002
1000
1003
0001
1001
0000
,  // measure 32
0001
0010
0100
0010
0001
0000
1001
0000
,  // measure 33
1000
0010
0100
0100
0010
0100
0001
0001
,  // measure 34
1000
0100
0010
0002
0000
0010
0013
0000
,  // measure 35
0001
0100
0010
0010
1000
0001
0010
0010
,  // measure 36
0001
1000
0100
2000
0000
0010
3010
0000
,  // measure 37
0010
1000
0200
0000
0001
0000
1300
0000
,  // measure 38
0001
0100
0010
0100
0001
1000
0100
0010
,  // measure 39
0100
0100
0100
0100
0000
1001
1001
1001
,  // measure 40
0001
0100
0010
0200
0000
0001
0301
0000
,  // measure 41
0001
1000
0100
0010
0100
1000
0001
0100
,  // measure 42
0010
1000
0010
2000
0000
0001
3001
0000
,  // measure 43
0001
0010
0100
0001
0100
1000
0001
1000
,  // measure 44
0001
0100
0010
0200
0000
0001
0301
0000
,  // measure 45
1000
0010
0200
0000
1000
0000
0301
0000
,  // measure 46
1000
0100
0001
0100
1000
0010
0001
0010
,  // measure 47
1000
0100
0010
0000
0110
1001
0110
0000
,  // measure 48
0001
1000
0001
1001
0000
1000
0100
1100
,  // measure 49
0000
0010
0100
0110
0000
0010
0001
1100
,  // measure 50
0000
1000
0010
0101
0000
0001
0100
1010
,  // measure 51
0000
1000
0100
0012
0000
0000
1003
0000
,  // measure 52
0001
0020
0000
2030
0000
3020
0000
0032
,  // measure 53
0000
2003
0000
3001
0100
0010
2000
0000
,  // measure 54
3001
0100
0010
0100
1000
0100
0010
0100
,  // measure 55
0001
0010
0100
0010
0110
0100
1100
1000
,  // measure 56
1001
0000
0000
0000
;

//---------------dance-single - Oni-91----------------
#NOTES:
     dance-single:
     :
     Medium:
     4:
     0.295041,0.344214,0.106543,0.114738,0.000000,252.000000,239.000000,13.000000,14.000000,0.000000,0.000000,0.295041,0.344214,0.106543,0.114738,0.000000,252.000000,239.000000,13.000000,14.000000,0.000000,0.000000:
// measure 0
0000
0000
0000
0000
,  // measure 1
0000
0000
0000
0000
,  // measure 2
0000
0000
0000
0000
,  // measure 3
0000
0000
0000
0000
,  // measure 4
1000
0001
0100
0001
,  // measure 5
1000
0100
2000
0000
0010
0000
3001
0000
,  // measure 6
0001
0101
1000
1100
,  // measure 7
0010
0000
1001
0000
0100
0100
0100
0000
,  // measure 8
1000
0000
0001
1000
0002
0000
0003
0000
,  // measure 9
0001
0100
0010
1000
,  // measure 10
0001
0000
1000
0010
2000
0000
3000
0000
,  // measure 11
0001
0100
1000
0100
,  // measure 12
0001
0000
1000
0001
2000
0000
3000
0000
,  // measure 13
1000
0000
0100
0000
0010
0001
0010
0000
,  // measure 14
0001
0100
1000
0100
,  // measure 15
0010
0000
0100
0000
0001
0001
0001
0000
,  // measure 16
1000
0000
0001
0010
0000
0010
0001
0000
,  // measure 17
1000
0001
0100
0010
,  // measure 18
1000
0000
0010
1000
0000
1000
0001
0000
,  // measure 19
1000
0000
0100
0000
0010
0001
1000
0000
,  // measure 20
0001
0000
1000
0010
0000
0100
0001
0000
,  // measure 21
1000
0100
0010
0100
,  // measure 22
1000
0000
0001
0100
0001
0000
1000
0010
,  // measure 23
1000
0000
1001
0110
,  // measure 24
1001
0000
1000
0100
0000
0010
0001
0010
,  // measure 25
0000
0001
0100
0001
0000
1000
0010
1000
,  // measure 26
0000
0010
0100
0010
0000
0100
0001
0100
,  // measure 27
0000
0001
2000
0002
0000
0000
3003
0000
,  // measure 28
1000
0100
0000
0001
0000
0100
0000
1000
,  // measure 29
0000
0001
0000
1000
0010
0000
0100
0000
,  // measure 30
0002
0010
0000
1000
,  // measure 31
0000
0100
0010
1003
,  // measure 32
0110
0000
1000
0002
0000
0000
0103
0000
,  // measure 33
0010
2000
3100
0020
,  // measure 34
0031
0000
1000
0001
0000
1000
0001
0000
,  // measure 35
0100
0020
1030
0200
,  // measure 36
0310
0000
0001
0010
0000
0100
1000
0000
,  // measure 37
0001
0000
0100
0000
0010
0000
1000
0001
,  // measure 38
1000
0001
1000
0100
,  // measure 39
0010
0100
0010
0200
0000
0010
0310
0000
,  // measure 40
0100
0000
1000
0001
0000
1000
0001
0000
,  // measure 41
1000
0010
0100
0010
,  // measure 42
1000
0000
0010
0100
0000
0001
1000
0000
,  // measure 43
0001
0010
0100
1000
,  // measure 44
0001
0010
0001
0010
0000
0001
1000
0000
,  // measure 45
0001
0000
0100
0000
0010
0000
1000
0010
,  // measure 46
1000
0100
0001
0100
,  // measure 47
1000
0000
0001
0000
0100
0100
0100
0000
,  // measure 48
0010
0000
1000
0100
0000
0010
0001
0010
,  // measure 49
0000
0100
1000
0100
0000
1000
0001
0100
,  // measure 50
0000
0001
1000
0100
0000
1000
0010
0100
,  // measure 51
0000
0010
0100
0002
0000
0000
0003
0000
,  // measure 52
1000
0100
0000
0001
0000
0100
0000
1000
,  // measure 53
0000
0010
0000
0001
0010
0000
1000
0000
,  // measure 54
0001
0011
1000
1010
,  // measure 55
0001
0101
0110
1001
,  // measure 56
0110
0000
0000
0000
;

//---------------dance-single - Oni-91----------------
#NOTES:
     dance-single:
     :
     Easy:
     2:
     0.152204,0.160633,0.016391,0.073760,0.000000,130.000000,128.000000,2.000000,9.000000,0.000000,0.000000,0.152204,0.160633,0.016391,0.073760,0.000000,130.000000,128.000000,2.000000,9.000000,0.000000,0.000000:
// measure 0
0000
0000
0000
0000
,  // measure 1
0000
0000
0000
0000
,  // measure 2
0000
0000
0000
0000
,  // measure 3
0000
0000
0000
0000
,  // measure 4
1000
0000
0100
0000
,  // measure 5
1000
0001
0100
0001
,  // measure 6
1000
2000
3000
0002
,  // measure 7
0003
0100
0100
0100
,  // measure 8
0010
1000
0001
0000
,  // measure 9
1000
0000
0001
0000
,  // measure 10
1000
0100
0010
0000
,  // measure 11
0100
0000
0010
0000
,  // measure 12
0001
1000
0001
0000
,  // measure 13
1000
0000
0001
1000
,  // measure 14
0002
0000
0000
0000
,  // measure 15
0000
0000
1000
1000
,  // measure 16
1003
0001
0100
0000
,  // measure 17
0010
0000
0100
0000
,  // measure 18
0010
1000
0001
0000
,  // measure 19
1000
0000
0100
0000
,  // measure 20
0010
0001
1000
0000
,  // measure 21
0001
0000
0100
0010
,  // measure 22
0200
0000
0000
0000
,  // measure 23
0000
0000
0010
0310
,  // measure 24
0100
0000
0001
0000
,  // measure 25
1000
0000
0100
0010
,  // measure 26
0100
0000
0010
0000
,  // measure 27
0001
1000
0001
0000
,  // measure 28
1000
0000
0010
0000
,  // measure 29
0100
0100
0010
0010
,  // measure 30
0200
0000
0000
0000
,  // measure 31
0000
0000
0010
0310
,  // measure 32
0110
0000
0100
0000
,  // measure 33
0001
0000
1000
0000
,  // measure 34
0100
0010
0100
0000
,  // measure 35
0010
0000
0001
0000
,  // measure 36
1000
0001
1000
0000
,  // measure 37
0010
0000
0100
0010
,  // measure 38
0200
0000
0000
0000
,  // measure 39
0010
0010
0010
0010
,  // measure 40
0310
0000
0100
0000
,  // measure 41
0001
0000
1000
0000
,  // measure 42
0001
1000
0001
0000
,  // measure 43
1000
0000
0100
0000
,  // measure 44
0010
0001
0010
0000
,  // measure 45
0001
0000
0100
0000
,  // measure 46
0010
0020
0030
2000
,  // measure 47
3000
0001
1000
0001
,  // measure 48
1000
0000
0001
0000
,  // measure 49
0100
0000
0010
0000
,  // measure 50
0100
0000
0001
0000
,  // measure 51
1000
0100
1000
0000
,  // measure 52
0001
0000
1000
0000
,  // measure 53
0010
0010
0100
0100
,  // measure 54
0020
0000
0000
0000
,  // measure 55
0000
0000
0100
0130
,  // measure 56
0110
0000
0000
0000
;

//---------------dance-single - Oni-91----------------
#NOTES:
     dance-single:
     :
     Beginner:
     1:
     0.111226,0.160633,0.008196,0.000000,0.000000,95.000000,94.000000,1.000000,0.000000,0.000000,0.000000,0.111226,0.160633,0.008196,0.000000,0.000000,95.000000,94.000000,1.000000,0.000000,0.000000,0.000000:
// measure 0
0000
0000
0000
0000
,  // measure 1
0000
0000
0000
0000
,  // measure 2
0000
0000
0000
0000
,  // measure 3
0000
0000
0000
0000
,  // measure 4
1000
0000
0000
0000
,  // measure 5
0001
0000
0000
0000
,  // measure 6
1000
1000
0000
0001
,  // measure 7
0000
0100
0100
0100
,  // measure 8
0100
0000
0000
0000
,  // measure 9
0010
0000
1000
0000
,  // measure 10
0001
0000
0000
0000
,  // measure 11
1000
0000
0100
0000
,  // measure 12
0010
0000
0000
0000
,  // measure 13
0100
0000
0010
0000
,  // measure 14
0100
0000
0000
0000
,  // measure 15
0010
0000
0001
0001
,  // measure 16
0001
0000
0000
0000
,  // measure 17
1000
0000
0001
0000
,  // measure 18
0100
0000
0000
0000
,  // measure 19
0010
0000
1000
0000
,  // measure 20
0100
0000
0000
0000
,  // measure 21
0010
0000
0100
0000
,  // measure 22
1000
0000
0000
0000
,  // measure 23
0001
0000
1000
1000
,  // measure 24
1000
0000
0001
0000
,  // measure 25
1000
0000
0001
0000
,  // measure 26
0100
0000
0010
0000
,  // measure 27
0100
0000
0010
0000
,  // measure 28
1000
0000
0010
0000
,  // measure 29
0100
0000
0001
0000
,  // measure 30
1000
0000
0000
0000
,  // measure 31
0001
0000
1000
1000
,  // measure 32
1000
0000
0000
0000
,  // measure 33
0001
0000
1000
0000
,  // measure 34
0100
0000
0000
0000
,  // measure 35
0010
0000
0001
0000
,  // measure 36
1000
0000
0000
0000
,  // measure 37
0001
0000
1000
0000
,  // measure 38
0001
0000
1000
0000
,  // measure 39
0001
0000
0100
0100
,  // measure 40
0100
0000
0000
0000
,  // measure 41
0010
0000
1000
0000
,  // measure 42
0001
0000
0000
0000
,  // measure 43
1000
0000
0100
0000
,  // measure 44
0010
0000
0000
0000
,  // measure 45
0001
0000
0010
0000
,  // measure 46
0001
0000
0001
0000
,  // measure 47
1000
0000
1000
1000
,  // measure 48
1000
0000
0010
0000
,  // measure 49
1000
0000
0010
0000
,  // measure 50
0100
0000
0001
0000
,  // measure 51
0100
0000
0001
0000
,  // measure 52
1000
0000
0100
0000
,  // measure 53
0010
0000
0001
0000
,  // measure 54
1001
0000
0000
0000
,  // measure 55
0000
0000
0010
0010
,  // measure 56
0010
0000
0000
0000
;
