#VERSION:0.83;
#TITLE:Get Out;
#SUBTITLE:;
#ARTIST:Ayaka Ikio;
#TITLETRANSLIT:;
#SUBTITLETRANSLIT:;
#ARTISTTRANSLIT:;
#GENRE:;
#ORIGIN:;
#CREDIT:;
#BANNER:Get Out.png;
#BACKGROUND:Get Out-bg.png;
#PREVIEWVID:;
#JACKET:;
#CDIMAGE:;
#DISCIMAGE:;
#LYRICSPATH:;
#CDTITLE:;
#MUSIC:Get Out.mp3;
#OFFSET:-7.410000;
#SAMPLESTART:65.990005;
#SAMPLELENGTH:14.760000;
#SELECTABLE:YES;
#BPMS:0.000=130.000;
#STOPS:;
#DELAYS:;
#WARPS:;
#TIMESIGNATURES:0.000=4=4;
#TICKCOUNTS:0.000=4;
#COMBOS:0.000=1;
#SPEEDS:0.000=1.000=0.000=0;
#SCROLLS:0.000=1.000;
#FAKES:;
#LABELS:0.000=Song Start;
#BGCHANGES:;
#KEYSOUNDS:;
#ATTACKS:
;

//---------------dance-single - Oni-91----------------
#NOTEDATA:;
#CHARTNAME:;
#STEPSTYPE:dance-single;
#DESCRIPTION:Oni-91;
#CHARTSTYLE:;
#DIFFICULTY:Hard;
#METER:7;
#RADARVALUES:0.444987,0.420280,0.221229,0.159285,0.115039,352.000000,327.000000,25.000000,18.000000,0.000000,0.000000,0.000000,0.000000,0.000000,0.444987,0.420280,0.221229,0.159285,0.115039,352.000000,327.000000,25.000000,18.000000,0.000000,0.000000,0.000000,0.000000,0.000000;
#CREDIT:Oni-91;
#NOTES:
// measure 0
1000
0100
0001
0000
1000
0100
0001
0000
,  // measure 1
1000
0100
2000
0000
3001
0100
0002
0000
,  // measure 2
1003
0010
0001
0000
1000
0010
0001
0000
,  // measure 3
1000
0010
2000
0000
3200
0000
0320
0000
,  // measure 4
0031
0100
0010
0000
0001
0100
0010
0000
,  // measure 5
1000
0001
2000
0000
3100
0010
0200
0000
,  // measure 6
0310
0001
1000
0000
0010
0001
1000
0000
,  // measure 7
0001
1000
0002
0000
0023
0000
0130
1000
,  // measure 8
0100
0000
1001
0000
1000
0100
1000
0000
,  // measure 9
0001
0010
0100
0010
0001
0000
1001
0000
,  // measure 10
1000
0010
0100
0000
0001
0010
0100
0000
,  // measure 11
0010
0001
1000
0001
0100
0000
0110
0000
,  // measure 12
0010
1000
0100
0000
1000
0100
0010
0001
,  // measure 13
1000
0000
0001
0000
0100
0100
0100
0000
,  // measure 14
0010
0000
1000
0000
0001
1000
0001
0000
,  // measure 15
1000
0000
0100
0001
0100
1000
0100
0000
,  // measure 16
0010
0000
1001
0000
0001
0100
0010
0000
,  // measure 17
1000
0010
0100
0001
0010
0000
0010
0000
,  // measure 18
0100
1000
0001
0000
1000
0010
0001
0010
,  // measure 19
1000
0001
1000
0100
0010
0000
0010
0000
,  // measure 20
0001
0000
1000
0001
0100
0000
0010
0100
,  // measure 21
0001
0010
0100
0000
0110
0000
1001
0000
,  // measure 22
2010
0000
3001
0000
0001
0100
1000
0000
,  // measure 23
1100
0000
0101
0100
0001
1000
0100
0000
,  // measure 24
0010
0000
0000
0001
0000
0000
0020
0000
0000
0000
0100
0000
0000
0130
0000
0000
,  // measure 25
0010
0000
0000
0100
0000
0000
2000
0000
0000
0000
0001
0000
0000
3001
0000
0000
,  // measure 26
1000
0000
0000
0001
0000
0000
0200
0000
0000
0000
0010
0000
0000
0310
0000
0000
,  // measure 27
0100
0000
0000
0001
0000
0000
1000
0000
0001
0010
0000
0000
0100
1000
0000
0000
,  // measure 28
0001
0000
0000
1000
0000
0000
0002
0000
0000
0000
0100
0000
0000
0103
0000
0000
,  // measure 29
0001
0000
0000
1000
0000
0000
0200
0000
0000
0000
1000
0000
0000
1300
0000
0000
,  // measure 30
0100
0000
0000
0010
0000
0000
0002
0000
0000
0000
1000
0000
0000
1003
0000
0000
,  // measure 31
0001
0000
0000
1000
0000
0000
0100
0000
0010
0000
0001
0000
0101
0000
0000
0000
,  // measure 32
1000
0010
1000
0010
0100
0001
0100
0001
,  // measure 33
1000
0100
0001
0010
,  // measure 34
1000
0001
1000
0001
0010
0001
0010
0001
,  // measure 35
0100
1000
0010
0001
,  // measure 36
0010
0001
1000
0100
0001
0100
1000
0010
,  // measure 37
0100
1000
0010
0001
,  // measure 38
1000
0001
0010
0100
0010
0001
1000
0010
,  // measure 39
0100
0110
1010
1001
,  // measure 40
0001
0100
0001
1000
0010
1000
0100
0010
,  // measure 41
0100
1100
1001
0101
,  // measure 42
0001
0100
1000
0100
0001
0010
0100
0010
,  // measure 43
0001
0011
1100
1001
,  // measure 44
1000
0010
1000
0001
0010
0100
0010
0001
,  // measure 45
1000
0000
1001
0000
0101
0000
0100
0010
,  // measure 46
1000
0100
0001
0100
1000
0010
0100
0001
,  // measure 47
0010
0000
0011
0000
1100
0000
1001
0001
,  // measure 48
0100
0000
0001
0000
1000
0000
0000
0001
0000
0000
1000
0000
0100
0000
0000
0000
,  // measure 49
0010
0000
0001
0000
0100
0000
0000
1000
0000
0000
0100
0000
0001
0000
1000
0000
,  // measure 50
0001
0000
0010
0000
0001
0000
0000
1000
0000
0000
0100
0000
0010
0000
0000
0000
,  // measure 51
0100
0000
1000
0000
0001
0000
0000
1000
0000
0000
0001
0000
0100
0001
0100
0000
,  // measure 52
0001
0000
1000
0000
0100
0000
0000
0010
0000
0000
0100
0000
1000
0000
0000
0000
,  // measure 53
0001
0000
0100
0000
0010
0000
0000
0100
0000
0000
0010
0000
0100
0000
0001
0000
,  // measure 54
1000
0000
0000
0100
0000
0000
0010
0000
0000
0001
0000
0000
1000
0000
0000
0001
,  // measure 55
0000
2002
0000
0000
0000
0000
0000
3003
;

//---------------dance-single - Oni-91----------------
#NOTEDATA:;
#CHARTNAME:;
#STEPSTYPE:dance-single;
#DESCRIPTION:Oni-91;
#CHARTSTYLE:;
#DIFFICULTY:Medium;
#METER:6;
#RADARVALUES:0.399477,0.371665,0.238927,0.106190,0.035397,316.000000,289.000000,27.000000,12.000000,0.000000,0.000000,0.000000,0.000000,0.000000,0.399477,0.371665,0.238927,0.106190,0.035397,316.000000,289.000000,27.000000,12.000000,0.000000,0.000000,0.000000,0.000000,0.000000;
#CREDIT:Oni-91;
#NOTES:
// measure 0
1000
0100
1000
0000
1000
0100
1000
0000
,  // measure 1
0001
0001
0002
0000
0013
0010
0020
0000
,  // measure 2
0031
1000
0001
0000
0001
1000
0001
0000
,  // measure 3
0100
0010
0200
0000
0302
0000
2003
0000
,  // measure 4
3001
0010
0001
0000
0001
0010
0001
0000
,  // measure 5
1000
1000
2000
0000
3100
0100
0200
0000
,  // measure 6
1300
0001
1000
0000
1000
0001
1000
0000
,  // measure 7
0001
0100
0002
0000
2003
0000
3200
0000
,  // measure 8
1300
1001
0001
0100
,  // measure 9
0010
0100
0010
0000
1000
0001
1000
0000
,  // measure 10
0001
0011
0010
0100
,  // measure 11
0010
0001
0010
0000
0001
1000
0001
0000
,  // measure 12
1000
1001
0001
0100
,  // measure 13
0010
0100
0001
0000
1000
0100
0010
0000
,  // measure 14
0100
0000
1000
0000
0010
0010
0100
0000
,  // measure 15
0001
0000
0010
0000
0100
0100
0010
0000
,  // measure 16
0100
0000
1100
0000
1000
0001
0100
0000
,  // measure 17
0010
0100
0001
0000
0010
0001
1000
0000
,  // measure 18
0001
0000
0011
0000
0010
0100
1000
0000
,  // measure 19
1000
0001
0100
0000
0100
0010
1000
0000
,  // measure 20
0001
0000
1100
0000
0100
0010
0001
0000
,  // measure 21
0010
0001
1000
0000
0001
1000
0001
0000
,  // measure 22
0100
1100
0100
0101
,  // measure 23
0001
0000
1000
0000
0100
1000
0100
0000
,  // measure 24
1000
0000
0000
1000
0000
0000
1000
0000
0001
0000
0000
0000
0100
0000
0000
0000
,  // measure 25
0010
0000
0000
0010
0000
0000
0010
0000
0100
0000
0000
0000
0001
0000
0000
0000
,  // measure 26
0100
0000
0000
0100
0000
0000
0100
0000
0001
0000
0000
0000
0010
0000
0000
0000
,  // measure 27
0001
0000
0000
0001
0000
0000
0001
0000
1000
0000
0000
0000
1001
0000
0000
0000
,  // measure 28
1000
0000
0000
0100
0000
0000
1000
0000
0001
0000
0000
0000
0010
0000
0000
0000
,  // measure 29
0100
0000
0000
0010
0000
0000
0100
0000
0010
0000
0000
0000
0001
0000
0000
0000
,  // measure 30
1000
0000
0000
0001
0000
0000
1000
0000
0001
0000
0000
0000
0100
0000
0000
0000
,  // measure 31
0010
0000
0000
0100
0000
0000
0001
0000
1000
0000
0000
0000
1001
0000
0000
0000
,  // measure 32
1000
0100
1000
0100
0010
0000
0001
0000
,  // measure 33
0100
0110
0010
1010
,  // measure 34
1000
0001
1000
0001
0010
0000
0100
0000
,  // measure 35
0010
0011
0001
0101
,  // measure 36
0100
0010
1000
0100
0010
0000
0100
0000
,  // measure 37
1000
0000
1001
0000
0001
0000
0100
0001
,  // measure 38
0000
0001
1000
0000
0001
0010
0100
0000
,  // measure 39
0010
0011
1100
1001
,  // measure 40
1000
0010
0100
0010
1000
0000
0001
0000
,  // measure 41
1000
0001
1000
0000
0001
0100
0001
0000
,  // measure 42
0100
0010
0100
0010
1000
0000
0001
0000
,  // measure 43
0010
0001
0010
0000
0100
1000
0100
0000
,  // measure 44
0010
0001
0100
0010
0100
0000
0001
0000
,  // measure 45
1000
0001
1000
0000
0001
0100
0001
0100
,  // measure 46
0000
0010
0100
0000
0010
1000
0001
0000
,  // measure 47
1000
1100
0110
0011
,  // measure 48
0001
1000
0001
0000
1000
0000
0100
0000
,  // measure 49
0010
0100
0010
0000
0001
0000
1001
0000
,  // measure 50
1000
0010
0100
0000
0010
0000
0100
0000
,  // measure 51
0001
1000
0010
0000
0100
0000
0110
0000
,  // measure 52
0010
1000
0100
0000
0010
0000
0100
0000
,  // measure 53
0010
0001
0100
0000
0010
0000
0110
0000
,  // measure 54
0100
0101
0001
1001
,  // measure 55
0220
0000
0000
0000
,  // measure 56
0330
0000
0000
0000
;

//---------------dance-single - Oni-91----------------
#NOTEDATA:;
#CHARTNAME:;
#STEPSTYPE:dance-single;
#DESCRIPTION:Oni-91;
#CHARTSTYLE:;
#DIFFICULTY:Easy;
#METER:5;
#RADARVALUES:0.270532,0.297332,0.194682,0.433609,0.000000,214.000000,192.000000,22.000000,49.000000,0.000000,0.000000,0.000000,0.000000,0.000000,0.270532,0.297332,0.194682,0.433609,0.000000,214.000000,192.000000,22.000000,49.000000,0.000000,0.000000,0.000000,0.000000,0.000000;
#CREDIT:Oni-91;
#NOTES:
// measure 0
1000
0100
0001
0100
,  // measure 1
1000
0100
0010
0001
,  // measure 2
1000
0010
0001
0010
,  // measure 3
1000
0010
0100
0001
,  // measure 4
1000
0001
0100
0001
,  // measure 5
1000
0100
0010
0001
,  // measure 6
1000
0010
1000
0100
,  // measure 7
0010
0100
0110
2002
,  // measure 8
3003
1000
0010
0100
,  // measure 9
0010
1000
1001
2002
,  // measure 10
3003
0001
0010
0100
,  // measure 11
0010
0001
1001
2002
,  // measure 12
3003
1000
0010
0001
,  // measure 13
0010
1000
1001
1001
,  // measure 14
0001
0010
0100
1000
,  // measure 15
0001
0001
1000
2000
,  // measure 16
3000
0001
1000
0100
,  // measure 17
0010
0100
0110
0220
,  // measure 18
0330
0010
0001
1000
,  // measure 19
0001
0100
0110
0220
,  // measure 20
0330
0010
1000
0001
,  // measure 21
1000
0100
0110
0110
,  // measure 22
0010
0001
1000
1000
,  // measure 23
0001
0100
0010
0010
,  // measure 24
2000
0000
3020
0000
,  // measure 25
0230
0000
0302
0100
,  // measure 26
0023
0000
0230
0000
,  // measure 27
2300
0000
3020
0100
,  // measure 28
2030
0000
3002
0000
,  // measure 29
0023
0000
0230
0010
,  // measure 30
0302
0000
0203
0000
,  // measure 31
2300
0100
0010
3001
,  // measure 32
2002
0000
0000
3003
,  // measure 33
1000
0100
0010
0001
,  // measure 34
2002
0000
0000
3003
,  // measure 35
0001
0100
0010
0100
,  // measure 36
0220
0000
0000
0330
,  // measure 37
0010
1000
0100
0010
,  // measure 38
0220
0000
0000
0330
,  // measure 39
0100
0010
0001
1001
,  // measure 40
1000
0010
0100
0001
,  // measure 41
2000
3200
0320
0032
,  // measure 42
1003
0001
0010
0100
,  // measure 43
0020
0032
0203
0320
,  // measure 44
1030
0100
1000
0100
,  // measure 45
2000
3020
0230
0302
,  // measure 46
1003
0001
0100
0010
,  // measure 47
2000
0010
0010
3010
,  // measure 48
1000
1000
0001
0001
,  // measure 49
0010
0100
0010
0001
,  // measure 50
1000
1000
0010
0010
,  // measure 51
0100
0001
0010
0100
,  // measure 52
0010
0010
0001
0001
,  // measure 53
1000
0010
0001
0010
,  // measure 54
0100
0110
0010
1010
,  // measure 55
2002
0000
0000
0000
,  // measure 56
3003
0000
0000
0000
;

//---------------dance-single - Oni-91----------------
#NOTEDATA:;
#CHARTNAME:;
#STEPSTYPE:dance-single;
#DESCRIPTION:Oni-91;
#CHARTSTYLE:;
#DIFFICULTY:Beginner;
#METER:1;
#RADARVALUES:0.120096,0.170346,0.017698,0.000000,0.000000,95.000000,93.000000,2.000000,0.000000,0.000000,0.000000,0.000000,0.000000,0.000000,0.120096,0.170346,0.017698,0.000000,0.000000,95.000000,93.000000,2.000000,0.000000,0.000000,0.000000,0.000000,0.000000,0.000000;
#CREDIT:Oni-91;
#NOTES:
// measure 0
1000
0000
0001
0000
,  // measure 1
0100
0000
0010
0010
,  // measure 2
0010
0000
0100
0000
,  // measure 3
0001
0000
1000
1000
,  // measure 4
1000
0000
0001
0000
,  // measure 5
0010
0000
0100
0100
,  // measure 6
0100
0000
0010
0000
,  // measure 7
0001
0001
0001
0001
,  // measure 8
0001
0000
1000
0000
,  // measure 9
0001
0000
0000
0000
,  // measure 10
0100
0000
0010
0000
,  // measure 11
0100
0000
0000
0000
,  // measure 12
0010
0000
1000
0000
,  // measure 13
0010
0000
1000
0000
,  // measure 14
0001
0000
1000
0000
,  // measure 15
0100
0000
0000
0000
,  // measure 16
0010
0000
0001
0000
,  // measure 17
0010
0000
0000
0000
,  // measure 18
0001
0000
1000
0000
,  // measure 19
0001
0000
0000
0000
,  // measure 20
1000
0000
0001
0000
,  // measure 21
0100
0000
1000
0000
,  // measure 22
0100
0000
0010
0000
,  // measure 23
1000
0000
0000
0000
,  // measure 24
1001
0000
0000
0000
,  // measure 25
0000
0000
0000
0000
,  // measure 26
1000
0000
0000
0000
,  // measure 27
0000
0000
0000
0000
,  // measure 28
0100
0000
0000
0000
,  // measure 29
0000
0000
0000
0000
,  // measure 30
0010
0000
0000
0000
,  // measure 31
0000
0000
0000
0000
,  // measure 32
0001
0000
0100
0000
,  // measure 33
0001
0000
1000
0000
,  // measure 34
0100
0000
0010
0000
,  // measure 35
0001
0000
1000
0000
,  // measure 36
0001
0000
0000
0000
,  // measure 37
0100
0000
0010
0000
,  // measure 38
0100
0000
0000
0000
,  // measure 39
0010
0000
1000
0000
,  // measure 40
0001
0000
1000
0000
,  // measure 41
0100
0000
0010
0000
,  // measure 42
0100
0000
1000
0000
,  // measure 43
0001
0000
0100
0000
,  // measure 44
0010
0000
0000
0000
,  // measure 45
0100
0000
0001
0000
,  // measure 46
1000
0000
0000
0000
,  // measure 47
0001
0000
0010
0000
,  // measure 48
0001
0000
0001
0000
,  // measure 49
1000
0000
1000
0000
,  // measure 50
0001
0000
0001
0000
,  // measure 51
0100
0000
0100
0000
,  // measure 52
0010
0000
0010
0000
,  // measure 53
0100
0000
0100
0000
,  // measure 54
0001
0000
0000
0000
,  // measure 55
1001
0000
0000
0000
;
