#VERSION:0.83;
#TITLE:Funny shuffle;
#SUBTITLE:;
#ARTIST:猫叉Master+;
#TITLETRANSLIT:;
#SUBTITLETRANSLIT:;
#ARTISTTRANSLIT:;
#GENRE:;
#ORIGIN:;
#CREDIT:;
#BANNER:Funny shuffle.png;
#BACKGROUND:Funny shuffle-bg.png;
#PREVIEWVID:;
#JACKET:;
#CDIMAGE:;
#DISCIMAGE:;
#LYRICSPATH:;
#CDTITLE:;
#MUSIC:Funny shuffle.mp3;
#OFFSET:-4.700000;
#SAMPLESTART:24.719698;
#SAMPLELENGTH:12.521738;
#SELECTABLE:YES;
#BPMS:0.000=115.000;
#STOPS:;
#DELAYS:;
#WARPS:;
#TIMESIGNATURES:0.000=4=4;
#TICKCOUNTS:0.000=4;
#COMBOS:0.000=1;
#SPEEDS:0.000=1.000=0.000=0;
#SCROLLS:0.000=1.000;
#FAKES:;
#LABELS:0.000=Song Start;
#BGCHANGES:;
#KEYSOUNDS:;
#ATTACKS:
;

//---------------dance-single - Oni-91----------------
#NOTEDATA:;
#CHARTNAME:;
#STEPSTYPE:dance-single;
#DESCRIPTION:Oni-91;
#CHARTSTYLE:;
#DIFFICULTY:Hard;
#METER:8;
#RADARVALUES:0.500064,0.519962,0.330598,0.350045,0.257672,360.000000,326.000000,34.000000,36.000000,0.000000,0.000000,0.000000,0.000000,0.000000,0.500064,0.519962,0.330598,0.350045,0.257672,360.000000,326.000000,34.000000,36.000000,0.000000,0.000000,0.000000,0.000000,0.000000;
#CREDIT:Oni-91;
#NOTES:
// measure 0
0200
1000
0000
0010
0000
0001
0000
0310
,  // measure 1
0002
0010
0000
1000
0000
0103
0001
1000
,  // measure 2
1001
0001
0100
0000
0010
1000
1001
0000
,  // measure 3
0001
0010
1000
0010
0100
0010
1001
0000
,  // measure 4
1000
0020
0130
0002
1003
0200
0310
0100
,  // measure 5
0010
0002
1003
0002
1003
0001
0101
0000
,  // measure 6
0010
0000
1001
0000
0100
0010
1000
0000
,  // measure 7
0001
0010
0100
0001
0100
1000
0001
1000
,  // measure 8
0022
0033
2200
3300
2020
3030
0202
0303
,  // measure 9
0001
2000
3010
0020
0130
0000
0000
0000
,  // measure 10
0010
0000
1001
0000
1000
0100
0110
0000
,  // measure 11
0010
0001
0100
1000
0100
0010
1000
0001
,  // measure 12
0010
0000
1001
0000
1000
0010
0100
0000
,  // measure 13
0010
0000
0000
1000
0000
0000
0001
0000
1000
0001
0000
0000
0100
0000
0000
0010
0000
0000
1001
0000
0000
0000
0000
0000
,  // measure 14
0100
0000
0000
0001
0000
0000
1100
0000
0000
0000
0000
0000
1000
0000
0000
0001
0000
0000
0010
0000
0001
0010
0000
0000
,  // measure 15
0001
0000
0000
1000
0000
0000
0010
0000
0000
1000
0000
0000
0100
0000
0000
0010
0000
0000
0100
0000
0010
0001
0000
0001
,  // measure 16
1000
0000
0000
0001
0000
0000
0101
0000
0000
0000
0000
0000
0100
0000
0000
0010
0000
0000
1000
0000
0000
0001
0000
1000
,  // measure 17
0100
0000
0000
0010
0000
0000
0001
0000
1000
0001
0000
0000
1000
0000
0100
0010
0000
0002
0000
0000
0103
0000
0000
0000
,  // measure 18
0001
0000
0100
0010
0000
2000
0000
0000
3001
0000
0000
0001
1000
0000
0001
1000
0000
0200
0000
0000
0000
0000
0000
0000
,  // measure 19
0000
0000
0000
0000
0310
0100
1000
0001
,  // measure 20
0100
0000
0000
0000
0000
0000
1001
0000
0000
0000
0000
1000
0100
0000
0000
0000
0000
0000
1001
0000
0000
0000
0000
0000
,  // measure 21
0001
0000
0000
0010
0000
0000
0100
0000
0000
1000
0000
1000
0100
0000
0000
0010
0000
0000
0001
0000
0000
0000
0000
0000
,  // measure 22
1000
0000
0000
0000
0000
0000
0110
0000
0000
0000
0000
0001
1000
0000
0000
0000
0000
0000
0110
0000
0000
0000
0000
0000
,  // measure 23
0010
0000
0000
0100
0000
0010
0100
0000
0000
0010
0000
0000
1000
0000
0001
1000
0000
0001
1000
0000
0000
0000
0000
0000
,  // measure 24
0011
0000
0000
0000
0000
0000
1001
0000
0000
0000
0000
1000
0010
0000
0000
0100
0000
0000
0101
0000
0000
0000
0000
0000
,  // measure 25
0001
0010
1000
0100
1000
0010
0002
0000
,  // measure 26
0103
0000
0000
0000
0000
0000
1010
0000
0000
0000
0000
1000
0100
0000
0000
0010
0000
0000
0011
0000
0000
0000
0000
0000
,  // measure 27
0001
0000
0000
0100
0000
0001
0100
0000
0000
0010
0000
0000
0001
0000
0000
0010
0000
0000
1001
0000
0000
0000
0000
0000
,  // measure 28
0100
0010
2000
0000
3200
0000
0302
0000
,  // measure 29
0203
0000
0320
0032
,  // measure 30
0203
2300
3200
0320
,  // measure 31
2030
0000
0000
0000
0000
0000
0000
0000
0000
0000
0000
0000
3001
0000
0000
1000
0000
0001
0000
0000
1000
0001
0000
0000
,  // measure 32
1000
0010
0001
0010
1000
0100
0001
0100
,  // measure 33
1000
0000
0000
0100
0000
0010
0100
0000
0010
0100
0000
0000
0010
0000
0000
0001
0000
0000
1001
0000
0000
0000
0000
0000
,  // measure 34
1000
0100
0010
0100
1000
0010
0001
0010
,  // measure 35
0200
0000
0000
0000
0000
0000
0310
0000
0000
1000
0000
0000
0001
0000
0000
0010
0000
0100
0000
0000
0100
1000
0000
0000
,  // measure 36
2002
0000
0000
0000
0000
3003
1001
0110
,  // measure 37
0010
0000
0000
1000
0000
0000
0001
0000
0000
0000
0000
0000
0001
0000
0000
0010
0000
0001
1000
0000
0000
1001
0000
0000
,  // measure 38
0001
0100
1010
0000
1000
0100
0011
0000
,  // measure 39
0001
0000
0000
1000
0000
0100
1000
0000
0100
0010
0000
0100
0010
0000
0000
0001
0000
1000
0001
0000
1000
0001
0000
0000
,  // measure 40
1000
0000
0000
0010
0000
0000
0100
0000
0000
0001
0000
0000
0010
0000
0000
0100
0000
0000
1000
0000
0001
0010
0000
0000
,  // measure 41
0001
0000
0000
0100
0000
0010
1000
0000
0000
0010
0000
0000
1000
0000
0000
0100
0000
0000
0110
0000
0000
0110
0000
0000
,  // measure 42
0010
0000
0000
0001
0000
0000
0100
0000
0000
1000
0000
0000
0100
0000
0000
0001
0000
0000
1000
0000
0001
1000
0000
0001
,  // measure 43
1000
0000
0000
0100
0000
0000
0010
0000
0000
0001
0000
0000
1000
0000
0000
0010
0000
0100
0000
0000
0001
0000
0000
1000
,  // measure 44
0100
0000
0010
0001
0000
1000
0000
0000
0001
0000
0000
1000
0010
0000
0100
0001
0000
1000
0000
0000
0001
0000
0000
0100
,  // measure 45
0010
0000
0100
0010
0000
0200
0000
0000
0000
0000
0000
0000
0000
0000
0000
0000
0000
0000
0000
0000
0000
0000
0000
0000
,  // measure 46
0000
0000
0300
0000
;

//---------------dance-single - Oni-91----------------
#NOTEDATA:;
#CHARTNAME:;
#STEPSTYPE:dance-single;
#DESCRIPTION:Oni-91;
#CHARTSTYLE:;
#DIFFICULTY:Challenge;
#METER:9;
#RADARVALUES:0.665363,0.700819,0.340321,0.243087,0.709813,479.000000,444.000000,35.000000,25.000000,0.000000,0.000000,0.000000,0.000000,0.000000,0.665363,0.700819,0.340321,0.243087,0.709813,479.000000,444.000000,35.000000,25.000000,0.000000,0.000000,0.000000,0.000000,0.000000;
#CREDIT:Oni-91;
#NOTES:
// measure 0
0200
0000
0000
0000
0000
0000
1000
0000
0000
0000
0000
0000
0010
0000
0000
0000
0000
0001
0000
0000
0301
0000
0000
0000
,  // measure 1
0001
0010
0100
1000
0100
0000
1001
0101
,  // measure 2
0010
1000
1001
0000
0001
0010
1100
0000
,  // measure 3
0001
0100
1000
0100
0010
1000
1001
0000
,  // measure 4
1000
0000
0000
0000
0000
1000
0100
0000
0000
0000
0000
0100
0010
0000
0000
0001
1000
0001
1000
0000
0000
0002
0000
0000
,  // measure 5
1003
0000
0000
0200
0000
0000
0310
0000
0000
0200
0000
0000
1300
0001
1000
0001
1000
0001
1000
0000
0000
0000
0000
0000
,  // measure 6
0001
0100
1010
1000
0100
0010
0011
0001
,  // measure 7
0100
1000
0100
0001
0010
0100
1100
0000
,  // measure 8
1000
0000
0000
0001
0010
0001
0010
0000
0000
0100
1000
0100
1000
0000
0000
0001
1000
0001
1000
0000
0000
0001
0000
0000
,  // measure 9
0100
0000
0000
0020
0000
0000
1030
0000
0000
0020
0000
0000
0130
0000
0001
0100
0000
0100
0001
0000
0001
1000
0000
1000
,  // measure 10
0001
0000
0000
0010
0000
0000
0100
0000
0000
0001
0000
0000
0100
0000
0000
1000
0000
0000
0001
0000
1000
0001
0000
0001
,  // measure 11
1000
0000
0000
0010
0000
0000
0100
0000
0000
1000
0000
0000
0100
0000
0000
0001
0000
0000
1000
0000
0100
0010
0000
0010
,  // measure 12
0100
0000
0000
0010
0000
0000
0001
0000
0000
1000
0000
0000
0010
0000
0000
0100
0000
0000
0001
0000
0100
0010
0000
1000
,  // measure 13
0100
0000
0000
1000
0000
0000
0001
0000
0010
0100
0000
0010
0001
0000
0000
1000
0000
0000
1001
0000
0000
0000
0000
0000
,  // measure 14
1000
0000
0000
0010
0000
0000
0110
0000
0000
0100
0000
0000
0001
0000
0000
1000
0000
0000
0100
0000
0010
0001
0000
1000
,  // measure 15
0100
0000
0000
1000
0000
0000
1001
0000
0000
0001
0000
0000
0100
0000
0000
0010
0000
1000
0010
0000
0010
1000
0000
1000
,  // measure 16
0001
0000
0000
0010
0000
0000
1100
0000
0000
0010
0000
0000
0001
0000
0000
0100
0000
0000
0001
0000
1000
0010
0000
0010
,  // measure 17
0100
0000
0000
0010
0000
1000
0001
0000
0000
1000
0100
1000
0100
0000
0000
0010
0000
0001
0000
0000
0010
0000
0000
0001
,  // measure 18
0100
0000
0010
1000
0000
0001
0000
0000
1000
0000
0000
0100
0010
0000
0100
0010
0000
0200
0000
0000
0000
0000
0000
0000
,  // measure 19
0000
0000
0000
0000
0000
0000
0300
0000
0000
0000
0000
1000
0100
0000
0000
0010
0000
0000
0001
0000
0000
1000
0000
0000
,  // measure 20
1001
0000
0000
1000
0001
1000
0001
0000
0000
0000
0000
0000
0110
0000
0000
0100
0010
0100
0010
0000
0000
0000
0000
0000
,  // measure 21
0010
0000
0000
1000
0000
0000
0001
0000
0000
1000
0100
1000
0100
0000
0000
0010
0000
0000
1001
0000
0000
0000
0000
0000
,  // measure 22
0101
0000
0000
0010
1000
0010
1000
0000
0001
0000
0000
1000
0001
0000
0000
0010
0100
0010
0100
0000
0010
0000
0000
0001
,  // measure 23
0100
0000
0000
0010
0000
1000
0001
0000
0000
1000
0000
0000
0001
1000
0001
1000
0100
1000
0100
0000
0000
0000
0000
0000
,  // measure 24
1001
0000
0000
0001
0010
0001
0100
0000
0000
0000
0000
0000
1001
0000
0000
1000
0010
1000
0100
0000
0000
0000
0000
0000
,  // measure 25
1000
0010
0100
0001
2000
3100
0220
0330
,  // measure 26
1001
0000
0000
1000
0100
0010
0100
0000
1000
0000
0000
0001
0100
0000
0000
0001
0100
0010
0100
0000
0000
0001
0000
0000
,  // measure 27
1000
0000
0000
0100
1000
0100
0010
0001
0010
0001
1000
0001
1000
0000
0000
0001
0000
0000
1001
0000
0000
0000
0000
0000
,  // measure 28
0001
0010
0200
0000
0302
0000
0203
0000
,  // measure 29
2300
0000
0000
0000
0000
0000
3000
0000
0000
1000
0001
1000
0002
0000
0000
0000
0000
0000
0203
0000
0000
0000
0000
0000
,  // measure 30
0320
0230
0302
0023
,  // measure 31
0230
0000
0000
0000
0000
0000
0000
0000
0000
0000
0000
0000
0310
0000
0000
0001
0000
1000
0000
0000
0001
1000
0000
0000
,  // measure 32
0001
0000
0000
0100
0001
0100
0001
0000
0000
0100
0010
0100
0010
0000
0000
1000
0010
1000
0010
0000
0000
1000
0100
1000
,  // measure 33
0100
0000
0000
1000
0000
0001
0010
0000
0001
0100
0000
0000
0010
0000
0000
1000
0000
0000
1001
0000
0000
0000
0000
0000
,  // measure 34
0001
0000
0000
1000
0100
1000
0100
0000
0000
0010
0100
0010
0100
0000
0000
0010
0001
0010
0001
0000
0000
1000
0001
1000
,  // measure 35
0001
0000
0100
0000
0010
0000
1000
0000
0000
0001
0000
0000
0100
0000
0000
0010
0000
1000
0000
0000
1000
0001
0000
0000
,  // measure 36
0220
0000
0000
0000
0000
0330
0110
1001
,  // measure 37
1000
0000
0000
0100
0000
0000
0001
0000
0000
1000
0000
0000
0010
0000
0000
0001
0000
0001
1000
0000
0000
0110
0000
0000
,  // measure 38
0010
0000
0000
1000
0000
0000
1001
0000
0000
0001
0000
0000
0010
0000
0000
0100
0000
0000
0010
0000
0001
0100
0000
0010
,  // measure 39
1000
0000
0000
0010
0000
0100
0001
0000
0100
0010
0000
0010
1000
0000
1000
0001
0000
0010
0100
0000
0010
0001
0000
1000
,  // measure 40
0100
0000
0000
1000
0000
0000
0001
0000
0000
0100
0000
0000
0001
0000
0000
1000
0000
1000
0100
0000
0010
0001
0000
1000
,  // measure 41
0001
0000
0000
0100
0000
0010
1000
0000
0000
0100
0000
0000
1000
0100
0010
0100
0010
0001
1000
0000
0000
1001
0000
0000
,  // measure 42
0001
0000
0000
0101
0000
0000
0100
0000
0000
0110
0000
0000
0010
0000
0000
1010
0000
0000
1000
0000
0100
1000
0000
0001
,  // measure 43
0100
0000
0000
0001
0000
0010
0001
0000
1000
0100
0000
0100
1000
0000
0010
0100
0000
0001
0000
0000
1001
0000
0000
1000
,  // measure 44
0100
0000
0010
0001
0000
1000
0000
0000
1001
0000
0000
0001
0100
0000
0010
1000
0000
0001
0000
0000
1001
0000
0000
0010
,  // measure 45
0100
0000
0100
0010
0000
0220
0000
0000
0000
0000
0000
0000
0000
0000
0000
0000
0000
0000
0000
0000
0000
0000
0000
0000
,  // measure 46
0000
0000
0330
0000
;

//---------------dance-single - Oni-91----------------
#NOTEDATA:;
#CHARTNAME:;
#STEPSTYPE:dance-single;
#DESCRIPTION:Oni-91;
#CHARTSTYLE:;
#DIFFICULTY:Medium;
#METER:5;
#RADARVALUES:0.355601,0.339106,0.369492,0.252810,0.034032,256.000000,218.000000,38.000000,26.000000,0.000000,0.000000,0.000000,0.000000,0.000000,0.355601,0.339106,0.369492,0.252810,0.034032,256.000000,218.000000,38.000000,26.000000,0.000000,0.000000,0.000000,0.000000,0.000000;
#CREDIT:Oni-91;
#NOTES:
// measure 0
1000
0100
2000
3010
,  // measure 1
0001
0100
0001
0100
0001
0000
1001
0000
,  // measure 2
0010
0100
0001
0000
0100
0000
1001
0000
,  // measure 3
0001
0010
0001
0000
1000
0100
1000
0000
,  // measure 4
0002
0203
0320
1030
,  // measure 5
0011
1100
2000
3001
,  // measure 6
0001
0000
1100
0000
0010
0001
0100
0000
,  // measure 7
0010
1000
0001
0000
1100
0000
1001
0000
,  // measure 8
0002
0023
0230
0310
,  // measure 9
0100
1000
0001
1000
0001
0000
0000
0000
,  // measure 10
1000
0000
0001
0000
0100
0010
0100
0000
,  // measure 11
0010
1000
0100
0000
0010
0001
0100
0000
,  // measure 12
0001
0000
1000
0000
0001
1000
0100
0000
,  // measure 13
0011
1100
2002
3003
,  // measure 14
0001
0100
0010
0000
1000
0100
0010
0000
,  // measure 15
1000
0001
1000
0000
0011
0000
1001
0000
,  // measure 16
0001
0000
0100
0000
0010
1000
0001
0000
,  // measure 17
1000
0000
0000
0100
0000
0000
0010
0000
0000
0000
0000
0000
0001
0000
0000
0000
0000
1001
0000
0000
0000
0000
0000
0000
,  // measure 18
0100
0000
0000
0000
0000
0110
0000
0000
0000
0000
0000
0000
1000
0000
0000
0000
0000
2002
0000
0000
0000
0000
0000
0000
,  // measure 19
0000
0000
3003
0000
1000
0001
1000
0001
,  // measure 20
1000
0011
0100
1010
,  // measure 21
1000
0001
1000
0000
0001
0010
0001
0000
,  // measure 22
1000
0011
0100
1010
,  // measure 23
1000
0001
0100
0001
1000
0000
0110
0000
,  // measure 24
1000
1001
0001
0101
,  // measure 25
0100
0000
0010
0000
1000
0001
1000
0001
,  // measure 26
0010
0101
0010
1100
,  // measure 27
0001
1000
0001
0000
0100
0000
1001
0000
,  // measure 28
0002
0023
0230
2300
,  // measure 29
3002
0000
1000
1000
,  // measure 30
2003
3200
0320
0230
,  // measure 31
2300
0000
3001
1001
,  // measure 32
0001
0100
0001
0000
0100
0010
0100
0000
,  // measure 33
0010
1000
0010
0000
1000
0000
1001
0000
,  // measure 34
1000
0100
1000
0000
0001
0010
0001
0000
,  // measure 35
0100
0010
0100
0000
0110
0000
1001
0000
,  // measure 36
0220
0000
0330
0110
,  // measure 37
0010
1000
0001
0000
1000
0000
0001
0000
,  // measure 38
1000
0100
0100
0000
0010
0100
0100
0000
,  // measure 39
0010
0011
0001
1001
,  // measure 40
1000
0010
1000
0000
0001
0100
0001
0000
,  // measure 41
1000
0010
0100
0001
0100
0000
0001
0000
,  // measure 42
1000
0100
0010
0000
0100
0010
0001
0000
,  // measure 43
1000
0000
0000
0001
0000
0000
1000
0000
0000
0001
0000
0000
0100
0000
0000
0000
0000
0110
0000
0000
0000
0000
0000
0000
,  // measure 44
0010
0000
0000
0000
0000
1010
0000
0000
0000
0000
0000
0000
1000
0000
0000
0000
0000
1001
0000
0000
0000
0000
0000
0000
,  // measure 45
1001
0000
0000
0000
0000
2002
0000
0000
0000
0000
0000
0000
0000
0000
0000
0000
0000
0000
0000
0000
0000
0000
0000
0000
,  // measure 46
0000
0000
3003
0000
;

//---------------dance-single - Oni-91----------------
#NOTEDATA:;
#CHARTNAME:;
#STEPSTYPE:dance-single;
#DESCRIPTION:Oni-91;
#CHARTSTYLE:;
#DIFFICULTY:Easy;
#METER:3;
#RADARVALUES:0.194469,0.226071,0.136129,0.272257,0.000000,140.000000,126.000000,14.000000,28.000000,0.000000,0.000000,0.000000,0.000000,0.000000,0.194469,0.226071,0.136129,0.272257,0.000000,140.000000,126.000000,14.000000,28.000000,0.000000,0.000000,0.000000,0.000000,0.000000;
#CREDIT:Oni-91;
#NOTES:
// measure 0
2000
0000
0010
0000
,  // measure 1
0002
0000
3003
0000
,  // measure 2
1001
0000
0001
0000
,  // measure 3
1000
0001
1000
0001
,  // measure 4
0010
0000
0100
0000
,  // measure 5
0010
0100
0110
0000
,  // measure 6
0001
1000
0001
0000
,  // measure 7
1000
0010
0100
0010
,  // measure 8
1000
0001
1000
0000
,  // measure 9
0001
0010
0100
0000
,  // measure 10
1001
0000
0001
0000
,  // measure 11
1000
1000
0001
0001
,  // measure 12
0100
0000
0010
0000
,  // measure 13
0100
0100
0010
0010
,  // measure 14
1000
0000
0001
1000
,  // measure 15
0001
0010
0100
0010
,  // measure 16
0001
0000
1000
1000
,  // measure 17
0010
0100
0110
0000
,  // measure 18
1001
0000
0220
0000
,  // measure 19
0000
0330
0001
1000
,  // measure 20
1002
0000
0010
0000
,  // measure 21
1000
0000
0103
0001
,  // measure 22
2000
0000
0010
0000
,  // measure 23
0001
0000
3100
1000
,  // measure 24
0020
0000
1000
0000
,  // measure 25
0230
0000
0001
0001
,  // measure 26
0302
0000
1000
0000
,  // measure 27
2003
0000
3001
1001
,  // measure 28
1000
0001
0100
0010
,  // measure 29
0200
0000
0302
0000
,  // measure 30
1003
0100
0010
0001
,  // measure 31
2000
0000
3002
0000
,  // measure 32
1003
0100
1000
0001
,  // measure 33
0200
0000
0010
0000
,  // measure 34
0301
0100
0010
1000
,  // measure 35
0020
0000
0130
0000
,  // measure 36
2002
0000
0000
3003
,  // measure 37
0220
0000
0000
0330
,  // measure 38
0001
0000
1000
0001
,  // measure 39
1000
0100
0010
0000
,  // measure 40
0100
0100
0010
0010
,  // measure 41
0001
0001
1000
1000
,  // measure 42
0001
1000
0001
1000
,  // measure 43
0010
0100
0220
0330
,  // measure 44
2002
3003
0220
0330
,  // measure 45
2002
0000
0000
0000
,  // measure 46
0000
0000
3003
0000
;

//---------------dance-single - Oni-91----------------
#NOTEDATA:;
#CHARTNAME:;
#STEPSTYPE:dance-single;
#DESCRIPTION:Oni-91;
#CHARTSTYLE:;
#DIFFICULTY:Beginner;
#METER:1;
#RADARVALUES:0.125016,0.196900,0.077788,0.000000,0.000000,90.000000,82.000000,8.000000,0.000000,0.000000,0.000000,0.000000,0.000000,0.000000,0.125016,0.196900,0.077788,0.000000,0.000000,90.000000,82.000000,8.000000,0.000000,0.000000,0.000000,0.000000,0.000000,0.000000;
#CREDIT:Oni-91;
#NOTES:
// measure 0
0000
0000
0000
0000
,  // measure 1
0000
0000
0000
0000
,  // measure 2
1001
0000
0000
0000
,  // measure 3
0001
0000
1000
0000
,  // measure 4
0100
0000
0000
0000
,  // measure 5
0010
0000
0100
0000
,  // measure 6
0010
0000
0001
0000
,  // measure 7
1000
0000
0000
0000
,  // measure 8
0001
0000
0100
0000
,  // measure 9
0001
0001
0001
0000
,  // measure 10
1000
0000
0001
0000
,  // measure 11
0100
0000
0000
0000
,  // measure 12
0010
0000
1000
0000
,  // measure 13
0100
0100
0100
0000
,  // measure 14
0010
0000
0100
0000
,  // measure 15
1000
0000
0000
0000
,  // measure 16
0001
0000
1000
0000
,  // measure 17
0010
0010
0010
0000
,  // measure 18
0100
0000
1001
0000
,  // measure 19
0000
0000
0000
0000
,  // measure 20
1001
0000
0001
0000
,  // measure 21
0100
0000
0000
0000
,  // measure 22
0001
0000
1000
0000
,  // measure 23
0100
0000
0000
0000
,  // measure 24
0010
0000
0100
0000
,  // measure 25
0010
0000
0000
0000
,  // measure 26
0001
0000
1000
0000
,  // measure 27
0001
0000
0000
0000
,  // measure 28
0100
0000
0001
0001
,  // measure 29
0001
0000
1000
0000
,  // measure 30
0001
0000
1000
1000
,  // measure 31
1000
0000
0100
0000
,  // measure 32
0010
0000
0100
0100
,  // measure 33
0100
0000
0010
0000
,  // measure 34
0001
0000
0100
0100
,  // measure 35
0100
0000
0010
0000
,  // measure 36
1001
0000
0000
0000
,  // measure 37
1000
0000
0000
0000
,  // measure 38
0010
0000
0100
0000
,  // measure 39
0010
0000
1000
1000
,  // measure 40
1000
0000
1000
0000
,  // measure 41
0001
0000
0001
0000
,  // measure 42
0100
0000
0100
0000
,  // measure 43
0010
0000
0110
0000
,  // measure 44
1001
0000
0110
0000
,  // measure 45
1001
0000
0000
0000
;
