#TITLE:Female of the Species;
#SUBTITLE:;
#ARTIST:Space;
#TITLETRANSLIT:;
#SUBTITLETRANSLIT:;
#ARTISTTRANSLIT:;
#GENRE:;
#CREDIT:;
#BANNER:Female of the Species.png;
#BACKGROUND:Female of the Species-bg.png;
#LYRICSPATH:;
#CDTITLE:;
#MUSIC:Female of the Species.mp3;
#OFFSET:-8.900000;
#SAMPLESTART:35.450001;
#SAMPLELENGTH:15.550000;
#SELECTABLE:YES;
#BPMS:0.000000=107.984001
;
#STOPS:
;
#BGCHANGES:;
#KEYSOUNDS:;
#ATTACKS:;

//---------------dance-single - Oni-91----------------
#NOTES:
     dance-single:
     :
     Hard:
     7:
     0.352077,0.346913,0.188888,0.296824,0.031481,274.000000,253.000000,21.000000,33.000000,0.000000,0.000000,0.352077,0.346913,0.188888,0.296824,0.031481,274.000000,253.000000,21.000000,33.000000,0.000000,0.000000:
// measure 0
2000
0000
0000
0000
0000
0000
0000
0000
0000
0000
0000
0000
0000
0000
0000
0000
0000
0000
0000
0000
0000
0000
0000
0000
3001
0000
0000
0000
0000
0000
0000
0000
0010
0000
0000
0000
0000
0000
0000
0000
0000
0000
0000
0001
0000
0000
0000
0000
0000
0000
0000
0000
0000
0000
1000
0000
0000
0000
0000
0000
0000
0000
0000
0000
,  // measure 1
0200
0000
0000
0000
0000
0000
0000
0000
0000
0000
0000
0000
0000
0000
0000
0000
0000
0000
0000
0000
0000
0000
0000
0000
1300
0000
0000
0000
0000
0000
0000
0000
0001
0000
0000
0000
0000
0000
0000
0000
0000
0000
0000
0100
0000
0000
0000
0000
0000
0000
0000
0000
0000
0000
0001
0000
0000
0000
0000
0000
0000
0000
0000
0000
,  // measure 2
0200
0000
0310
1000
0001
0000
2000
0000
,  // measure 3
3200
0000
0310
0001
0000
1000
0001
0000
,  // measure 4
1001
0000
0001
0100
0000
0010
1000
0000
,  // measure 5
0001
0000
1000
0100
0000
0010
0001
0001
,  // measure 6
1000
0100
1000
0001
0100
0000
0010
0100
,  // measure 7
0001
0000
1000
0001
0000
1000
0001
0010
,  // measure 8
0200
0000
0310
0002
0000
0010
0000
1000
,  // measure 9
0000
1003
0001
0100
0010
0000
0100
0010
,  // measure 10
1000
0000
0001
0020
0000
0000
0031
0000
,  // measure 11
1000
0000
0100
2000
0000
0000
3001
0000
,  // measure 12
1010
0000
1010
0000
0001
0010
0001
0010
,  // measure 13
1100
0000
1100
0000
0001
1000
0001
0001
,  // measure 14
0001
0010
0100
0020
0000
0130
1000
0001
,  // measure 15
0100
0000
0000
0001
0000
0000
1000
0000
0100
0000
0010
0000
0001
0000
1000
0000
,  // measure 16
0002
0000
0013
0200
0000
0010
0000
1000
,  // measure 17
0000
0310
0100
1000
0001
0000
1000
0010
,  // measure 18
0110
0000
0010
2000
0000
0001
3001
0000
,  // measure 19
0001
0010
0100
0010
0001
1000
0010
0000
,  // measure 20
1001
0000
0000
0101
0000
0001
0100
0010
,  // measure 21
1000
0000
0001
0020
0000
0100
0130
0000
,  // measure 22
0001
0000
1000
0010
0000
1001
0000
0001
,  // measure 23
1000
0000
0100
0000
0010
0000
0002
0000
0000
2000
0000
0000
3003
0000
0000
0000
,  // measure 24
1000
0100
0001
0100
1000
0001
0100
0010
,  // measure 25
0200
0000
0010
0010
0000
0000
0301
0000
,  // measure 26
0010
0001
0100
0010
1000
0100
0001
0100
,  // measure 27
2000
0000
0010
3010
0000
1000
0001
0010
,  // measure 28
0100
0010
0001
1000
0100
0001
0100
1000
,  // measure 29
0020
0000
0100
0100
0000
0000
1030
0000
,  // measure 30
0010
1000
0100
0010
0001
0100
0010
1000
,  // measure 31
1001
0000
0000
0110
0220
0000
0330
0000
,  // measure 32
1001
1001
0000
0220
0000
0000
0330
0000
,  // measure 33
1002
0000
0000
2000
0000
0000
0003
0000
,  // measure 34
3020
0000
0100
0200
0000
0000
0030
0000
,  // measure 35
0002
0000
0303
0000
0001
0010
0100
1000
,  // measure 36
0100
0000
0000
1000
0001
0000
0100
0000
0010
0000
0000
0000
1001
0000
0000
0000
,  // measure 37
0001
0100
1000
0001
0010
1000
0001
1000
,  // measure 38
0200
0000
0010
0010
0000
1000
1300
0000
,  // measure 39
0001
0010
1000
0001
0100
1000
0010
0100
,  // measure 40
0002
0000
0010
0010
0000
1003
0000
0110
,  // measure 41
0000
0010
1000
0001
0010
0100
0001
0100
,  // measure 42
2000
0000
0010
0010
0000
0001
3001
0000
,  // measure 43
0001
0100
0010
0001
0010
1000
0001
1000
,  // measure 44
0200
0000
0010
0010
0020
0000
0330
0000
,  // measure 45
1001
1001
0000
0110
0000
0000
0000
0000
;

//---------------dance-single - Oni-91----------------
#NOTES:
     dance-single:
     :
     Beginner:
     1:
     0.100226,0.121428,0.062963,0.000000,0.000000,78.000000,71.000000,7.000000,0.000000,0.000000,0.000000,0.100226,0.121428,0.062963,0.000000,0.000000,78.000000,71.000000,7.000000,0.000000,0.000000,0.000000:
// measure 0
1000
0000
0100
0000
,  // measure 1
1000
0000
0001
0001
,  // measure 2
0001
0000
0000
0100
,  // measure 3
0100
0000
0000
0000
,  // measure 4
0001
0000
1000
0000
,  // measure 5
0001
0000
0010
0000
,  // measure 6
0100
0000
0100
0000
,  // measure 7
0010
0000
0001
0000
,  // measure 8
0100
0000
0000
0000
,  // measure 9
0010
0000
1000
0000
,  // measure 10
0001
0000
0000
0000
,  // measure 11
1000
0000
0000
0000
,  // measure 12
0001
0000
0001
0000
,  // measure 13
1000
0000
1000
0000
,  // measure 14
0010
0000
0100
0000
,  // measure 15
0010
0000
0100
0000
,  // measure 16
0001
0000
0000
0000
,  // measure 17
1000
0000
0001
0000
,  // measure 18
0100
0000
0000
0000
,  // measure 19
0010
0000
0000
0000
,  // measure 20
1001
0000
0000
0000
,  // measure 21
0001
0000
0100
0000
,  // measure 22
0110
0000
0000
0000
,  // measure 23
1000
0000
0001
0000
,  // measure 24
1000
0000
1000
0000
,  // measure 25
1000
0000
0000
0000
,  // measure 26
0010
0000
0010
0000
,  // measure 27
0010
0000
0000
0000
,  // measure 28
0100
0000
0001
0000
,  // measure 29
1000
0000
0000
0000
,  // measure 30
0100
0000
1000
0000
,  // measure 31
0001
0000
0000
0000
,  // measure 32
0110
0000
0000
0000
,  // measure 33
1001
0000
0000
0000
,  // measure 34
0000
0000
0000
0000
,  // measure 35
1000
0000
0000
0000
,  // measure 36
0001
0000
0000
0000
,  // measure 37
1001
0000
1000
0000
,  // measure 38
0001
0000
0100
0000
,  // measure 39
0001
0000
1000
0000
,  // measure 40
0100
0000
0000
0000
,  // measure 41
0010
0000
0100
0000
,  // measure 42
0010
0000
0001
0000
,  // measure 43
1000
0000
0001
0000
,  // measure 44
1001
0000
0000
0000
,  // measure 45
0110
0000
0000
0000
;

//---------------dance-single - Oni-91----------------
#NOTES:
     dance-single:
     :
     Easy:
     3:
     0.178608,0.224473,0.089947,0.404760,0.000000,139.000000,129.000000,10.000000,45.000000,0.000000,0.000000,0.178608,0.224473,0.089947,0.404760,0.000000,139.000000,129.000000,10.000000,45.000000,0.000000,0.000000:
// measure 0
1002
0000
0103
0010
,  // measure 1
2000
0000
3001
1000
,  // measure 2
0020
0000
0130
0002
,  // measure 3
2000
0000
3003
0000
,  // measure 4
1000
0100
1000
0001
,  // measure 5
0200
0000
0000
0020
0000
0000
0330
0000
,  // measure 6
0010
1000
0100
0010
,  // measure 7
0002
0000
0000
2000
0000
0000
3003
0000
,  // measure 8
0001
0100
0010
1000
,  // measure 9
0200
0310
0001
1000
,  // measure 10
0002
0000
0000
0200
0000
0000
0303
0000
,  // measure 11
2000
0000
0000
0002
0000
0000
3003
0000
,  // measure 12
1000
0100
1000
1000
,  // measure 13
0001
0100
0001
0000
,  // measure 14
1000
0001
0100
0000
,  // measure 15
0020
1000
0200
0330
,  // measure 16
0100
0001
0010
0100
,  // measure 17
0020
0031
1000
0001
,  // measure 18
2000
0000
0000
0002
0000
0000
3003
0000
,  // measure 19
0020
0000
0000
0200
0000
0000
0330
0000
,  // measure 20
0010
0001
1000
0100
,  // measure 21
1000
0001
0100
0000
,  // measure 22
0001
1000
0010
0100
,  // measure 23
0010
1000
0002
0003
,  // measure 24
1001
0100
0010
0100
,  // measure 25
0002
0000
2000
3003
,  // measure 26
0001
0001
0100
0010
,  // measure 27
0200
0000
0020
0330
,  // measure 28
0010
1000
0100
0010
,  // measure 29
0200
0000
0020
0330
,  // measure 30
0010
0001
1000
0001
,  // measure 31
2002
0000
3003
0000
,  // measure 32
0220
0000
0000
0330
0000
0000
0000
0000
,  // measure 33
2002
0000
0000
0000
,  // measure 34
0000
0000
3003
0000
,  // measure 35
0220
0000
0330
0000
,  // measure 36
2002
0000
3003
0000
,  // measure 37
1000
0100
0010
0001
,  // measure 38
0200
0000
0310
0100
,  // measure 39
0001
1000
0100
0010
,  // measure 40
0002
0000
1003
0001
,  // measure 41
1000
0100
0010
0100
,  // measure 42
2000
0000
3001
0100
,  // measure 43
0010
0100
0001
0010
,  // measure 44
1001
0100
2002
3003
,  // measure 45
0220
0000
0000
0330
0000
0000
0000
0000
;

//---------------dance-single - Oni-91----------------
#NOTES:
     dance-single:
     :
     Medium:
     5:
     0.268555,0.306100,0.080952,0.251851,0.000000,209.000000,200.000000,9.000000,28.000000,0.000000,0.000000,0.268555,0.306100,0.080952,0.251851,0.000000,209.000000,200.000000,9.000000,28.000000,0.000000,0.000000:
// measure 0
2001
0000
0000
0100
3100
0000
0001
1000
,  // measure 1
0002
0000
0000
0100
0103
0000
0010
1000
,  // measure 2
0200
0000
0000
0010
0000
0000
2300
0000
,  // measure 3
3002
0000
0000
0010
0000
1000
1003
0000
,  // measure 4
0001
0000
1000
0010
0000
1000
0010
0000
,  // measure 5
1000
0000
0001
0010
0000
0001
0010
0000
,  // measure 6
0001
0000
1000
0000
0010
0000
0100
0010
,  // measure 7
0100
0000
0001
1000
0000
1000
0100
0000
,  // measure 8
0020
0000
0001
0001
0000
0100
0000
1000
,  // measure 9
0000
0100
0130
0000
0010
0000
0001
1000
,  // measure 10
0001
0000
0000
0100
0000
0000
0101
0000
,  // measure 11
0001
1000
0000
0100
0000
1000
0100
0000
,  // measure 12
1001
0000
1001
0000
0010
0100
0010
0000
,  // measure 13
1001
0000
1001
0000
0100
0010
0100
0000
,  // measure 14
0010
1000
0001
0010
0000
0001
0010
0000
,  // measure 15
1000
0000
0100
0010
0100
0000
0010
0000
,  // measure 16
0002
0000
0010
0010
0000
1000
0000
0100
,  // measure 17
0000
1000
1003
0000
0001
0000
0100
0010
,  // measure 18
0100
0000
0000
0001
0000
1000
0100
0000
,  // measure 19
0010
0000
0100
0010
0000
0100
1000
0000
,  // measure 20
1002
0000
0000
0100
0000
0000
1000
0000
,  // measure 21
2003
0000
0000
0010
0000
0000
0001
0000
,  // measure 22
3200
0000
0000
0001
0000
0000
0010
0000
,  // measure 23
0320
0000
0000
0001
0000
0100
0130
0000
,  // measure 24
0010
0000
0001
0000
1000
0001
1000
0001
,  // measure 25
2000
0000
0000
0010
0000
0000
3001
0000
,  // measure 26
0001
0000
0100
0000
0001
1000
0001
1000
,  // measure 27
0002
0000
0000
0010
0000
1000
1003
0000
,  // measure 28
0001
0000
1000
0100
0010
0000
0100
0010
,  // measure 29
0200
0000
0000
0010
0000
0000
0310
0000
,  // measure 30
0010
0001
0100
0000
0010
1000
0100
0000
,  // measure 31
1000
0001
0000
0100
0010
0000
0000
0000
,  // measure 32
1000
2000
0000
0001
0002
0000
3003
0000
,  // measure 33
0220
0000
0000
0000
,  // measure 34
0000
0000
0000
0330
,  // measure 35
2002
0000
3003
0000
0001
1000
0001
0200
,  // measure 36
0020
0000
0000
0330
,  // measure 37
1000
0000
0001
0010
0000
0001
1000
0001
,  // measure 38
0200
0000
0000
0010
0000
0000
0301
0000
,  // measure 39
1000
0000
0001
0100
0001
0000
1000
0100
,  // measure 40
0020
0000
0000
0001
0000
0100
0130
0000
,  // measure 41
0010
0001
1000
0000
0001
0100
0010
0100
,  // measure 42
0020
0000
0000
1000
0000
0000
0130
0000
,  // measure 43
0100
0001
1000
0000
0001
1000
0100
0010
,  // measure 44
0001
0002
0000
1000
2000
0000
3003
0000
,  // measure 45
0010
0020
0000
0130
0000
0000
0000
0000
;
