#VERSION:0.83;
#TITLE:Far east nightbird;
#SUBTITLE:;
#ARTIST:猫叉Master;
#TITLETRANSLIT:;
#SUBTITLETRANSLIT:;
#ARTISTTRANSLIT:Nekomata Master;
#GENRE:;
#ORIGIN:;
#CREDIT:;
#BANNER:Far east nightbird.png;
#BACKGROUND:Far east nightbird-bg.png;
#PREVIEWVID:;
#JACKET:;
#CDIMAGE:;
#DISCIMAGE:;
#LYRICSPATH:;
#CDTITLE:;
#MUSIC:Far east nightbird.mp3;
#OFFSET:-6.020000;
#SAMPLESTART:85.666374;
#SAMPLELENGTH:13.333336;
#SELECTABLE:YES;
#BPMS:0.000=180.000,
220.000=135.000,
232.000=180.000;
#STOPS:;
#DELAYS:;
#WARPS:;
#TIMESIGNATURES:0.000=4=4;
#TICKCOUNTS:0.000=4;
#COMBOS:0.000=1;
#SPEEDS:0.000=1.000=0.000=0;
#SCROLLS:0.000=1.000;
#FAKES:;
#LABELS:0.000=Song Start;
#BGCHANGES:;
#KEYSOUNDS:;
#ATTACKS:
;

//---------------dance-single - Oni-91----------------
#NOTEDATA:;
#CHARTNAME:;
#STEPSTYPE:dance-single;
#DESCRIPTION:Oni-91;
#CHARTSTYLE:;
#DIFFICULTY:Hard;
#METER:8;
#RADARVALUES:0.560046,0.670978,0.249866,0.361876,0.077545,455.000000,426.000000,29.000000,42.000000,0.000000,0.000000,0.000000,0.000000,0.000000,0.560046,0.670978,0.249866,0.361876,0.077545,455.000000,426.000000,29.000000,42.000000,0.000000,0.000000,0.000000,0.000000,0.000000;
#CREDIT:Oni-91;
#NOTES:
0000
0000
0001
0002
0000
0000
0100
0203
,
0000
0000
0010
0320
0000
0000
1000
1000
,
1030
0000
0000
0001
0000
0000
1000
0000
,
0000
0100
0000
0000
0010
0000
0100
0000
,
0220
0000
0000
0330
,
1001
0000
0000
0000
0000
0000
0001
0000
0100
0000
0000
0100
0000
0000
0100
0000
,
0001
0000
1000
0001
1000
0000
0010
0000
,
1000
0000
0000
0000
0100
0000
0010
0000
0001
0000
0000
0001
0000
0000
0001
0000
,
1000
0000
0001
0100
0010
0100
0001
0000
,
1000
0000
0002
0000
0000
0000
0103
0000
0010
0000
0000
0010
0000
0000
0010
0000
,
1000
0000
0001
0010
0100
0000
0110
0000
,
1001
0000
0000
0000
0010
0000
1000
0000
0100
0000
0000
0100
0000
0000
0100
0000
,
0010
0000
0001
0000
0100
0000
0002
0000
1000
0000
0000
1000
0000
0000
1003
0000
,
0001
0000
0000
0100
0000
0000
0001
0000
1000
0000
0100
0000
0010
0000
2002
0000
,
0000
3003
0001
0100
0010
0000
1001
0000
,
1000
0000
0001
0000
0100
0000
0010
0000
0100
0000
0000
0100
0000
0000
0100
0000
,
0010
0000
1000
0001
0010
0001
1000
0000
,
0001
0100
0000
0001
0000
0000
2001
0000
0000
0000
3100
0000
0010
0000
0001
0000
,
0100
0000
0010
1000
0001
0000
1001
0000
,
0100
0000
0000
0000
0010
0000
1000
0000
0100
0000
0000
0010
0000
0000
0100
0000
,
0010
0001
0100
0000
0010
1000
0001
0000
,
2010
0000
0001
0000
0100
0000
0001
3001
,
0000
1000
0010
0100
0001
0000
0010
0010
,
0000
0001
0010
0001
0100
0000
0010
0000
,
1010
0000
1100
0000
0010
0001
1000
0000
,
0001
0100
0001
0100
0010
0000
1000
0100
,
0100
0000
0010
0000
0001
0100
1000
0000
,
0100
0000
0000
0000
0010
0000
1000
0000
0001
0000
0000
1000
0000
0000
0001
0000
,
1000
0000
0100
0000
0010
0001
1000
0000
,
0210
0000
1000
0000
0010
0000
0001
0301
,
0000
0001
1000
0100
0010
0000
0001
0001
,
0000
1000
0010
0100
0010
0000
1000
0000
,
1010
0000
1100
0000
0010
0001
0100
0000
,
0001
0100
1000
0100
0001
0000
1000
2000
,
0000
0000
0001
3002
0000
0000
0100
0203
,
0000
1000
0010
0001
,
0310
0010
0010
0000
1001
0000
1100
0000
,
0101
0000
0010
1000
0000
1000
0010
0000
,
0100
0001
0000
0001
0100
0001
0010
0000
,
0100
0000
0010
0001
0000
0001
1000
0000
,
1000
0010
0000
0010
0100
0001
1000
0100
,
0010
0000
0100
1000
0000
0100
0001
0000
,
0100
1000
0000
0100
0010
0001
0100
0000
,
0010
0000
1000
0001
0000
0100
1000
0000
,
0100
0010
0000
1000
0001
0010
0100
0010
,
0001
1000
0200
0000
0310
0002
0000
0103
,
0020
0000
1030
0200
0000
1300
0001
1000
,
0002
0000
1000
0000
0000
1000
0000
0000
1003
0000
0020
0000
0000
0000
1030
0000
,
0200
0000
1300
0002
0000
0103
0010
1000
,
0001
0100
0100
1000
0100
0100
0010
1000
,
1000
0100
1000
1000
0001
2002
0000
3003
,
0020
0000
0001
0000
0000
0001
0000
0000
0031
0000
0100
0000
0100
0000
1000
0000
,
0100
0100
0010
1000
1000
0001
0010
0001
,
2002
0000
0000
0000
,
0000
0000
0000
3003
,
1000
0100
1000
0100
0010
0001
0100
0001
,
0100
0000
0010
0000
1000
0001
1000
0000
0001
0000
1000
0000
0100
0000
0010
0000
,
0001
0000
0100
0000
0010
0000
0100
0000
0001
0000
1000
0000
0001
1000
0001
1000
,
0200
0000
0000
0000
0000
0000
0000
0000
0000
0000
0300
0000
0010
0100
0010
0100
,
0010
0000
1001
0000
0001
1000
0010
0000
,
1000
0000
0001
0100
0001
1000
0100
0010
,
0100
0000
1010
0000
0100
0001
1000
0000
,
0001
0000
1000
0001
1000
0010
0100
0000
,
0001
0000
0001
0100
0000
0100
1000
0000
,
1000
0100
0001
0100
0001
1000
0100
0010
,
0001
0000
1000
0010
1000
0000
0001
0000
,
0100
0010
0100
0000
0001
1000
0100
0000
,
0011
0000
1100
0000
0001
0001
0001
0000
,
1000
0000
0001
0100
1000
0100
0010
1000
,
0100
0000
0010
0000
0001
1000
0001
0000
,
1000
0000
0001
0100
0000
0010
1000
0100
,
2200
0000
3300
0022
0000
0033
0201
0000
,
0000
0301
0100
0010
0100
0001
1000
0100
,
0010
0001
0010
0001
1000
0000
0010
1000
,
0010
1000
0001
0000
1000
0100
0001
0100
,
0020
0000
0100
0000
,
1000
0000
0000
0000
0000
0000
0200
0000
0000
0000
0330
0000
,
2002
3003
0000
0220
0330
0000
2002
3003
;

//---------------dance-single - Oni-91----------------
#NOTEDATA:;
#CHARTNAME:;
#STEPSTYPE:dance-single;
#DESCRIPTION:Oni-91;
#CHARTSTYLE:;
#DIFFICULTY:Medium;
#METER:6;
#RADARVALUES:0.468961,0.504041,0.163706,0.275715,0.008616,381.000000,362.000000,19.000000,32.000000,0.000000,0.000000,0.000000,0.000000,0.000000,0.468961,0.504041,0.163706,0.275715,0.008616,381.000000,362.000000,19.000000,32.000000,0.000000,0.000000,0.000000,0.000000,0.000000;
#CREDIT:Oni-91;
#NOTES:
0000
0000
1000
0100
0000
0000
0010
0001
,
0000
0000
0001
1000
0000
0000
0010
0200
,
0010
0000
0000
0010
0000
0000
0010
0000
,
0000
0010
0000
0000
0310
0000
0100
0000
,
2002
0000
0000
3003
,
1001
0000
0000
0001
0100
0000
0010
0000
,
1000
0000
0001
1000
0001
0000
1000
0000
,
0100
0000
0000
0010
0001
0000
1000
0000
,
0001
0000
0100
0000
0010
0100
0010
0000
,
1000
0001
0100
0000
0010
0000
1000
0100
,
0010
0000
0100
0001
1000
0000
0010
0000
,
0100
0000
0001
0010
0100
0000
0010
0000
,
0001
1000
0001
0000
0100
0010
1000
0100
,
0020
0000
0000
0000
0031
1000
0002
2000
,
0000
3003
0001
0100
,
0010
0000
1000
0001
0010
0000
0100
0000
,
1000
0001
1000
0000
0010
0100
0001
0000
,
2002
0000
0000
3003
0000
0000
0010
0000
,
0001
0000
1000
0010
0100
0000
0001
0000
,
1000
0000
0001
0010
0100
0000
0010
0000
,
0001
1000
0001
0000
0100
0010
0100
0000
,
1001
0000
1000
0000
0100
0000
0010
0001
,
1000
0000
0001
0000
0100
0000
0010
1000
,
0001
1000
0100
0010
,
0001
0000
0100
0000
1000
0100
0001
0000
,
1000
0001
1000
0001
1000
0000
0001
0010
,
0100
0000
0010
0000
0001
1000
0001
0000
,
1000
0000
0100
0010
0100
0000
0010
0000
,
0001
1000
0001
0000
0100
0010
1000
0001
,
0010
0000
0100
0000
1000
0000
0001
1000
,
0100
0000
1000
0000
0010
0000
0100
0010
,
1000
0000
0001
0010
0100
0000
0010
0000
,
0001
0000
1000
0010
0100
0001
0100
0000
,
2002
0000
0000
0000
3003
0000
1000
0100
,
0000
0000
0010
0001
0000
0000
1000
0002
,
0000
0010
1000
0103
,
0010
0100
0001
0000
0110
0000
1001
0000
,
0110
0000
0001
1000
0000
1000
0100
0000
,
0100
1000
0000
1000
0001
0000
1000
0000
,
0001
0000
0001
0100
0000
0100
0001
0000
,
0001
1000
0000
1000
0001
0010
0100
0000
,
0010
0000
0010
0100
0000
0100
1000
0000
,
1000
0001
0000
0001
0100
0000
0010
0000
,
0100
0000
0100
0010
0000
0010
1000
0000
,
1000
0001
0000
0001
1000
0001
1000
0000
,
0010
0100
0001
0000
0001
0100
0000
0010
,
1000
0000
0001
0100
0001
2000
0000
0000
,
0000
0000
0001
0000
0000
0001
0000
0000
3001
0000
1000
0000
0000
0000
1000
0000
,
0100
0000
0010
0001
1000
0001
0100
0000
,
0010
1000
0100
0000
0010
0001
0000
1000
,
0010
0000
0100
0001
1000
0002
0000
0000
,
0000
0000
1000
0000
0000
1000
0000
0000
1003
0000
0001
0000
0000
0000
0100
0000
,
0010
0000
1000
0100
0010
0001
1000
0000
,
2002
0000
0000
0000
,
0000
0000
0000
3003
,
0001
0100
0001
0000
1000
0001
1000
0000
,
0001
0010
0001
0010
0100
0000
0010
0000
,
0001
1000
0001
0000
1000
0010
0100
0001
,
2000
0000
0000
3000
,
0001
0000
1000
0000
0001
0100
0002
0000
,
1003
0000
0100
0000
0010
0001
0100
0001
,
1000
0000
0001
0000
0100
0010
0200
0000
,
0310
1000
0001
1000
,
0110
0000
0000
1001
0000
0000
0220
0000
,
0330
0000
1000
0000
0100
0010
0001
0000
,
1000
0000
0001
0100
0002
0000
1003
0000
,
0001
0010
0002
0000
1003
0001
1000
0000
,
0110
0000
0001
0000
0100
0010
2000
0000
,
3001
0000
0010
0000
0001
0100
1000
0100
,
0001
0000
1000
0000
0100
0010
0002
0000
,
0103
0000
1000
0000
0010
0100
0001
0000
,
1100
0000
0000
0011
0000
0000
2002
0000
,
3003
0000
1000
0000
0001
0100
0001
0000
,
1000
0010
1000
0010
2000
0000
3001
0100
,
0001
0100
0002
0000
1003
0001
1000
0002
,
2000
0000
0000
0000
,
0000
0000
0000
3003
,
0110
0000
0000
1001
0000
0000
0220
0000
,
0330
0000
0000
0000
;

//---------------dance-single - Oni-91----------------
#NOTEDATA:;
#CHARTNAME:;
#STEPSTYPE:dance-single;
#DESCRIPTION:Oni-91;
#CHARTSTYLE:;
#DIFFICULTY:Easy;
#METER:5;
#RADARVALUES:0.318795,0.502425,0.189554,0.198170,0.000000,259.000000,237.000000,22.000000,23.000000,0.000000,0.000000,0.000000,0.000000,0.000000,0.318795,0.502425,0.189554,0.198170,0.000000,259.000000,237.000000,22.000000,23.000000,0.000000,0.000000,0.000000,0.000000,0.000000;
#CREDIT:Oni-91;
#NOTES:
0000
1000
0000
0001
,
0000
0100
0000
0001
,
0002
0000
0000
0000
,
0000
0000
0000
0000
,
0003
0000
0000
0000
,
0110
0000
0001
1000
,
0100
0000
0010
0001
,
0100
0000
0010
1000
,
0001
1000
0001
0010
,
0100
0000
0010
0001
,
1000
0000
0001
1000
,
0001
0000
1000
0010
,
0100
1000
0100
0001
,
2002
0000
0000
0000
0000
0000
0000
3003
,
0000
0001
0100
0010
,
0100
0001
1000
0100
,
0010
0000
0001
1000
,
0020
0000
0030
0100
,
0010
0000
1000
0100
,
0010
0001
0100
0010
,
1000
0000
0001
0100
,
0002
0000
0000
0100
,
0203
0000
0000
0010
,
0310
0000
0100
0001
,
1000
0100
0010
0001
,
1000
0000
0001
0100
,
0001
1000
0100
1000
,
0001
0000
0100
0001
,
0010
0100
0010
0001
,
2001
0000
0000
0001
,
3002
0000
0000
0100
,
0203
0000
0000
0010
,
0310
0100
0001
1000
,
0100
0000
0010
0001
,
1000
1000
0001
0001
,
0100
0000
0010
0100
,
0001
1000
0100
0010
,
0001
0000
0000
0001
0000
0000
1000
0000
,
0000
1000
0000
0000
0100
0000
0010
0000
,
0100
0000
0000
0100
0000
0000
0010
0000
,
0000
0010
0000
0000
0001
0000
0100
0000
,
0001
0000
0000
0001
0000
0000
1000
0000
,
0000
1000
0000
0000
0010
0000
1000
0000
,
0001
0000
0000
1000
0000
0000
0001
0000
,
0000
0010
0000
0000
0100
0000
0010
0000
,
0001
1000
0100
1000
,
0001
1000
0010
0100
,
0001
0001
0100
0100
,
0010
0010
1000
1000
,
0001
0010
0100
0001
,
0100
1000
0010
0100
,
0010
0010
1000
1000
,
0001
1000
0100
0010
,
2002
0000
0000
0000
,
0000
0000
0000
3003
,
0100
1001
0010
1001
,
0001
0110
1001
0110
,
0001
1001
0100
1001
,
0220
0000
0000
0330
,
0010
0000
1000
0000
0100
0100
0200
0000
,
0300
0010
0001
1000
,
0001
0000
0100
0000
0001
0001
0002
0000
,
0003
1000
0100
0010
,
1001
0000
0000
1001
0000
0000
2002
0000
,
3003
0001
0100
0010
,
1000
1000
0100
0010
,
0001
0001
1000
0001
,
0100
0000
0010
0000
1000
1000
2000
0000
,
3000
0001
0010
0100
,
0010
0000
0001
0000
0100
0100
0200
0000
,
0300
0010
1000
0001
,
0110
0000
0000
0110
0000
0000
0220
0000
,
0330
0010
1000
0100
,
0001
0100
0010
0001
,
0100
1000
0100
0010
,
0220
0000
0000
0000
,
0000
0000
0000
0330
,
0110
0000
0000
0110
0000
0000
0110
0000
;

//---------------dance-single - Oni-91----------------
#NOTEDATA:;
#CHARTNAME:;
#STEPSTYPE:dance-single;
#DESCRIPTION:Oni-91;
#CHARTSTYLE:;
#DIFFICULTY:Beginner;
#METER:2;
#RADARVALUES:0.174783,0.200970,0.086161,0.000000,0.000000,142.000000,132.000000,10.000000,0.000000,0.000000,0.000000,0.000000,0.000000,0.000000,0.174783,0.200970,0.086161,0.000000,0.000000,142.000000,132.000000,10.000000,0.000000,0.000000,0.000000,0.000000,0.000000,0.000000;
#CREDIT:Oni-91;
#NOTES:
1000
0000
0000
0000
,
0100
0000
0000
0000
,
1000
0000
1000
0000
,
0001
0000
0001
0000
,
1001
0000
0000
0000
,
0110
0000
0100
0000
,
0001
0000
0000
0000
,
1000
0000
0100
0000
,
1000
0000
0000
0000
,
0001
0000
1000
0000
,
0001
0000
0100
0000
,
0010
0000
0100
0000
,
0010
0000
0000
0000
,
1000
0000
1000
0000
,
1000
0000
0000
0000
,
0001
0000
0001
0000
,
0001
0000
0000
0000
,
0100
0000
0100
0000
,
0010
0000
0100
0000
,
0001
0000
1000
0000
,
0100
0000
0000
0000
,
1001
0000
0000
0001
,
0001
0000
0000
0100
,
0100
0000
0000
0000
,
1000
0000
0100
0000
,
0010
0000
0001
0000
,
1000
0000
0010
0000
,
0100
0000
0001
0000
,
1000
0000
0010
0010
,
0010
0000
0000
0100
,
0100
0000
0000
0001
,
0001
0000
0000
1000
,
1000
0000
0010
0000
,
1000
0000
0100
0000
,
0010
0000
0100
0100
,
0100
0000
0000
0000
,
0010
0000
0001
0000
,
1001
0000
0000
0100
,
0000
0000
0001
0000
,
1000
0000
0000
0100
,
0000
0000
1000
0000
,
0001
0000
0000
0001
,
0000
0000
0100
0000
,
0100
0000
0000
0010
,
0000
0000
0010
0000
,
1001
0000
1000
0000
,
0100
0000
0010
0000
,
0001
0000
1000
0000
,
0001
0000
0100
0000
,
0110
0000
0010
0000
,
1000
0000
0001
0000
,
1000
0000
0100
0000
,
0010
0000
0001
0000
,
1001
0000
0000
0000
,
0000
0000
0000
0000
,
1000
0000
1000
0000
,
0100
0000
0100
0000
,
0010
0000
0010
0000
,
0001
0000
0000
0000
,
1000
0000
0100
0000
,
0000
0000
1000
0000
,
0100
0000
0010
0000
,
0100
0000
0010
0000
,
0001
0000
0000
0000
,
1000
0000
0001
0000
,
0100
0000
0010
0000
,
0100
0000
0010
0000
,
1000
0000
0001
0000
,
0000
0000
1000
0000
,
0001
0000
0010
0000
,
0100
0000
0010
0000
,
0001
0000
0000
0000
,
1000
0000
0001
0000
,
0100
0000
0100
0000
,
0010
0000
0010
0000
,
1001
0000
0000
0000
,
0000
0000
0000
0000
,
0110
0000
0000
1001
;

//---------------dance-single - Oni-91----------------
#NOTEDATA:;
#CHARTNAME:;
#STEPSTYPE:dance-single;
#DESCRIPTION:Oni-91;
#CHARTSTYLE:;
#DIFFICULTY:Challenge;
#METER:9;
#RADARVALUES:0.708981,0.771624,0.413572,0.327411,0.236942,576.000000,528.000000,48.000000,38.000000,0.000000,0.000000,0.000000,0.000000,0.000000,0.708981,0.771624,0.413572,0.327411,0.236942,576.000000,528.000000,48.000000,38.000000,0.000000,0.000000,0.000000,0.000000,0.000000;
#CREDIT:Oni-91;
#NOTES:
// measure 0
0000
0000
1000
0020
0000
0000
0130
0002
,  // measure 1
0000
0000
0013
0200
0000
0000
1300
0100
,  // measure 2
0010
0000
0000
0001
0000
0000
0100
0000
,  // measure 3
0000
1000
0000
0000
0010
0000
0001
0000
,  // measure 4
2002
0000
0000
3003
,  // measure 5
1001
0000
0000
0000
0001
0000
0010
0000
0100
0000
0000
0010
0000
0000
0001
0000
,  // measure 6
1000
0010
0100
0001
0100
0000
1010
0000
,  // measure 7
1001
0000
0000
0000
0001
0000
1000
0000
0100
0000
0000
0010
0000
0000
0001
0000
,  // measure 8
1000
0001
0100
0010
0100
0001
1000
0000
,  // measure 9
0100
0000
1100
0000
0000
0000
1001
0000
0001
0000
0000
0100
0000
0000
0001
0000
,  // measure 10
1000
0100
0010
0100
2000
0000
3020
0000
,  // measure 11
0130
0000
0000
0000
0010
0000
0100
0000
0001
0000
0000
0100
0000
0000
0010
0000
,  // measure 12
1000
0000
0100
0000
0010
0000
0100
0000
0010
0001
1000
0000
0001
0000
0100
0000
,  // measure 13
0101
0000
0000
0110
0000
0000
1010
0000
1000
0000
0100
0000
0010
0000
2002
0000
,  // measure 14
0000
3003
0001
0100
0001
0000
1001
0000
,  // measure 15
1000
0000
0100
0000
0010
0000
0100
0000
0010
0000
0000
0001
0000
0000
0100
0000
,  // measure 16
0001
0100
0010
0100
0010
1000
0001
0000
,  // measure 17
1000
0001
1000
0001
1000
0000
0210
0000
0000
0000
0301
0000
0100
0000
0010
0000
,  // measure 18
1000
0000
0001
0010
0100
0000
0011
0000
,  // measure 19
0001
0000
0100
0000
0001
0000
1000
0000
1100
0000
0000
1001
0000
0000
0101
0000
,  // measure 20
0100
0000
0001
0000
1000
0000
0100
0000
0010
0001
1000
0000
0010
0000
0100
0000
,  // measure 21
2001
0000
3010
1000
0100
0010
0100
0020
,  // measure 22
0000
0031
0100
0010
0001
0010
1000
0002
,  // measure 23
0000
1003
0100
0010
0001
0100
0010
0100
,  // measure 24
1001
0000
1100
0000
0011
0001
1001
0000
,  // measure 25
1000
0000
0100
0000
1000
0000
0001
0000
0100
0000
0010
0000
1000
0000
0001
0010
,  // measure 26
0001
1000
0100
0000
0010
0100
1000
0000
,  // measure 27
0001
0000
0100
0000
0001
0000
0010
0000
0100
0000
0000
0110
0000
0000
1001
0000
,  // measure 28
1000
0100
1000
0002
0103
0200
0310
1000
,  // measure 29
1001
0000
0010
0100
0001
0010
0100
1100
,  // measure 30
0000
1000
0010
0100
0001
0010
0001
0101
,  // measure 31
0000
0100
0010
1000
0100
0010
0001
1000
,  // measure 32
0001
0000
0101
0000
1010
0010
0110
0000
,  // measure 33
0001
0010
0100
0010
0001
0000
1000
0020
,  // measure 34
0000
0000
0130
0002
0000
0000
0013
0100
,  // measure 35
0010
0000
0000
0000
0001
0000
1000
0000
0001
0000
0000
0100
0000
0000
0001
0000
,  // measure 36
1000
0100
0010
0001
0100
0010
1000
0000
,  // measure 37
1000
0100
0010
0001
0000
0010
0001
0100
,  // measure 38
0010
1000
0000
0010
0100
0001
0010
0100
,  // measure 39
0010
0001
1000
0100
0000
1000
0001
0100
,  // measure 40
0010
0100
0000
0001
0100
0010
1000
0100
,  // measure 41
0100
0010
0001
0200
0000
0310
0100
0001
,  // measure 42
1000
0200
0000
1300
0001
0010
0100
0010
,  // measure 43
0010
0001
0100
0020
0000
1030
0010
0100
,  // measure 44
0001
2000
0000
3001
0010
0100
0010
0001
,  // measure 45
1000
0000
0001
1000
0001
0000
1000
0000
0001
0100
0001
0000
1000
0000
0001
0010
,  // measure 46
0001
0000
1000
0000
0001
0100
0001
0000
1000
0000
0100
0000
0000
0000
0010
0000
,  // measure 47
0001
0000
0011
0000
0000
1100
0000
0000
0001
0010
0001
0000
1000
0000
0001
0100
,  // measure 48
0001
0000
1000
0000
0001
1000
0001
0000
1000
0000
0100
0000
0010
0000
0001
0000
,  // measure 49
0100
0000
0010
1000
0010
0000
1000
0000
0100
0010
0100
0000
0010
0000
0001
0010
,  // measure 50
0001
0000
1000
0000
0001
0100
0001
0000
1000
0000
0010
0000
0100
0000
0001
0000
,  // measure 51
1000
0000
1001
0000
0000
0101
0000
0000
0100
0001
0100
0000
0010
0000
1000
0010
,  // measure 52
1000
0000
0001
0000
1000
0001
1000
0000
0100
0000
0010
0000
0001
0000
0100
0000
,  // measure 53
2002
0000
0000
0000
,  // measure 54
0000
0000
0000
3003
,  // measure 55
1000
0000
0100
0000
1000
0000
0001
0100
0010
0000
0100
0000
0001
0000
0010
0001
,  // measure 56
0100
0000
0010
0000
1000
0100
0010
0001
0100
0000
0010
0000
1000
0000
0100
1000
,  // measure 57
0100
0000
1000
0000
0001
0000
0010
0001
0100
0000
0010
0000
1000
0100
0010
0001
,  // measure 58
0200
0000
0000
0000
0000
0000
0000
0000
0000
0000
0000
0000
0301
1000
0001
1000
,  // measure 59
0100
0000
0010
0001
1000
0001
0100
0000
,  // measure 60
0010
0100
0001
1000
0100
0010
0001
1000
,  // measure 61
0100
0000
0000
0000
0011
0000
0000
0000
1000
0001
1000
0000
0010
0000
0000
0000
,  // measure 62
1000
0100
1000
0001
0100
0001
0010
0001
,  // measure 63
1100
0000
0001
0101
0000
1000
1100
0000
,  // measure 64
0001
0100
0010
1000
0100
0001
0100
0010
,  // measure 65
0001
0000
1000
0000
0100
1000
0100
0000
0010
0000
0001
0000
1000
0000
0010
0000
,  // measure 66
0100
0001
0100
0000
0001
0000
0010
0000
0100
0000
1000
0000
0001
0000
1000
0000
,  // measure 67
0110
0000
1001
0001
0100
0010
1000
0000
,  // measure 68
0100
0001
0100
0010
0001
1000
0010
0100
,  // measure 69
0110
0000
0000
0000
1010
0000
0000
0000
0001
0010
0100
0000
0022
0000
0000
0000
,  // measure 70
0033
0000
0001
0100
0001
1000
0100
0000
,  // measure 71
2002
0000
3003
0220
0000
0330
2002
0000
,  // measure 72
3003
0001
0100
0010
1000
0010
0100
0001
,  // measure 73
0010
0000
0001
0000
1000
0100
0010
0000
0001
0000
1000
0000
0010
0000
0100
0000
,  // measure 74
0001
0100
0010
0000
1000
0000
0100
0000
0010
0000
0001
0000
1000
0001
1000
0000
,  // measure 75
0010
0000
0100
0000
0100
0000
0001
0000
0100
0000
0100
0000
,  // measure 76
0010
0000
0000
0000
0000
0000
0000
0000
1000
0000
0000
0000
0000
0000
0000
0000
1000
0000
0000
0000
0000
0000
0000
0000
0100
0000
0000
0000
0000
0000
0010
0000
0000
0000
0000
0000
0001
0000
0000
1000
0000
0000
0001
0000
0000
2000
0000
0000
,  // measure 77
0020
3030
0000
0220
0330
0000
2002
3003
;
