#TITLE:Euphoria;
#SUBTITLE:;
#ARTIST:Loreen;
#TITLETRANSLIT:;
#SUBTITLETRANSLIT:;
#ARTISTTRANSLIT:;
#GENRE:;
#CREDIT:;
#BANNER:Euphoria.png;
#BACKGROUND:Euphoria-bg.png;
#LYRICSPATH:;
#CDTITLE:;
#MUSIC:Euphoria.mp3;
#OFFSET:-4.110000;
#SAMPLESTART:32.726055;
#SAMPLELENGTH:14.545456;
#SELECTABLE:YES;
#BPMS:0.000000=132.000000
,128.000000=66.000000
,144.000000=132.000000
;
#STOPS:
;
#BGCHANGES:;
#KEYSOUNDS:;
#ATTACKS:;

//---------------dance-single - Oni-91----------------
#NOTES:
     dance-single:
     :
     Hard:
     7:
     0.318904,0.343459,0.132778,0.348542,0.149375,269.000000,253.000000,16.000000,42.000000,0.000000,0.000000,0.318904,0.343459,0.132778,0.348542,0.149375,269.000000,253.000000,16.000000,42.000000,0.000000,0.000000:
// measure 0
2002
0000
0000
0000
,  // measure 1
3003
0000
0001
0000
1000
0001
1000
0010
,  // measure 2
0200
0000
0000
0010
0000
0000
0020
0000
0000
0000
0000
0000
0000
0000
0000
0000
,  // measure 3
0000
0000
0000
0000
0000
0000
0330
0002
,  // measure 4
2000
0000
0000
0000
,  // measure 5
3003
0000
1000
0000
0001
0010
0001
1000
,  // measure 6
0020
0000
0000
0100
0000
0000
0200
0000
0000
0000
0000
0000
0000
0000
0000
0000
,  // measure 7
0000
0000
0000
0330
,  // measure 8
2002
0000
0000
0000
,  // measure 9
3003
0000
1000
0010
1000
0001
0100
0000
,  // measure 10
0010
0000
0000
0100
0000
0000
0220
0000
0000
0000
0000
0000
0000
0000
0000
0000
,  // measure 11
0000
0000
0000
0000
0000
0000
0330
0020
,  // measure 12
2000
0000
0000
0000
,  // measure 13
3030
0000
1000
0001
1000
0001
0010
0100
,  // measure 14
0010
0000
0000
0100
0000
0000
0220
0000
0000
0000
0000
0000
0000
0000
0000
0000
,  // measure 15
0000
0000
0330
0110
,  // measure 16
1002
0000
0010
0000
1000
0000
0103
0001
,  // measure 17
0000
0100
0001
1000
0100
0010
0100
1000
,  // measure 18
0010
0000
0100
0001
0000
0001
1000
0000
,  // measure 19
0001
0000
1000
0000
0100
0010
0100
1000
,  // measure 20
0010
0000
0100
0010
0000
1000
0001
0000
,  // measure 21
1000
0000
0100
0000
0010
0001
0100
0002
,  // measure 22
1000
0000
0000
1000
0000
0000
1000
0000
0000
1000
0000
0000
1000
0000
0000
1000
,  // measure 23
0000
2000
0000
0000
3003
0000
0110
0000
,  // measure 24
2001
0000
0010
0000
0100
0000
3010
1000
,  // measure 25
0000
1000
0100
0010
0100
0010
0001
0100
,  // measure 26
0010
0000
1000
0001
0000
0001
1000
0000
,  // measure 27
0001
0000
1000
0001
0010
0100
0010
0001
,  // measure 28
0100
0000
0010
1000
0000
0001
1000
0000
,  // measure 29
0100
1000
0001
0000
1000
0000
0001
0200
,  // measure 30
0010
0000
0000
0010
0000
0000
0010
0000
0000
0010
0000
0000
0010
0000
0000
0010
,  // measure 31
0000
0020
0000
0000
0000
0000
0330
0000
,  // measure 32
2002
3000
0203
0000
,  // measure 33
0020
0000
0000
0330
,  // measure 34
2002
0003
3200
0000
,  // measure 35
0020
0000
0000
0330
,  // measure 36
2002
0000
0000
0000
3000
0000
0100
0100
,  // measure 37
0000
0000
0100
0000
0000
0100
0000
0000
0100
0000
0000
0100
0000
0000
0203
0000
,  // measure 38
0010
0000
0000
0010
0000
0000
0010
0000
0000
0010
0000
0000
0010
0000
0000
0320
,  // measure 39
0000
0000
1000
0000
0000
1000
0000
0000
1000
0000
0000
1000
0000
0000
1000
0000
,  // measure 40
1030
0000
0000
0000
0001
0000
0000
0000
1000
0000
0000
0001
0010
0000
0000
0000
,  // measure 41
0100
1000
0100
0010
,  // measure 42
2001
0000
0000
0001
0000
0000
0001
0000
0000
0001
0000
0000
0001
0000
0000
0010
,  // measure 43
0000
0020
0000
0000
0000
0000
3030
0000
,  // measure 44
2001
0000
0100
0000
0001
0000
3100
1000
,  // measure 45
0000
0001
0100
0001
1000
0100
0010
0100
,  // measure 46
1000
0000
0001
0100
0000
0100
0001
0000
,  // measure 47
1000
0100
0010
0001
0100
0010
1000
0001
,  // measure 48
0100
0000
0010
1000
0000
1000
0001
0000
,  // measure 49
1000
0100
0010
0001
0100
0010
1000
0002
,  // measure 50
1000
0000
0000
1000
0000
0000
1000
0000
0000
1000
0000
0000
1000
0000
0000
1000
,  // measure 51
0000
2000
0000
0000
3003
0000
0110
0000
,  // measure 52
1002
0000
0010
0000
0100
0000
1003
0020
,  // measure 53
0000
0000
0100
0000
1030
0100
0010
0001
,  // measure 54
1000
0000
0000
0001
0000
0000
1000
0000
0000
0001
0000
0000
0100
0000
0000
0010
,  // measure 55
0000
0000
0100
0000
0000
0010
0000
0010
1000
0000
0100
0000
0010
0000
0001
0000
,  // measure 56
1000
0000
0000
0001
0000
0000
1000
0000
0000
0001
0000
0000
0010
0000
0000
0010
,  // measure 57
0000
0000
0100
0000
0000
0100
0000
0000
0010
0000
0001
0000
1000
0000
0010
0000
,  // measure 58
0120
0000
0000
0100
0000
0000
0100
0000
0000
0100
0000
0000
0100
0000
0000
0100
,  // measure 59
0000
0130
0000
0000
0000
0000
0000
0000
;

//---------------dance-single - Oni-91----------------
#NOTES:
     dance-single:
     :
     Medium:
     5:
     0.267927,0.294393,0.107882,0.365139,0.062240,226.000000,213.000000,13.000000,44.000000,0.000000,0.000000,0.267927,0.294393,0.107882,0.365139,0.062240,226.000000,213.000000,13.000000,44.000000,0.000000,0.000000:
// measure 0
2002
0000
0000
0000
,  // measure 1
3003
0001
1000
0100
,  // measure 2
0210
0000
0000
0020
0000
0000
0000
0000
,  // measure 3
0000
0000
0000
0000
0330
0000
0000
0002
,  // measure 4
2000
0000
0000
0000
,  // measure 5
3003
0001
1000
0010
,  // measure 6
0120
0000
0000
0200
0000
0000
0000
0000
,  // measure 7
0000
0000
0000
0330
,  // measure 8
2002
0000
0000
0000
,  // measure 9
3003
1000
0001
0100
,  // measure 10
0020
0000
0000
2000
0000
0000
0000
0000
,  // measure 11
0000
0000
0000
0000
3030
0000
0000
2000
,  // measure 12
0002
0000
0000
0000
,  // measure 13
3003
0001
1000
0100
,  // measure 14
0020
0000
0000
0002
0000
0000
0000
0000
,  // measure 15
0000
0000
0033
1001
,  // measure 16
2002
0000
3000
0000
1000
0000
0103
0001
,  // measure 17
0000
0001
0100
0000
0010
1000
0010
0000
,  // measure 18
1000
0000
0001
1000
0000
1000
0001
0000
,  // measure 19
1000
0000
0100
0000
0010
0100
1000
0000
,  // measure 20
0001
0000
0100
0010
0000
0100
0010
0000
,  // measure 21
1000
0000
0001
0000
1000
0001
1000
0002
,  // measure 22
1000
0000
0000
1000
0000
0000
1000
0000
0000
1000
0000
0000
1000
0000
0000
1000
,  // measure 23
0000
2000
0000
0000
3003
0000
0110
0000
,  // measure 24
2002
0000
0003
0000
0010
0000
3100
1000
,  // measure 25
0000
1000
0100
0000
0010
0001
0010
0000
,  // measure 26
0001
0000
0100
0001
0000
1000
0010
0000
,  // measure 27
1000
0000
0001
0000
0010
0001
0100
0000
,  // measure 28
0010
0000
1000
0001
0000
1000
0001
0000
,  // measure 29
1000
0000
0100
0000
0010
0001
0100
0020
,  // measure 30
0100
0000
0000
0100
0000
0000
0100
0000
0000
0100
0000
0000
0100
0000
0000
0100
,  // measure 31
0000
0200
0000
0000
0000
0000
0330
0000
,  // measure 32
2000
0000
3002
0000
,  // measure 33
0203
0000
0000
0000
,  // measure 34
0320
0000
2030
0000
,  // measure 35
0002
0000
0000
3003
,  // measure 36
2002
0000
0000
0000
0003
0000
0001
0002
,  // measure 37
0000
0000
3000
0000
,  // measure 38
0203
0010
0010
0010
,  // measure 39
0320
0100
0100
1030
,  // measure 40
1002
1000
0100
0100
,  // measure 41
0010
0000
0010
0000
1003
0000
1000
0002
,  // measure 42
1000
0000
0000
1000
0000
0000
1000
0000
0000
1000
0000
0000
1000
0000
0000
1000
,  // measure 43
0000
2000
0000
0000
0000
0000
3003
0000
,  // measure 44
0210
0000
0001
0000
0010
0000
0301
0100
,  // measure 45
0000
0100
0001
0000
1000
0100
1000
0000
,  // measure 46
0001
0000
1000
0010
0000
0100
0001
0000
,  // measure 47
1000
0000
0100
0000
0010
0001
0010
0000
,  // measure 48
0001
0000
1000
0010
0000
1000
0001
0000
,  // measure 49
1000
0000
0100
0000
0010
0001
0100
0002
,  // measure 50
1000
0000
0000
1000
0000
0000
1000
0000
0000
1000
0000
0000
1000
0000
0000
1000
,  // measure 51
0000
2000
0000
0000
3003
0000
0110
0000
,  // measure 52
2001
0000
0010
0000
0001
0000
3100
0020
,  // measure 53
0000
0000
0001
0000
0130
0010
0001
0010
,  // measure 54
0100
0000
1000
0000
0001
1000
0001
0000
,  // measure 55
1000
0000
0001
0000
0100
0010
0100
0010
,  // measure 56
1000
0000
0001
0000
1000
0100
0010
0000
,  // measure 57
0100
0000
1000
0000
0001
0100
0010
2000
,  // measure 58
0001
0000
0000
0001
0000
0000
0001
0000
0000
0001
0000
0000
0001
0000
0000
0001
,  // measure 59
0000
3001
0000
0000
0000
0000
0000
0000
;

//---------------dance-single - Oni-91----------------
#NOTES:
     dance-single:
     :
     Easy:
     3:
     0.156488,0.244809,0.149375,0.340243,0.000000,132.000000,114.000000,18.000000,41.000000,0.000000,0.000000,0.156488,0.244809,0.149375,0.340243,0.000000,132.000000,114.000000,18.000000,41.000000,0.000000,0.000000:
// measure 0
2002
0000
0000
0000
,  // measure 1
3003
1000
0100
0010
,  // measure 2
0220
0000
0000
0000
,  // measure 3
0330
0000
0000
0000
,  // measure 4
2002
0000
0000
0000
,  // measure 5
3003
0001
0100
0010
,  // measure 6
0220
0000
0000
0000
,  // measure 7
0330
0000
0000
0000
,  // measure 8
2002
0000
0000
0000
,  // measure 9
3003
1000
0001
1000
,  // measure 10
2002
0000
0000
0000
,  // measure 11
3003
0000
0000
0000
,  // measure 12
0220
0000
0000
0000
,  // measure 13
0330
0010
0001
1000
,  // measure 14
2002
0000
0000
0000
,  // measure 15
0000
0000
3003
1001
,  // measure 16
2002
0000
0000
3003
,  // measure 17
0001
0000
1000
0100
,  // measure 18
1000
0000
0001
0000
,  // measure 19
0100
0010
0100
0001
,  // measure 20
1000
0000
0001
0000
,  // measure 21
1000
0100
0010
0001
,  // measure 22
1000
1000
1000
1000
,  // measure 23
2002
0000
0000
3003
,  // measure 24
0220
0000
0000
0330
,  // measure 25
0010
0000
0100
0010
,  // measure 26
0100
0000
0001
0000
,  // measure 27
1000
0100
1000
0001
,  // measure 28
0010
0000
0100
0000
,  // measure 29
1000
0001
0100
0010
,  // measure 30
0100
0100
0100
0100
,  // measure 31
0220
0000
0000
0330
,  // measure 32
1000
0000
0001
0000
,  // measure 33
0100
0000
0000
0000
,  // measure 34
0001
0000
1000
0000
,  // measure 35
0100
0000
0000
0000
,  // measure 36
2002
0000
0000
0000
,  // measure 37
0003
0000
0000
0000
,  // measure 38
3002
0000
0000
0000
,  // measure 39
0000
0000
0000
0000
,  // measure 40
0203
0000
0000
0000
,  // measure 41
0320
0000
0000
0000
,  // measure 42
0100
0100
0100
0100
,  // measure 43
0200
0000
0000
0330
,  // measure 44
2002
0000
0000
3003
,  // measure 45
0001
0000
1000
0001
,  // measure 46
1000
0000
0010
0000
,  // measure 47
0100
0010
0100
0001
,  // measure 48
1000
0000
0001
0000
,  // measure 49
1000
0100
0010
0001
,  // measure 50
1000
1000
1000
1000
,  // measure 51
2000
0000
0000
3000
,  // measure 52
0220
0000
0030
0010
,  // measure 53
0002
0000
0000
0303
,  // measure 54
0001
1000
0100
0010
,  // measure 55
0001
0100
0010
1000
,  // measure 56
2002
0000
0000
3000
,  // measure 57
0200
0000
0303
0001
,  // measure 58
2002
0000
0000
0000
,  // measure 59
3003
0000
0000
0000
;

//---------------dance-single - Oni-91----------------
#NOTES:
     dance-single:
     :
     Beginner:
     1:
     0.100769,0.168462,0.066389,0.000000,0.000000,85.000000,77.000000,8.000000,0.000000,0.000000,0.000000,0.100769,0.168462,0.066389,0.000000,0.000000,85.000000,77.000000,8.000000,0.000000,0.000000,0.000000:
// measure 0
1000
0000
0000
0000
,  // measure 1
0000
0000
0000
0000
,  // measure 2
0001
0000
0000
0000
,  // measure 3
0000
0000
0000
0000
,  // measure 4
0100
0000
0000
0000
,  // measure 5
0000
0000
0000
0000
,  // measure 6
0010
0000
0000
0000
,  // measure 7
0000
0000
0000
0000
,  // measure 8
1000
0000
0000
0000
,  // measure 9
0001
0000
1000
0000
,  // measure 10
0001
0000
0000
0000
,  // measure 11
0000
0000
0000
0000
,  // measure 12
1000
0000
0000
0000
,  // measure 13
0001
0000
0010
0000
,  // measure 14
0100
0000
0000
0000
,  // measure 15
0000
0000
0000
0000
,  // measure 16
1001
0000
0000
0000
,  // measure 17
0001
0000
0100
0000
,  // measure 18
0001
0000
0000
0000
,  // measure 19
1000
0000
0001
0000
,  // measure 20
1000
0000
0000
0000
,  // measure 21
0001
0000
0010
0000
,  // measure 22
0001
0001
0001
0001
,  // measure 23
0001
0000
0000
0000
,  // measure 24
1001
0000
0000
0000
,  // measure 25
1000
0000
0010
0000
,  // measure 26
1000
0000
0000
0000
,  // measure 27
0010
0000
1000
0000
,  // measure 28
0001
0000
0000
0000
,  // measure 29
1000
0000
0001
0000
,  // measure 30
1000
1000
1000
1000
,  // measure 31
1000
0000
0000
0000
,  // measure 32
1001
0000
0000
0000
,  // measure 33
0001
0000
0000
0000
,  // measure 34
1000
0000
0000
0000
,  // measure 35
0010
0000
0000
0000
,  // measure 36
1001
0000
0000
0000
,  // measure 37
0000
0000
0000
0000
,  // measure 38
0000
0000
0000
0000
,  // measure 39
0000
0000
0000
0000
,  // measure 40
0110
0000
0000
0000
,  // measure 41
0000
0000
0000
0000
,  // measure 42
1000
1000
1000
1000
,  // measure 43
1000
0000
0000
0000
,  // measure 44
1001
0000
0000
0000
,  // measure 45
0001
0000
0010
0000
,  // measure 46
0001
0000
0000
0000
,  // measure 47
1000
0000
0001
0000
,  // measure 48
1000
0000
0000
0000
,  // measure 49
0010
0000
0100
0000
,  // measure 50
0010
0010
0010
0010
,  // measure 51
0010
0000
0000
0000
,  // measure 52
1001
0000
0000
0000
,  // measure 53
0001
0000
1000
0000
,  // measure 54
0100
0000
1000
0000
,  // measure 55
0001
0000
0100
0000
,  // measure 56
0010
0000
0100
0000
,  // measure 57
0001
0000
1000
0000
,  // measure 58
1001
0000
0000
0000
;
