#TITLE:Don't Close Your Eyes;
#SUBTITLE:;
#ARTIST:Max Jason Mai;
#TITLETRANSLIT:;
#SUBTITLETRANSLIT:;
#ARTISTTRANSLIT:;
#GENRE:;
#CREDIT:;
#BANNER:Don't Close Your Eyes.png;
#BACKGROUND:Don't Close Your Eyes-bg.png;
#LYRICSPATH:;
#CDTITLE:;
#MUSIC:Don't Close Your Eyes.mp3;
#OFFSET:-6.020000;
#SAMPLESTART:36.000000;
#SAMPLELENGTH:12.000000;
#SELECTABLE:YES;
#BPMS:0.000000=160.000000
;
#STOPS:
;
#BGCHANGES:;
#KEYSOUNDS:;
#ATTACKS:;

//---------------dance-single - Oni-91----------------
#NOTES:
     dance-single:
     :
     Hard:
     8:
     0.532901,0.552984,0.286335,0.143167,0.007954,469.000000,433.000000,36.000000,18.000000,0.000000,0.000000,0.532901,0.552984,0.286335,0.143167,0.007954,469.000000,433.000000,36.000000,18.000000,0.000000,0.000000:
// measure 0
0010
1000
0100
0000
0010
0000
0100
0010
,  // measure 1
0000
0010
0001
0000
1000
0001
0100
0000
,  // measure 2
0001
0100
0010
0100
0010
1000
0001
2000
,  // measure 3
0000
0010
0010
0000
0010
0000
3010
0000
,  // measure 4
1001
0000
1001
0000
0001
1000
0001
0000
,  // measure 5
1001
0000
1001
0000
1000
0001
1000
0000
,  // measure 6
0011
0000
0101
0000
0010
1000
0100
0000
,  // measure 7
1010
0000
1100
0000
0010
0001
0100
0000
,  // measure 8
1010
0000
0101
0000
0010
1000
0100
0010
,  // measure 9
0011
0000
1100
0000
0001
0100
0010
1000
,  // measure 10
1001
0000
1001
0000
0001
0010
0100
0010
,  // measure 11
0001
1000
0100
0010
0001
0000
1000
0000
,  // measure 12
0001
1000
0001
1000
0010
0000
0100
0000
,  // measure 13
0010
1000
0100
0010
0100
0000
0010
0001
,  // measure 14
0000
0010
0001
0100
0010
0000
0010
1000
,  // measure 15
0000
1000
0001
0100
0110
0000
1010
0000
,  // measure 16
0001
1000
0100
1000
0001
0000
0010
0001
,  // measure 17
0000
0001
0100
1000
0100
0000
0001
1000
,  // measure 18
0000
0001
0010
0100
1000
0000
0011
0000
,  // measure 19
1000
0010
1000
0001
0100
0001
0000
0000
,  // measure 20
1000
0100
1000
0001
1000
0001
0100
0001
,  // measure 21
0000
0100
0001
1000
0100
0010
0100
0010
,  // measure 22
0001
1000
0001
0100
0010
1000
0001
0010
,  // measure 23
0000
0010
0001
1000
0100
0010
0100
0000
,  // measure 24
0001
0100
0010
1000
0010
0100
0001
1000
,  // measure 25
0000
0001
1000
0100
0010
0001
1000
0000
,  // measure 26
0001
1000
0010
1000
0001
0000
1001
0000
,  // measure 27
1000
0100
0001
0100
0010
0000
0110
0000
,  // measure 28
1002
0000
0103
0000
0001
0100
0010
0000
,  // measure 29
1000
0100
0010
0001
0100
0010
1000
0000
,  // measure 30
0002
0000
0013
0000
0100
0010
0001
0000
,  // measure 31
1000
0010
0100
0001
0100
0010
1000
0001
,  // measure 32
2000
0000
3100
0000
0001
0100
1000
0000
,  // measure 33
0001
0100
0001
0100
0010
1000
0001
0000
,  // measure 34
0200
0000
0310
0100
0001
0010
0100
0000
,  // measure 35
0010
0001
1000
0000
0001
1000
0010
0000
,  // measure 36
1000
0001
1000
0001
1000
0001
1000
0001
,  // measure 37
2002
0000
0000
3003
,  // measure 38
1001
0000
0000
0000
,  // measure 39
0000
0000
0000
0000
,  // measure 40
1000
0001
1000
0001
,  // measure 41
1000
0010
0100
0001
,  // measure 42
1000
0100
1000
0100
0010
0001
0010
0001
,  // measure 43
1000
0010
1000
0010
0100
0001
0100
0001
,  // measure 44
1000
0001
1000
0001
0100
0010
0100
0010
,  // measure 45
2002
0000
0000
3003
,  // measure 46
0001
0100
0101
0000
1001
0000
1000
0100
,  // measure 47
0000
0010
0001
0000
1000
0001
1000
0001
,  // measure 48
0100
0010
1010
0000
1001
0000
0001
0010
,  // measure 49
0000
0001
0010
0100
0010
0001
0000
0001
,  // measure 50
1000
0100
1000
0010
1000
0001
1000
0001
,  // measure 51
0100
0010
0100
0001
0100
0010
0100
0001
,  // measure 52
1000
0010
1000
0100
1000
0001
0001
1000
,  // measure 53
0100
1000
0010
0010
1000
0001
1000
0100
,  // measure 54
0220
0000
0000
0000
,  // measure 55
0330
0000
0000
0000
,  // measure 56
2002
0000
3003
0000
,  // measure 57
0220
0000
0330
0000
,  // measure 58
0001
1000
0001
1000
0001
0000
0100
0001
,  // measure 59
0000
0001
0100
0000
0010
1000
0010
1000
,  // measure 60
0100
0010
0100
0010
0100
0000
0010
0001
,  // measure 61
0000
0001
1000
0000
0001
0100
0001
0000
,  // measure 62
1000
0010
0100
0001
0010
0100
1000
0001
,  // measure 63
0000
0001
0100
0010
1000
0010
0100
0000
,  // measure 64
0001
0010
0100
0010
0001
1000
0010
0100
,  // measure 65
0000
0010
0100
0001
1000
0100
0010
0000
,  // measure 66
0001
0010
0001
0010
0100
0010
0100
1000
,  // measure 67
0000
1000
0010
0100
0001
0010
0100
0000
,  // measure 68
0010
0100
1000
0100
0010
0100
1000
0002
,  // measure 69
0000
0010
0010
0000
1000
0000
0103
0000
,  // measure 70
1000
0010
1000
0010
0100
0000
0001
0000
,  // measure 71
1000
0000
0100
0000
0110
0000
0010
0001
,  // measure 72
1000
0001
0100
0010
1000
0100
0010
0100
,  // measure 73
1000
0001
0101
0110
,  // measure 74
0010
1000
1001
0001
,  // measure 75
0010
0000
0000
0100
0000
0000
0110
0000
0010
0000
0001
0000
,  // measure 76
2002
0000
0000
0000
,  // measure 77
0000
3003
0000
0000
;

//---------------dance-single - Oni-91----------------
#NOTES:
     dance-single:
     :
     Medium:
     7:
     0.437456,0.460820,0.206797,0.079537,0.007954,385.000000,359.000000,26.000000,10.000000,0.000000,0.000000,0.437456,0.460820,0.206797,0.079537,0.007954,385.000000,359.000000,26.000000,10.000000,0.000000,0.000000:
// measure 0
1000
0000
0001
0000
1000
0000
0001
0010
,  // measure 1
0000
0010
0001
0000
1000
0000
0001
0000
,  // measure 2
1000
0000
0010
0000
0100
0000
0001
0100
,  // measure 3
0000
0001
1000
0000
0001
1000
0001
1000
,  // measure 4
0100
0000
0100
0000
0100
1000
0100
0010
,  // measure 5
0001
0000
0001
0000
0001
0100
0010
1000
,  // measure 6
0010
0000
0010
0000
0010
0100
0001
1000
,  // measure 7
0100
0100
0100
0000
0110
0000
1001
0000
,  // measure 8
0001
0000
0001
0000
1000
0001
1000
0010
,  // measure 9
0100
0000
0100
0000
0010
1000
0001
0010
,  // measure 10
0100
0000
0100
0000
0010
0001
1000
0100
,  // measure 11
0010
0001
1000
0000
0010
1000
0001
0000
,  // measure 12
1010
0000
0100
0000
0001
0000
1000
0200
,  // measure 13
0000
0000
0310
0000
0100
0000
1000
0001
,  // measure 14
0100
0000
0010
0000
1000
0000
0001
0020
,  // measure 15
0000
0000
0130
0000
0010
0010
0010
0000
,  // measure 16
0001
1000
0001
0000
1000
0000
0100
1000
,  // measure 17
0000
0001
0100
0000
0010
0000
0100
0001
,  // measure 18
1000
0100
0010
0000
0100
0000
1000
0000
,  // measure 19
0001
1000
0001
1000
0010
0100
0000
0000
,  // measure 20
0110
0000
0001
1000
0100
0000
0010
0001
,  // measure 21
0000
0001
1000
0000
0001
0000
0100
0010
,  // measure 22
0100
0000
0010
1000
0001
0000
1000
0100
,  // measure 23
0000
1000
0001
0100
0010
0000
1000
0000
,  // measure 24
1001
0000
0001
0010
0100
0000
0010
0001
,  // measure 25
0000
1000
0001
0000
0100
0010
0100
0000
,  // measure 26
0010
0000
1000
0010
0100
0000
0001
0000
,  // measure 27
1000
0010
0100
0000
0001
1000
0100
0010
,  // measure 28
0100
0000
0110
0000
0010
0001
1000
0000
,  // measure 29
0001
1000
0010
0000
0100
0000
0001
0000
,  // measure 30
1000
0000
0001
0010
0100
0010
0001
0000
,  // measure 31
1000
0000
0010
0000
0100
0010
1000
0000
,  // measure 32
1001
0000
0101
0000
0010
1000
0100
0000
,  // measure 33
1000
0000
0001
0000
1000
0100
0001
0100
,  // measure 34
1000
0000
0001
0000
0010
0001
0100
0000
,  // measure 35
0010
1000
0010
1000
0001
0000
0100
0000
,  // measure 36
2002
0000
0000
0000
,  // measure 37
0000
0000
0000
3003
,  // measure 38
1001
0000
0000
0000
,  // measure 39
0000
0000
0000
0000
,  // measure 40
0001
0001
1000
1000
,  // measure 41
0001
0100
0010
0100
,  // measure 42
0010
0100
0010
0000
1000
0010
1000
0000
,  // measure 43
0001
1000
0001
0000
1000
0100
1000
0000
,  // measure 44
0001
0010
0100
0000
0010
0001
1000
0001
,  // measure 45
0100
0000
0000
0000
,  // measure 46
1010
0000
1001
0000
0011
0000
0001
1000
,  // measure 47
0000
1000
0001
0000
0100
0010
0100
0000
,  // measure 48
0010
0000
1000
0000
0100
0000
1000
0001
,  // measure 49
0000
0010
0001
0100
0000
0010
0000
0100
,  // measure 50
0001
0000
1001
0000
1100
0000
1000
0100
,  // measure 51
0000
0010
0100
0000
0010
0001
1000
0000
,  // measure 52
0001
0000
0100
0000
0010
0000
1000
1000
,  // measure 53
0000
1000
0100
0010
0001
0000
1000
0000
,  // measure 54
2002
0000
0000
0000
,  // measure 55
3003
0000
0000
0000
,  // measure 56
0220
0000
0000
0000
,  // measure 57
0330
0000
0000
0000
,  // measure 58
1001
0000
0001
0000
0100
0000
0001
1000
,  // measure 59
0000
1000
0100
0000
1000
0001
1000
0000
,  // measure 60
0001
0000
0010
0000
0100
0000
0010
0001
,  // measure 61
0000
1000
0001
0000
1000
0010
0100
0001
,  // measure 62
0100
0000
0110
0000
0010
1000
0001
0000
,  // measure 63
1000
0000
0100
0000
0010
0001
0010
0001
,  // measure 64
1000
0000
1001
0000
0001
0100
0010
0000
,  // measure 65
0100
0000
0010
0000
1000
0001
1000
0000
,  // measure 66
1001
0000
0001
0000
0010
0001
1000
0000
,  // measure 67
0010
1000
0001
0000
1000
0010
0100
0000
,  // measure 68
0010
0000
0100
0000
0001
0000
0100
0001
,  // measure 69
0000
1000
0100
1000
0001
0010
0001
0000
,  // measure 70
1001
1000
0100
0001
,  // measure 71
0100
0000
1000
0000
0001
0000
0100
0001
,  // measure 72
0100
1000
0100
0010
,  // measure 73
1000
0000
0001
0000
1000
0000
0100
1000
,  // measure 74
1001
0001
0011
0010
,  // measure 75
0110
0000
0000
0100
0000
0000
1000
0000
0001
0000
1000
0000
,  // measure 76
2002
0000
0000
0000
,  // measure 77
0000
3003
0000
0000
;

//---------------dance-single - Oni-91----------------
#NOTES:
     dance-single:
     :
     Easy:
     5:
     0.314741,0.430099,0.254520,0.135214,0.000000,277.000000,245.000000,32.000000,17.000000,0.000000,0.000000,0.314741,0.430099,0.254520,0.135214,0.000000,277.000000,245.000000,32.000000,17.000000,0.000000,0.000000:
// measure 0
1000
0000
0001
0000
0100
0000
0001
1000
,  // measure 1
0000
0001
1000
0100
,  // measure 2
0010
0000
0100
0000
0010
0000
0100
0010
,  // measure 3
0000
0100
1000
0001
,  // measure 4
1001
0001
1001
1001
,  // measure 5
1000
0010
0110
0110
,  // measure 6
0100
0001
1001
1001
,  // measure 7
1000
0100
0110
1001
,  // measure 8
1000
0001
1001
1001
,  // measure 9
0001
0100
0110
0110
,  // measure 10
0010
1000
0100
0010
,  // measure 11
0100
1000
0002
0003
,  // measure 12
1001
1000
0100
0000
,  // measure 13
0010
0001
0100
0000
,  // measure 14
0010
0100
0001
1000
,  // measure 15
0100
0010
0110
0110
,  // measure 16
0010
0001
1000
0000
,  // measure 17
0001
1000
0010
0000
,  // measure 18
1000
0010
0100
0001
,  // measure 19
0100
0010
2002
3003
,  // measure 20
0110
0000
0010
1000
,  // measure 21
0001
0000
1000
0100
,  // measure 22
0010
0000
0100
0010
,  // measure 23
0100
1000
0001
0100
,  // measure 24
0110
0000
0010
1000
,  // measure 25
0001
0000
1000
0001
,  // measure 26
0010
0100
1000
0100
,  // measure 27
0001
0100
1000
0001
,  // measure 28
1000
0001
0100
0010
,  // measure 29
0100
0001
0010
0100
,  // measure 30
0010
0001
1000
0010
,  // measure 31
0100
0001
1000
0001
,  // measure 32
2002
0000
0000
3003
,  // measure 33
1000
0010
0100
0001
,  // measure 34
0010
0100
0010
0000
,  // measure 35
0100
0010
0001
1000
,  // measure 36
2002
0000
0000
0000
,  // measure 37
0000
0000
0000
3003
,  // measure 38
1001
0000
0000
0000
,  // measure 39
0000
0000
0000
0000
,  // measure 40
1000
1000
1000
1000
,  // measure 41
0001
0001
0001
0001
,  // measure 42
0100
0100
0100
0100
,  // measure 43
0010
0010
0010
0010
,  // measure 44
0100
0010
0100
0010
,  // measure 45
0110
0000
0000
0000
,  // measure 46
1001
0000
0001
0000
1000
0000
0001
1000
,  // measure 47
0000
0001
1000
0100
,  // measure 48
0010
0000
0001
0000
1000
0000
1000
0001
,  // measure 49
0000
1000
0100
0010
,  // measure 50
0100
0000
0010
0000
0100
0000
0010
0100
,  // measure 51
0000
0010
0001
1000
,  // measure 52
0001
0001
0100
0100
,  // measure 53
0010
1000
0001
1000
,  // measure 54
0220
0000
0000
0000
,  // measure 55
0330
0000
0000
0000
,  // measure 56
2002
0000
0000
0000
,  // measure 57
3003
0000
0000
0000
,  // measure 58
1000
0100
0010
0100
,  // measure 59
1000
0001
0100
0000
,  // measure 60
0001
1000
0100
0010
,  // measure 61
0100
0010
0001
1000
,  // measure 62
1001
0000
0001
0100
,  // measure 63
1000
0100
0001
0000
,  // measure 64
1001
0000
1000
0100
,  // measure 65
0001
0100
1000
0001
,  // measure 66
0010
0000
0100
0010
,  // measure 67
0001
1000
0010
0100
,  // measure 68
0010
0000
1000
0010
,  // measure 69
2002
0000
0000
3003
,  // measure 70
1000
0100
0010
0001
,  // measure 71
0010
0001
1000
0010
,  // measure 72
0100
0000
0010
0100
,  // measure 73
0001
1000
0100
0010
,  // measure 74
0110
0000
0010
0000
,  // measure 75
0001
0000
2002
3003
,  // measure 76
0220
0000
0000
0000
,  // measure 77
0000
0330
0000
0000
;

//---------------dance-single - Oni-91----------------
#NOTES:
     dance-single:
     :
     Beginner:
     2:
     0.171574,0.241794,0.111352,0.000000,0.000000,151.000000,137.000000,14.000000,0.000000,0.000000,0.000000,0.171574,0.241794,0.111352,0.000000,0.000000,151.000000,137.000000,14.000000,0.000000,0.000000,0.000000:
// measure 0
1000
0000
0001
0000
,  // measure 1
0100
0000
0000
0000
,  // measure 2
0010
0000
0100
0000
,  // measure 3
0110
0000
0000
0000
,  // measure 4
1001
0000
0001
0000
,  // measure 5
1000
0000
0100
0000
,  // measure 6
1000
0000
0001
0000
,  // measure 7
0100
0000
0010
0010
,  // measure 8
0010
0000
0100
0000
,  // measure 9
0001
0000
1000
0000
,  // measure 10
0100
0000
0010
0000
,  // measure 11
0110
0000
0000
0000
,  // measure 12
1001
0000
0000
0000
,  // measure 13
0001
0000
1000
0000
,  // measure 14
0010
0000
0000
0000
,  // measure 15
0100
0000
0010
0010
,  // measure 16
0010
0000
0000
0000
,  // measure 17
0100
0000
0001
0000
,  // measure 18
1000
0000
0001
0000
,  // measure 19
1000
0000
0000
0000
,  // measure 20
0110
0000
0010
0000
,  // measure 21
1000
0000
0001
0000
,  // measure 22
1000
0000
0000
0000
,  // measure 23
0001
0000
0010
0000
,  // measure 24
0100
0000
0010
0000
,  // measure 25
0001
0000
1000
0000
,  // measure 26
0001
0000
0000
0000
,  // measure 27
1000
0000
0010
0000
,  // measure 28
0100
0000
0010
0000
,  // measure 29
0100
0000
0001
0000
,  // measure 30
1000
0000
0001
0000
,  // measure 31
0010
0000
0100
0000
,  // measure 32
0110
0000
0000
0000
,  // measure 33
0010
0000
0001
0000
,  // measure 34
1000
0000
0100
0000
,  // measure 35
0010
0000
0100
0000
,  // measure 36
1000
0000
0000
0000
,  // measure 37
0000
0000
0000
0000
,  // measure 38
1001
0000
0000
0000
,  // measure 39
0000
0000
0000
0000
,  // measure 40
0001
0000
0000
0000
,  // measure 41
0100
0000
0000
0000
,  // measure 42
0010
0000
0100
0000
,  // measure 43
0010
0000
0100
0000
,  // measure 44
0010
0000
0100
0000
,  // measure 45
0110
0000
0000
0000
,  // measure 46
1001
0000
0001
0000
,  // measure 47
1000
0000
0100
0000
,  // measure 48
0010
0000
0100
0000
,  // measure 49
0010
0000
0001
0001
,  // measure 50
0001
0000
1000
0000
,  // measure 51
0001
0000
0100
0000
,  // measure 52
0010
0000
0100
0000
,  // measure 53
0001
0001
0001
0001
,  // measure 54
0001
0000
0000
0000
,  // measure 55
0000
0000
0000
0000
,  // measure 56
1001
0000
0000
0000
,  // measure 57
1000
0000
0100
0000
,  // measure 58
0010
0000
0100
0000
,  // measure 59
1000
0000
0000
0000
,  // measure 60
0001
0000
0100
0100
,  // measure 61
0100
0000
0001
0000
,  // measure 62
1000
0000
0100
0000
,  // measure 63
0010
0000
0100
0000
,  // measure 64
0010
0000
0001
0000
,  // measure 65
1000
0000
0010
0000
,  // measure 66
0100
0000
0001
0000
,  // measure 67
1000
0000
0001
0000
,  // measure 68
1000
0000
0100
0000
,  // measure 69
0010
0010
0010
0000
,  // measure 70
1001
0000
0001
0000
,  // measure 71
0100
0000
0010
0000
,  // measure 72
0110
0000
0100
0000
,  // measure 73
0001
0000
1000
0000
,  // measure 74
1001
0000
0001
0000
,  // measure 75
1000
0000
0001
0001
,  // measure 76
1001
0000
0000
0000
;

//---------------dance-single - Oni-91----------------
#NOTES:
     dance-single:
     :
     Challenge:
     10:
     0.829462,1.013804,1.057848,0.127260,0.349965,730.000000,597.000000,133.000000,16.000000,0.000000,0.000000,0.829462,1.013804,1.057848,0.127260,0.349965,730.000000,597.000000,133.000000,16.000000,0.000000,0.000000:
// measure 0
1100
1000
1001
0001
0101
0100
0010
1010
,  // measure 1
1000
0100
1000
0100
0001
0100
0010
0100
,  // measure 2
0110
0010
0011
0001
1001
1001
1000
1010
,  // measure 3
0110
0000
0001
1000
0001
1000
0100
0000
0010
0001
0010
0000
0001
0000
1000
0001
,  // measure 4
0100
0000
0000
0000
0110
0000
0000
0000
0010
1000
0010
1000
0001
0100
0001
0100
,  // measure 5
0001
0000
0000
0000
1001
0000
0000
0000
1000
0100
0010
0100
0010
0001
0010
0100
,  // measure 6
1000
0000
0000
0000
1001
0000
0000
0000
1000
0010
0100
0001
1000
0100
0010
0001
,  // measure 7
0100
0000
0010
0100
0010
0000
1000
0000
1001
0000
0001
0000
0011
0000
0010
0000
,  // measure 8
0110
0000
0000
0000
1001
0000
1000
0000
0100
1000
0100
0010
0100
1000
0001
1000
,  // measure 9
0001
0000
0000
0000
0101
0000
0100
0000
0001
0100
0010
0100
0001
1000
0010
1000
,  // measure 10
0010
0000
0000
0000
1010
0000
0000
0000
1000
0100
0001
0100
1000
0001
1000
0001
,  // measure 11
1000
0010
1000
0010
0100
0001
0100
0001
1000
0100
0010
0001
2000
0000
0000
0000
,  // measure 12
3001
0010
0001
0100
1000
0100
0010
0100
,  // measure 13
0010
0000
1000
0000
0100
0000
0010
0000
0001
0000
0100
0000
0010
0000
1000
0001
,  // measure 14
1000
0010
0100
0001
1000
0100
0010
0100
,  // measure 15
1000
0000
0001
0000
0100
0000
0010
0000
1000
0010
0100
0000
0001
0010
0100
0000
,  // measure 16
1001
0001
0100
0010
1000
0100
0010
0210
,  // measure 17
0000
0000
1300
0000
0010
0000
0100
0000
0001
0000
0010
0000
0100
0000
1000
0001
,  // measure 18
1000
0001
0100
0010
1000
0000
1001
0000
,  // measure 19
0110
0000
0010
1000
0100
0010
0001
0010
0100
0000
1000
0000
0001
0000
0100
0000
,  // measure 20
0210
0010
0010
0010
0310
0100
0001
2000
,  // measure 21
0000
3100
0010
0100
1001
0001
0100
0110
,  // measure 22
0010
0100
0001
0010
0100
0010
0001
0200
,  // measure 23
0000
0000
0310
0000
1000
0000
0100
0000
1100
0000
1000
0000
1001
0000
0001
0100
,  // measure 24
0010
0100
0001
1000
1100
0100
0010
0012
,  // measure 25
0000
1003
0010
0100
0001
0010
0100
0010
,  // measure 26
0100
1000
0001
0100
1010
1000
1100
0011
,  // measure 27
0000
0000
0001
0000
1000
0000
0010
0000
0110
0000
0100
0000
0001
0010
0100
1000
,  // measure 28
0100
0110
0011
0101
,  // measure 29
0001
1000
0110
0000
0001
1000
0110
0000
,  // measure 30
1000
0000
1100
0000
0010
0001
0101
0000
,  // measure 31
0100
0010
1010
1000
0100
0010
1001
0000
,  // measure 32
0011
0000
1001
0000
1000
0010
0100
0000
,  // measure 33
0010
1000
0100
0010
0100
1000
1001
0000
,  // measure 34
0011
0010
0010
0001
0100
0100
0010
1000
,  // measure 35
1000
0100
0010
0010
0100
1000
0001
0200
,  // measure 36
0001
0001
0001
0001
0001
0001
0001
0301
,  // measure 37
0001
0010
0100
1000
0001
0100
0010
1000
0100
0010
0001
0100
,  // measure 38
0120
0100
1000
0100
,  // measure 39
0001
0100
1000
0130
,  // measure 40
1010
1100
0011
0101
,  // measure 41
0110
1001
0011
1100
,  // measure 42
1000
0100
0001
0100
1000
0100
0010
0100
,  // measure 43
1000
0010
0100
0001
1000
0100
0010
0001
,  // measure 44
1000
0001
1000
0001
0100
0010
0100
0010
,  // measure 45
2002
0000
3003
0100
,  // measure 46
1001
1000
1010
0010
0110
0100
0001
1001
,  // measure 47
1000
0100
0110
0010
0011
0001
1001
1000
,  // measure 48
1010
0100
0110
0001
1001
1000
0100
0011
,  // measure 49
0100
1000
1010
0010
0100
0101
0001
1001
,  // measure 50
1001
0100
1001
0010
1001
0100
0010
1001
,  // measure 51
0100
0010
0110
0100
1010
0100
1001
0010
,  // measure 52
0001
0010
0001
0010
0100
1000
0100
1000
0001
1000
0001
1000
0001
1000
0010
0100
,  // measure 53
0010
0100
0001
0010
0100
1000
0100
0010
0001
0100
0010
1000
0001
0100
0010
2000
,  // measure 54
0002
0000
0000
0000
,  // measure 55
3003
0000
0000
0000
,  // measure 56
0220
0000
0000
0000
0000
0000
0000
0000
0000
0000
0000
0000
0000
0000
0000
0000
0000
0000
0330
0000
0000
0000
0001
1000
,  // measure 57
0001
1000
0100
0010
0100
1000
1001
0000
0101
0000
0110
0000
,  // measure 58
1001
0001
0001
0001
1000
0100
0010
1001
,  // measure 59
0010
0100
0001
1000
1001
0001
0011
1100
,  // measure 60
0001
0010
0100
0001
0101
0100
1000
1001
,  // measure 61
0000
0001
0100
0010
1010
1000
1001
0000
,  // measure 62
0101
0100
0110
0100
1100
0100
0110
1001
,  // measure 63
0000
1000
1100
0100
0010
0001
1001
1000
,  // measure 64
0011
0001
0101
0001
1001
0001
0101
1010
,  // measure 65
0000
0000
1000
0000
0100
0000
0010
0000
0001
0000
1000
0010
0100
0001
0010
0100
,  // measure 66
1000
0100
0101
0100
1000
0001
0101
0100
,  // measure 67
0010
1000
1001
0001
0010
0100
1001
1100
,  // measure 68
0110
0110
0110
0010
0001
0100
0110
0010
,  // measure 69
1001
0000
0001
0010
0001
1000
0100
0000
0100
1000
0010
0010
0100
0001
1000
0100
,  // measure 70
1000
0100
0010
0001
1001
1000
1010
0101
,  // measure 71
0000
0001
0010
0100
1100
1000
0001
0101
,  // measure 72
0110
0110
0110
0110
0010
1000
0100
0110
,  // measure 73
0000
1001
1000
0001
0101
0100
0110
0010
,  // measure 74
1001
0100
1010
0100
,  // measure 75
0011
0000
0000
0100
0000
0000
0011
0000
1100
0000
1001
0000
,  // measure 76
0220
0000
0000
0000
,  // measure 77
0000
0330
0000
0000
;
