#TITLE:DYNAMITE SENSATION;
#SUBTITLE:;
#ARTIST:NAOKI;
#TITLETRANSLIT:;
#SUBTITLETRANSLIT:;
#ARTISTTRANSLIT:;
#GENRE:;
#CREDIT:;
#BANNER:DYNAMITE SENSATION.PNG;
#BACKGROUND:DYNAMITE SENSATION-bg.png;
#LYRICSPATH:;
#CDTITLE:;
#MUSIC:DYNAMITE SENSATION.mp3;
#OFFSET:-6.410000;
#SAMPLESTART:38.410000;
#SAMPLELENGTH:12.800000;
#SELECTABLE:YES;
#BPMS:0.000000=150.000000
;
#STOPS:
;
#BGCHANGES:;
#KEYSOUNDS:;
#ATTACKS:;

//---------------dance-single - Oni-91----------------
#NOTES:
     dance-single:
     :
     Hard:
     8:
     0.561354,0.572213,0.411113,0.000000,0.262921,411.000000,368.000000,43.000000,0.000000,0.000000,0.000000,0.561354,0.572213,0.411113,0.000000,0.262921,411.000000,368.000000,43.000000,0.000000,0.000000,0.000000:
// measure 0
0001
0000
0000
0000
0110
0000
0000
0100
1000
0000
0000
0000
1001
0000
0000
0000
,  // measure 1
1000
0000
0000
0000
0110
0000
0000
0100
0001
0000
1000
0000
1001
0000
0000
0000
,  // measure 2
1000
0000
0000
0000
0101
0000
0000
0010
1000
0000
0000
0000
1100
0000
0000
0010
,  // measure 3
0001
0000
0000
1000
0010
0000
0000
1000
0001
0000
1000
0000
1100
0000
0000
0000
,  // measure 4
0011
0000
0000
0000
0001
0000
0000
0000
1000
0000
0000
0010
0100
0000
0001
0000
,  // measure 5
1000
0000
0000
0000
0001
0000
0000
0010
0001
0000
0000
1000
0100
0000
0010
0000
,  // measure 6
0100
0000
0000
0000
1000
0000
0000
0000
0010
0000
0000
0100
0001
0000
1000
0000
,  // measure 7
0001
0000
0000
0000
0100
0000
0000
0010
0000
0010
0000
0000
1001
0000
0000
0000
,  // measure 8
1000
0100
1000
0001
0100
0001
0100
0000
,  // measure 9
0001
0010
0001
1000
0100
0010
0001
0000
,  // measure 10
1001
0010
0100
0000
1001
0100
0010
0000
,  // measure 11
1001
0000
0010
0000
0100
0000
1000
0000
0001
1000
0001
1000
0001
0000
0000
0000
,  // measure 12
0100
0000
1001
0000
0010
0010
0010
0000
,  // measure 13
0100
0000
0000
0000
1010
0000
0000
0100
0001
0000
1000
0000
0100
0000
1000
0000
,  // measure 14
0001
0000
1000
0100
0010
0000
0100
1000
,  // measure 15
0001
1000
0000
0001
1000
0000
0000
0000
0001
0000
1000
0000
0010
0000
0000
0000
,  // measure 16
0110
0000
0001
1000
0100
0000
0010
0010
,  // measure 17
0010
0000
0000
0001
1000
0000
0001
0000
0100
0000
0010
0000
1000
0000
0000
0000
,  // measure 18
0101
0000
0010
1000
0001
0000
1000
0001
,  // measure 19
1000
0100
0000
0010
0001
0000
0000
1010
0000
0000
0100
0000
0110
0000
0000
0000
,  // measure 20
1001
0000
0000
0001
0000
0000
1000
0000
0100
0000
0000
0000
0010
0000
0000
0000
,  // measure 21
0100
1000
1000
0001
0001
0100
0010
0100
,  // measure 22
0001
0000
0000
1000
0000
0000
0001
0000
0010
0000
0000
0000
0100
0000
0000
0000
,  // measure 23
0010
0001
0001
1000
1000
0010
0010
0100
,  // measure 24
1001
0000
0000
1000
0000
0000
0100
0000
0001
0000
0000
0000
0100
0000
0000
0000
,  // measure 25
1000
0000
0100
1000
0001
0000
0100
0000
0010
0000
1000
0000
0001
0000
0010
0000
,  // measure 26
0001
0000
0000
0100
0000
0000
1000
0000
0100
0000
0000
0000
0001
1000
0001
1000
,  // measure 27
0000
0110
0000
0000
0000
0000
0000
0000
,  // measure 28
1000
0000
0000
0001
0000
0000
1000
0000
0000
0000
0100
0000
0000
0010
0000
0000
,  // measure 29
0110
0000
0000
1001
0000
0000
0110
0000
0000
0000
0010
0000
0000
1000
0000
0000
,  // measure 30
1001
0000
0000
0110
0000
0000
1001
0000
0000
0000
0101
0000
0000
0010
0000
0000
,  // measure 31
0100
0000
0010
0000
1000
0100
1001
0000
,  // measure 32
0001
0000
0000
0000
1001
0000
0000
1000
0000
0000
0100
0000
1000
0000
0000
0000
,  // measure 33
0001
0000
0010
0000
0110
0000
0000
0100
0000
0000
1000
0000
0001
0000
0000
0000
,  // measure 34
0100
0000
1001
0000
1000
0100
0001
0100
,  // measure 35
0010
0000
0000
0000
0001
0000
0100
0000
1000
0000
0000
0100
0000
0000
0110
0000
,  // measure 36
1001
0000
0000
0000
0001
0000
1000
0001
0000
1000
0001
0000
0100
0000
0000
0000
,  // measure 37
0010
0000
1000
0000
0100
0000
0010
0100
0000
0010
0100
0000
0010
0000
0001
0000
,  // measure 38
1000
0000
0001
0010
0100
0001
0100
1000
,  // measure 39
0001
0000
0100
0101
0000
1001
0000
0000
,  // measure 40
0001
0010
0100
1000
0100
0000
1001
0000
,  // measure 41
1000
0010
0100
0001
0010
0001
1000
0000
,  // measure 42
0001
0010
0100
1000
0100
0000
0011
0000
,  // measure 43
0001
0100
0010
1000
0010
1000
0100
0000
,  // measure 44
1001
0000
0001
0010
0100
0001
0100
1000
,  // measure 45
0001
0000
0001
0100
0010
0001
0010
1000
,  // measure 46
0001
0000
0010
0000
0100
0000
0010
0000
0100
0000
0010
0000
0001
1000
0001
1000
,  // measure 47
0000
0000
0000
0000
,  // measure 48
1001
0000
0001
1000
0000
0000
0001
0000
0010
0000
0100
0000
0001
0000
0100
0000
,  // measure 49
1000
0001
0001
1000
1000
0100
0010
0001
,  // measure 50
1000
0000
0001
1000
0000
0000
1000
0000
0100
0000
0001
0000
1000
0000
0010
0000
,  // measure 51
0100
0000
0010
0100
0010
0000
0001
0000
1000
0000
0010
0000
0100
0000
0001
0000
,  // measure 52
1001
0000
0000
0001
0000
0000
1000
0000
0010
0000
0100
0000
0001
0000
0100
0000
,  // measure 53
0010
0000
1000
0001
1000
0000
0010
1000
0010
0000
0100
0001
0100
0000
0001
0000
,  // measure 54
1000
0000
0000
0100
0000
0000
1000
0000
0100
0000
0010
0000
0001
0010
0001
0010
,  // measure 55
0000
1001
0000
0000
0000
0000
0000
0000
,  // measure 56
1000
0000
0001
1000
0000
0001
1000
0000
0001
0000
0010
0000
0100
0000
0010
0000
,  // measure 57
1001
0000
0000
0000
;

//---------------dance-single - Oni-91----------------
#NOTES:
     dance-single:
     :
     Beginner:
     1:
     0.148875,0.163489,0.076486,0.000000,0.000000,109.000000,101.000000,8.000000,0.000000,0.000000,0.000000,0.148875,0.163489,0.076486,0.000000,0.000000,109.000000,101.000000,8.000000,0.000000,0.000000,0.000000:
// measure 0
1001
0000
0000
0000
,  // measure 1
0000
0000
0000
0000
,  // measure 2
0001
0000
0000
0000
,  // measure 3
0000
0000
0000
0000
,  // measure 4
0100
0000
0100
0000
,  // measure 5
0010
0000
0010
0000
,  // measure 6
1000
0000
0001
0000
,  // measure 7
1001
0000
0000
0000
,  // measure 8
1000
0000
0000
0000
,  // measure 9
0001
0000
0100
0000
,  // measure 10
0001
0000
1000
0000
,  // measure 11
0001
0001
0001
0000
,  // measure 12
1000
0000
0001
0000
,  // measure 13
0010
0000
0100
0000
,  // measure 14
0010
0000
0001
0000
,  // measure 15
1000
0000
0000
0000
,  // measure 16
0001
0000
0100
0000
,  // measure 17
1000
0000
0100
0000
,  // measure 18
0001
0000
1000
0000
,  // measure 19
0001
0001
0001
0000
,  // measure 20
1000
0000
1000
0000
,  // measure 21
0001
0000
0010
0000
,  // measure 22
0100
0000
0100
0000
,  // measure 23
0010
0000
0001
0000
,  // measure 24
1000
0000
1000
0000
,  // measure 25
0001
0000
0100
0000
,  // measure 26
0010
0000
1000
0000
,  // measure 27
0000
1001
0000
0000
0000
0000
0000
0000
,  // measure 28
1000
0000
0000
0000
,  // measure 29
0100
0000
0000
0000
,  // measure 30
1000
0000
0000
0000
,  // measure 31
0001
0001
0000
0000
,  // measure 32
0100
0000
0001
0000
,  // measure 33
1000
1000
1000
0000
,  // measure 34
0001
0000
1000
0000
,  // measure 35
0100
0000
0010
0000
,  // measure 36
0100
0000
0010
0000
,  // measure 37
0001
0001
0001
0000
,  // measure 38
1000
0000
0001
0000
,  // measure 39
0100
0000
0010
0000
,  // measure 40
1001
0000
0000
0000
,  // measure 41
1000
0000
0001
0000
,  // measure 42
0100
0000
0000
0000
,  // measure 43
0010
0000
0100
0000
,  // measure 44
0001
0000
0000
0000
,  // measure 45
1000
0000
0100
0000
,  // measure 46
1000
0000
0100
0000
,  // measure 47
0010
0000
0000
0000
,  // measure 48
1001
0000
0001
0000
,  // measure 49
0100
0000
0001
0000
,  // measure 50
1000
0000
0100
0000
,  // measure 51
0010
0000
0100
0100
,  // measure 52
0100
0000
0010
0000
,  // measure 53
0001
0000
0100
0000
,  // measure 54
0001
0000
1000
0000
,  // measure 55
0000
1001
0000
0000
0000
0000
0000
0000
,  // measure 56
1001
0000
0000
0000
,  // measure 57
0110
0000
0000
0000
;

//---------------dance-single - Oni-91----------------
#NOTES:
     dance-single:
     :
     Easy:
     3:
     0.254044,0.272482,0.086047,0.000000,0.000000,186.000000,177.000000,9.000000,0.000000,0.000000,0.000000,0.254044,0.272482,0.086047,0.000000,0.000000,186.000000,177.000000,9.000000,0.000000,0.000000,0.000000:
// measure 0
1001
0000
0001
0000
,  // measure 1
0100
0000
0001
0000
,  // measure 2
1000
0000
0100
0000
,  // measure 3
0010
0000
0100
0000
,  // measure 4
1001
0001
0100
0001
,  // measure 5
0010
0001
0100
0001
,  // measure 6
1000
0100
0010
0100
,  // measure 7
1000
0001
0000
1000
,  // measure 8
0001
0100
1000
0100
,  // measure 9
0001
0010
0100
0010
,  // measure 10
0100
0100
1000
1000
,  // measure 11
0001
1000
1001
0000
,  // measure 12
0001
1000
0100
0000
,  // measure 13
0010
0001
0100
0100
,  // measure 14
0100
0010
1000
0000
,  // measure 15
0001
1000
0001
0001
,  // measure 16
0001
0010
0001
0000
,  // measure 17
0100
0010
1000
0100
,  // measure 18
0010
0100
1000
0000
,  // measure 19
0001
0100
0010
1000
,  // measure 20
0001
0001
0001
0000
,  // measure 21
1000
0100
0010
0100
,  // measure 22
1000
1000
1000
0000
,  // measure 23
0001
0100
0010
0100
,  // measure 24
0010
0010
0010
0000
,  // measure 25
1000
0001
1000
0100
,  // measure 26
0010
0010
0010
0010
,  // measure 27
0000
0110
0000
0000
0000
0000
0000
0000
,  // measure 28
1001
0000
0000
0000
,  // measure 29
0001
0000
0000
0000
,  // measure 30
0100
0000
0000
0000
,  // measure 31
0010
1000
0000
0001
,  // measure 32
1001
0000
0001
0000
,  // measure 33
1000
0000
0100
0000
,  // measure 34
0010
0100
1000
0100
,  // measure 35
0010
0001
0100
0010
,  // measure 36
0100
0000
0010
0000
,  // measure 37
1000
0000
0001
0000
,  // measure 38
0001
0100
0010
1000
,  // measure 39
0100
0010
0001
1000
,  // measure 40
1001
0000
0001
0001
,  // measure 41
0100
0000
0100
0100
,  // measure 42
0010
0000
0010
0010
,  // measure 43
1000
0000
1000
0100
,  // measure 44
0001
0000
0001
0100
,  // measure 45
1000
0000
0001
1000
,  // measure 46
0001
1000
0010
0100
,  // measure 47
0000
0000
0000
0000
,  // measure 48
0010
1000
0100
1000
,  // measure 49
0001
0001
0100
0100
,  // measure 50
0010
1000
0100
0010
,  // measure 51
0100
0100
1000
1000
,  // measure 52
0001
1000
0001
0100
,  // measure 53
0010
0010
1000
1000
,  // measure 54
0001
1000
0100
0010
,  // measure 55
0000
0110
0000
0000
0000
0000
0000
0000
,  // measure 56
0100
0000
1000
0001
,  // measure 57
1001
0000
0000
0000
;

//---------------dance-single - Oni-91----------------
#NOTES:
     dance-single:
     :
     Medium:
     6:
     0.415211,0.408723,0.229459,0.000000,0.086047,304.000000,280.000000,24.000000,0.000000,0.000000,0.000000,0.415211,0.408723,0.229459,0.000000,0.086047,304.000000,280.000000,24.000000,0.000000,0.000000,0.000000:
// measure 0
1000
0001
0100
0101
,  // measure 1
0001
1000
0100
1100
,  // measure 2
1000
0001
0010
0110
,  // measure 3
0010
0011
1001
0110
,  // measure 4
1001
0001
1000
0100
,  // measure 5
0010
0000
0100
0000
1000
0000
0001
0100
,  // measure 6
0010
0100
0001
1000
,  // measure 7
0001
0000
0000
0000
1000
0000
0000
0001
0000
0001
0000
0000
1000
0000
0000
0000
,  // measure 8
0100
0010
0100
0000
0010
0001
0010
0000
,  // measure 9
0001
1000
0001
0000
1000
0010
1000
0000
,  // measure 10
0101
0001
1100
1000
,  // measure 11
1001
0011
1100
1010
,  // measure 12
0010
1000
0100
0000
0010
0000
0100
0000
,  // measure 13
0010
0001
0100
0000
0001
1000
0100
0000
,  // measure 14
0010
0001
0100
0000
0010
0000
0100
0000
,  // measure 15
0010
1000
0001
0000
1000
0001
1000
0000
,  // measure 16
0110
0000
0001
1000
0001
0000
1000
0000
,  // measure 17
0100
0010
0100
0000
0010
0001
1000
0000
,  // measure 18
0100
0000
0010
0100
1000
0000
0001
0100
,  // measure 19
0010
0000
0000
0000
1000
0000
0000
0001
0000
0000
0100
0000
0100
0000
0000
0000
,  // measure 20
0001
0000
0000
1000
0000
0000
0001
0000
1000
0000
0000
0000
0100
0000
0000
0000
,  // measure 21
0010
0100
0010
0000
0001
1000
0001
0000
,  // measure 22
0100
0000
0000
0001
0000
0000
0100
0000
0001
0000
0000
0000
1000
0000
0000
0000
,  // measure 23
0001
0001
0001
0000
1000
1000
1000
0100
,  // measure 24
0010
0000
0000
0001
0000
0000
1000
0000
0001
0000
0000
0000
1000
0000
0000
0000
,  // measure 25
0010
0100
0010
0000
1000
0010
1000
0000
,  // measure 26
0001
0000
0000
1000
0000
0000
0100
0000
0010
0000
0000
0000
0100
0000
0100
0000
,  // measure 27
0000
1001
0000
0000
0000
0000
0000
0000
,  // measure 28
0001
0000
0000
0001
0000
0000
0001
0000
0000
0000
1000
0000
0000
0001
0000
0000
,  // measure 29
1000
0000
0000
1000
0000
0000
1000
0000
0000
0000
0010
0000
0000
0100
0000
0000
,  // measure 30
0010
0000
0000
0010
0000
0000
0010
0000
0000
0000
0100
0000
0000
0001
0000
0000
,  // measure 31
0100
0001
1000
1001
,  // measure 32
0110
0000
1010
0000
0001
0100
0001
0000
,  // measure 33
1000
0000
0100
0000
0010
0001
0010
0000
,  // measure 34
0001
0000
0100
0000
1000
0000
0100
0001
,  // measure 35
1000
0000
0100
0010
0000
0010
0100
0000
,  // measure 36
0011
0000
1100
0000
1000
0010
0100
0000
,  // measure 37
0001
0100
0010
0000
1000
0001
0010
0100
,  // measure 38
0010
0000
0001
0000
0100
0000
0010
1000
,  // measure 39
0000
0001
0100
0001
1000
0000
1001
0000
,  // measure 40
0101
0001
1000
0100
,  // measure 41
0010
0000
0100
0000
1000
0000
0001
0100
,  // measure 42
0001
0100
0010
1000
,  // measure 43
0001
0000
0010
0000
0100
0010
0001
0010
,  // measure 44
0100
0010
0001
1000
,  // measure 45
0010
0000
1000
0000
0001
0000
0100
0010
,  // measure 46
1000
0000
0001
0000
0100
0000
0010
0010
,  // measure 47
0000
0000
0000
0000
,  // measure 48
1000
0000
0000
0100
0000
0000
1000
0000
0100
0000
0000
0000
0010
0000
0000
0000
,  // measure 49
0001
0100
0001
0000
1000
0010
1000
0000
,  // measure 50
0001
0000
0000
0100
0000
0000
0001
0000
0100
0000
0000
0000
0010
0000
0000
0000
,  // measure 51
1000
0001
0100
0000
0001
1000
0100
0000
,  // measure 52
0010
0000
0000
0100
0000
0000
0010
0000
0100
0000
0000
0000
0010
0000
0000
0000
,  // measure 53
0001
0010
0100
0000
1000
0010
0100
0000
,  // measure 54
0001
0000
0000
1000
0000
0000
0001
0000
0100
0000
0000
0000
0010
0000
1000
0000
,  // measure 55
0000
1001
0000
0000
0000
0000
0000
0000
,  // measure 56
0001
0000
0000
0001
0000
0000
0001
0000
1000
0000
0010
0000
1000
0000
0000
0000
,  // measure 57
0110
0000
0000
0000
;
