#VERSION:0.83;
#TITLE:DIORAMATIC MOMENT;
#SUBTITLE:;
#ARTIST:TERRA;
#TITLETRANSLIT:;
#SUBTITLETRANSLIT:;
#ARTISTTRANSLIT:;
#GENRE:;
#ORIGIN:;
#CREDIT:;
#BANNER:DIORAMATIC MOMENT.png;
#BACKGROUND:DIORAMATIC MOMENT-bg.png;
#PREVIEWVID:;
#JACKET:;
#CDIMAGE:;
#DISCIMAGE:;
#LYRICSPATH:;
#CDTITLE:;
#MUSIC:DIORAMATIC MOMENT.mp3;
#OFFSET:-1.620000;
#SAMPLESTART:56.020000;
#SAMPLELENGTH:12.800000;
#SELECTABLE:YES;
#BPMS:0.000=150.000;
#STOPS:;
#DELAYS:;
#WARPS:;
#TIMESIGNATURES:0.000=4=4;
#TICKCOUNTS:0.000=4;
#COMBOS:0.000=1;
#SPEEDS:0.000=1.000=0.000=0;
#SCROLLS:0.000=1.000;
#FAKES:;
#LABELS:0.000=Song Start;
#BGCHANGES:;
#KEYSOUNDS:;
#ATTACKS:
;

//---------------dance-single - Oni-91----------------
#NOTEDATA:;
#CHARTNAME:;
#STEPSTYPE:dance-single;
#DESCRIPTION:Oni-91;
#CHARTSTYLE:;
#DIFFICULTY:Hard;
#METER:8;
#RADARVALUES:0.505275,0.598286,0.307941,0.263950,0.334336,402.000000,367.000000,35.000000,30.000000,0.000000,0.000000,0.000000,0.000000,0.000000,0.505275,0.598286,0.307941,0.263950,0.334336,402.000000,367.000000,35.000000,30.000000,0.000000,0.000000,0.000000,0.000000,0.000000;
#CREDIT:Oni-91;
#NOTES:
// measure 0
2001
0000
0000
0000
,  // measure 1
3002
0000
0000
0000
,  // measure 2
0023
0000
0230
0000
,  // measure 3
2300
0000
0002
3003
,  // measure 4
1000
0000
0000
0010
0000
0000
0100
0000
0001
0000
0000
0010
0000
0000
0100
0000
,  // measure 5
0010
0000
0000
0001
0000
0000
0010
0000
0100
0000
0000
1000
0000
0000
0001
0000
,  // measure 6
0100
0000
0000
0000
0001
0000
1000
0100
1000
0000
0000
0001
0000
0000
0010
0000
,  // measure 7
0100
0011
2002
3003
,  // measure 8
1010
0000
0100
0000
1000
0100
0010
0001
,  // measure 9
2002
0000
0000
3003
,  // measure 10
1000
0000
0000
0100
0000
0000
1000
0000
0001
0000
0000
0100
0000
0000
0001
0000
,  // measure 11
0010
0000
0000
0100
0000
0000
0010
0000
0001
0000
0000
0000
1000
0000
0001
0000
,  // measure 12
0100
0000
0000
0100
0000
0000
0010
0000
1000
0000
0000
1000
0000
0000
0100
0000
,  // measure 13
0010
0000
0000
0010
0000
0000
0001
0000
1000
0000
0000
0000
0001
0000
1000
0001
,  // measure 14
1000
0000
0000
0100
0000
0000
0010
0000
0100
0000
0000
0010
0000
0000
0001
0000
,  // measure 15
1000
0000
0000
0010
0000
0000
0100
0000
0010
0000
0000
0000
1000
0000
0001
0000
,  // measure 16
0010
0000
0000
0100
0000
0000
0010
0000
0001
0000
0000
1000
0000
0000
0001
0000
,  // measure 17
0200
0000
0010
0010
0020
0000
0330
0000
,  // measure 18
1000
0000
0001
0100
0000
0000
0010
0000
1000
0000
0000
0001
0000
0000
1000
0000
,  // measure 19
0100
0000
0000
1000
0000
0000
0010
0000
0100
0000
0000
0001
0000
0000
1000
0000
,  // measure 20
0001
0000
0000
0000
1000
0000
0010
0000
0001
0000
0000
0010
0000
0000
1000
0000
,  // measure 21
0001
0000
0000
0010
0000
0000
0100
0000
0001
0000
0000
0000
0100
0000
1000
0000
,  // measure 22
0001
0000
0000
1000
0000
0000
0100
0000
1000
0000
0000
0001
0000
0000
0100
0000
,  // measure 23
0010
0000
0000
0100
0000
0000
0001
0000
0010
0000
0001
0000
1000
0000
0010
0000
,  // measure 24
0100
0000
0000
0000
0001
0000
0100
0000
1000
0000
0000
0100
0000
0000
0001
0000
,  // measure 25
1000
0100
0011
1001
,  // measure 26
0001
0000
0000
0100
0010
0000
1000
0000
0200
0000
0000
0000
0310
0000
0001
0000
,  // measure 27
1000
0000
0000
0100
0000
0000
0010
0000
0001
0000
0000
1000
0000
0000
0001
0000
,  // measure 28
0100
0000
0000
0010
0100
0000
0010
0000
1000
0000
0000
0001
1000
0000
0001
0000
,  // measure 29
0010
0000
0000
0000
0100
0000
0000
0000
0010
0000
0000
0001
0000
0000
1000
0000
,  // measure 30
0001
0000
0000
0100
0000
0000
0010
0000
1000
0000
0000
0100
0000
0000
0010
0000
,  // measure 31
0002
0010
1000
0100
,  // measure 32
1003
0001
0010
0100
1000
0010
0100
1001
,  // measure 33
0000
0110
1001
0101
,  // measure 34
1000
0000
0000
0100
0000
0000
1000
0000
0001
0000
0000
0100
0000
0000
0001
0000
,  // measure 35
0010
0000
0000
0100
0000
0000
0010
0000
0001
0000
0000
1000
0000
0000
0100
0000
,  // measure 36
0010
0000
0100
1000
0001
0000
1001
0000
,  // measure 37
1000
0000
0000
0010
0000
0000
0100
0000
0001
0000
0000
0000
0101
0000
0000
0000
,  // measure 38
1000
0000
0000
0100
0000
0000
1000
0000
0001
0000
0000
0010
0000
0000
0001
0000
,  // measure 39
1000
0000
0000
0010
0000
0000
1000
0000
0100
0000
0000
0010
0000
0000
0001
0000
,  // measure 40
0010
0000
0001
0100
1000
0100
0001
1000
,  // measure 41
0100
0000
0011
0000
1100
0000
1000
0001
,  // measure 42
1001
0000
0000
1000
0100
0000
0010
0000
0001
0000
0000
1000
0010
0000
0100
0000
,  // measure 43
0001
0000
0000
0000
1000
0000
0000
0001
1000
0000
0001
0000
0100
0010
0100
0010
,  // measure 44
0200
0000
0010
0000
0002
0000
0303
0001
,  // measure 45
2000
0010
0002
3003
,  // measure 46
0002
0000
0000
0000
0000
0000
0000
0000
0013
0000
0000
0001
0000
0000
1000
0000
,  // measure 47
0100
0000
0110
0000
0000
0000
0001
0000
1000
0000
0000
0000
0001
1000
0001
1000
,  // measure 48
0001
0000
1000
0010
0001
0010
0100
0001
,  // measure 49
0101
1010
1001
0001
,  // measure 50
1010
0000
0000
0010
0000
0000
0100
0000
0101
0000
0000
0001
0000
0000
0010
0000
,  // measure 51
0011
0000
0000
1100
0000
0000
1001
0000
2002
0000
0000
0000
0000
0000
0003
0000
,  // measure 52
0000
0001
0001
0002
,  // measure 53
3003
1001
0110
1001
,  // measure 54
0001
0000
0000
1000
0000
0000
0001
0000
0010
0000
0000
0100
0000
0000
0010
0000
,  // measure 55
0001
0000
0000
0001
0000
0000
1000
0000
0100
0000
0000
0100
0000
0000
0010
0000
,  // measure 56
0100
0000
0000
0000
1000
0000
0001
0100
0001
0000
0000
0000
1000
0000
0000
0000
,  // measure 57
0100
0000
0000
0010
0000
0000
0200
0000
0020
0000
0000
0000
0330
0000
0010
0000
,  // measure 58
0001
0000
0000
1000
0000
0000
0001
0000
0100
0000
0000
0010
0000
0000
0100
0000
,  // measure 59
0001
0000
0000
1000
0000
0000
0100
0000
0010
0000
0000
0001
0000
0000
1000
0000
,  // measure 60
0001
0000
0000
0000
1000
0000
0001
0100
0001
0000
0000
1000
0000
0000
0100
0000
,  // measure 61
0020
1000
0002
0033
,  // measure 62
1001
0000
0000
0000
0001
0000
1000
0010
1000
0000
0000
0001
0000
0000
0100
0000
,  // measure 63
0010
0000
0000
0100
0000
0000
0001
0000
2000
0000
0000
0000
0010
0000
0000
0000
,  // measure 64
0002
0000
0000
0000
3003
0000
0000
0000
0001
0000
0000
1000
0000
0000
0001
0000
,  // measure 65
0200
0000
1000
0000
0002
0000
0303
1001
,  // measure 66
1001
0000
0000
0000
0001
0000
0000
0000
1100
0000
0000
1000
0001
0000
0100
0000
,  // measure 67
1010
0000
0000
0000
1001
0000
0000
0001
0010
0000
0001
0000
1000
0001
1000
0001
,  // measure 68
1000
0000
0000
0000
;

//---------------dance-single - Oni-91----------------
#NOTEDATA:;
#CHARTNAME:;
#STEPSTYPE:dance-single;
#DESCRIPTION:Oni-91;
#CHARTSTYLE:;
#DIFFICULTY:Medium;
#METER:5;
#RADARVALUES:0.373300,0.418800,0.211160,0.360731,0.039592,297.000000,273.000000,24.000000,41.000000,0.000000,0.000000,0.000000,0.000000,0.000000,0.373300,0.418800,0.211160,0.360731,0.039592,297.000000,273.000000,24.000000,41.000000,0.000000,0.000000,0.000000,0.000000,0.000000;
#CREDIT:Oni-91;
#NOTES:
// measure 0
1002
0000
0000
0000
,  // measure 1
2003
0000
0000
0000
,  // measure 2
3200
0000
0010
0000
,  // measure 3
0320
0000
0200
0330
,  // measure 4
0001
0000
1000
0000
0010
0000
0100
0001
,  // measure 5
0010
0000
0100
0000
0010
0000
0001
1000
,  // measure 6
0001
0000
1000
0010
0100
0000
0001
0000
,  // measure 7
0020
0001
0130
0010
,  // measure 8
0001
0000
1000
0010
0100
0000
0001
0000
,  // measure 9
2002
0000
0000
3003
,  // measure 10
1000
0100
0010
0001
,  // measure 11
0100
0000
0010
0100
0010
0000
0000
0000
,  // measure 12
1000
0010
0100
0001
,  // measure 13
1000
0000
0001
1000
0001
0000
0000
0000
,  // measure 14
0010
0001
0100
0010
,  // measure 15
1000
0000
0001
1000
0100
0000
0010
0000
,  // measure 16
0100
0010
0001
0100
,  // measure 17
0020
0000
0000
1000
2000
0000
3030
0000
,  // measure 18
1000
0000
0100
1000
0001
0000
0100
0000
,  // measure 19
0010
0000
0100
0010
0100
0000
0001
0000
,  // measure 20
1000
0000
0001
0010
0001
0000
0100
0000
,  // measure 21
0010
0000
1000
0010
1000
0000
0001
0010
,  // measure 22
0100
0000
0010
0001
1000
0000
0001
1000
,  // measure 23
0010
0000
0100
0010
0100
0000
0001
0100
,  // measure 24
0010
0000
0100
0010
1000
0000
0001
1000
,  // measure 25
0002
0010
1000
0103
,  // measure 26
0001
0000
0100
0010
1000
0000
0001
1000
,  // measure 27
0100
0000
0010
0100
0010
0000
0001
0000
,  // measure 28
1000
0000
0000
1000
0000
0000
1000
0000
0001
0000
0000
0001
0000
0000
0001
0000
,  // measure 29
0200
0000
1000
0000
0010
0000
0301
0100
,  // measure 30
0001
0000
0000
0001
0000
0000
0001
0000
1000
0000
0000
1000
0000
0000
1000
0000
,  // measure 31
0001
0010
0100
1000
,  // measure 32
2002
0000
0000
0000
0000
0000
0000
3003
,  // measure 33
0000
1000
0001
1000
,  // measure 34
0001
0000
0010
0001
0100
0000
0001
1000
,  // measure 35
0100
0000
1000
0010
0100
0000
0010
0000
,  // measure 36
1001
0100
0011
0100
,  // measure 37
1000
0000
0000
0001
0000
0000
1000
0000
0002
0000
0000
0000
0003
0000
0000
0000
,  // measure 38
1000
0000
0010
0100
0001
0000
0100
0001
,  // measure 39
1000
0000
0100
1000
0001
0000
0010
0000
,  // measure 40
1100
0010
1001
0100
,  // measure 41
1010
0101
2002
3003
,  // measure 42
1000
0000
0000
0100
0000
0000
1000
0000
0001
0000
0000
0100
0000
0000
0002
0000
,  // measure 43
2000
0000
3003
0000
,  // measure 44
2000
0000
0100
0000
,  // measure 45
0001
0001
0002
3003
,  // measure 46
0002
0000
0100
0000
,  // measure 47
2000
0000
3003
0110
,  // measure 48
1001
0000
0100
0000
0011
0000
0100
0010
,  // measure 49
0001
1000
0010
1000
,  // measure 50
0101
0010
1001
0100
,  // measure 51
0010
0000
0000
0100
0000
0000
0010
0000
0200
0000
0000
0000
0000
0000
0000
0000
,  // measure 52
0000
0010
0010
0320
,  // measure 53
0000
0100
0100
0130
,  // measure 54
0001
0000
0100
0001
0100
0000
0010
1000
,  // measure 55
0010
0000
1000
0001
1000
0000
0010
0000
,  // measure 56
1001
0100
1001
0010
,  // measure 57
0001
0000
0000
1000
0000
0000
0001
0000
0200
0000
0000
0000
0300
0000
0000
0000
,  // measure 58
0001
0000
0010
0001
0100
0000
0010
1000
,  // measure 59
0100
0000
1000
0001
1000
0000
0010
0000
,  // measure 60
2002
0000
3003
0000
0001
0000
0010
0001
,  // measure 61
0200
1000
0002
0303
,  // measure 62
2020
0000
3030
0000
1000
0000
0001
0010
,  // measure 63
0200
0001
2000
3300
,  // measure 64
2002
0000
0000
3000
,  // measure 65
0200
0000
0000
0303
,  // measure 66
2002
3003
0220
0330
,  // measure 67
1010
0000
0101
0000
0001
1000
0001
1000
,  // measure 68
0100
0000
0000
0000
;

//---------------dance-single - Oni-91----------------
#NOTEDATA:;
#CHARTNAME:;
#STEPSTYPE:dance-single;
#DESCRIPTION:Oni-91;
#CHARTSTYLE:;
#DIFFICULTY:Easy;
#METER:4;
#RADARVALUES:0.279033,0.418800,0.219958,0.237555,0.000000,222.000000,197.000000,25.000000,27.000000,0.000000,0.000000,0.000000,0.000000,0.000000,0.279033,0.418800,0.219958,0.237555,0.000000,222.000000,197.000000,25.000000,27.000000,0.000000,0.000000,0.000000,0.000000,0.000000;
#CREDIT:Oni-91;
#NOTES:
// measure 0
2000
0000
0000
0000
,  // measure 1
3200
0000
0000
0000
,  // measure 2
2300
0000
0010
0000
,  // measure 3
0001
0000
0200
3300
,  // measure 4
1002
0000
0100
0000
,  // measure 5
0010
0000
1000
1000
,  // measure 6
1003
0000
0001
1000
,  // measure 7
0100
0010
0100
0000
,  // measure 8
0110
0000
0001
1000
,  // measure 9
2002
0000
3003
0000
,  // measure 10
1000
0000
0100
0000
,  // measure 11
1000
0001
1000
0000
,  // measure 12
0001
0000
0100
0000
,  // measure 13
0001
1000
0001
0000
,  // measure 14
1000
0000
0100
0000
,  // measure 15
0010
0001
0010
0000
,  // measure 16
0001
0000
0100
0000
,  // measure 17
0010
1000
0010
0000
,  // measure 18
1000
0001
1000
0000
,  // measure 19
0010
0100
0001
1000
,  // measure 20
0100
0000
0010
0000
,  // measure 21
0100
1000
0001
0000
,  // measure 22
1000
0000
0001
0000
,  // measure 23
0100
0010
0100
0000
,  // measure 24
0001
0001
0010
0001
,  // measure 25
1000
0100
0010
0100
,  // measure 26
2001
0010
0002
3003
,  // measure 27
0002
0100
2000
3003
,  // measure 28
1000
0100
0001
0100
,  // measure 29
1000
0000
0001
0100
,  // measure 30
0010
0100
0001
0000
,  // measure 31
1000
0001
0100
0010
,  // measure 32
0220
0000
0000
0000
0000
0000
0000
0330
,  // measure 33
0000
0100
0100
0100
,  // measure 34
0001
0100
1000
0100
,  // measure 35
0010
1000
0100
0010
,  // measure 36
0110
0000
1001
0000
,  // measure 37
1000
0100
0010
0000
,  // measure 38
0001
1000
0010
1000
,  // measure 39
0100
1000
0001
1000
,  // measure 40
1001
0000
0001
0010
,  // measure 41
0110
1001
0220
0330
,  // measure 42
1001
0001
0101
0100
,  // measure 43
0220
0000
0330
0000
,  // measure 44
1002
0000
0010
0000
,  // measure 45
0100
0100
0200
0303
,  // measure 46
2000
0000
0010
0000
,  // measure 47
0002
0000
0000
3003
,  // measure 48
0110
0100
0001
1000
,  // measure 49
0001
0001
0002
0003
,  // measure 50
1001
1000
1001
0001
,  // measure 51
1001
0110
2002
0000
,  // measure 52
3003
0001
0001
0002
,  // measure 53
0003
1000
1000
2000
,  // measure 54
3001
0100
0001
0100
,  // measure 55
0010
1000
0010
1000
,  // measure 56
0001
0000
1000
0100
,  // measure 57
0010
0001
0100
0000
,  // measure 58
0010
1000
0100
1000
,  // measure 59
0010
0100
0001
0010
,  // measure 60
0110
0000
0010
0001
,  // measure 61
1000
0001
0100
0000
,  // measure 62
1001
0000
0010
1000
,  // measure 63
0001
1000
0100
0000
,  // measure 64
0120
0000
0001
0000
,  // measure 65
0100
0000
0001
0000
,  // measure 66
0130
0010
0001
0100
,  // measure 67
0010
1000
0001
1000
,  // measure 68
1001
0000
0000
0000
;

//---------------dance-single - Oni-91----------------
#NOTEDATA:;
#CHARTNAME:;
#STEPSTYPE:dance-single;
#DESCRIPTION:Oni-91;
#CHARTSTYLE:;
#DIFFICULTY:Beginner;
#METER:1;
#RADARVALUES:0.182251,0.209400,0.079185,0.052790,0.000000,145.000000,136.000000,9.000000,6.000000,0.000000,0.000000,0.000000,0.000000,0.000000,0.182251,0.209400,0.079185,0.052790,0.000000,145.000000,136.000000,9.000000,6.000000,0.000000,0.000000,0.000000,0.000000,0.000000;
#CREDIT:Oni-91;
#NOTES:
// measure 0
1000
0000
0000
0000
,  // measure 1
0001
0000
0000
0000
,  // measure 2
0100
0000
0000
0000
,  // measure 3
0010
0000
0100
0000
,  // measure 4
0010
0000
0000
0000
,  // measure 5
1000
0000
0000
0000
,  // measure 6
0001
0000
0010
0000
,  // measure 7
0001
0000
0000
0000
,  // measure 8
1000
0000
0010
0000
,  // measure 9
1001
0000
0000
0000
,  // measure 10
0100
0000
0100
0000
,  // measure 11
0001
0001
0001
0000
,  // measure 12
1000
0000
1000
0000
,  // measure 13
0100
0100
0100
0000
,  // measure 14
1000
0000
0001
0000
,  // measure 15
0010
0010
0010
0000
,  // measure 16
0001
0000
1000
0000
,  // measure 17
1001
0000
0000
0000
,  // measure 18
0001
0000
0100
0000
,  // measure 19
0010
0000
1000
0000
,  // measure 20
0100
0000
0010
0000
,  // measure 21
0100
0100
0100
0000
,  // measure 22
0010
0000
0001
0000
,  // measure 23
0100
0100
0100
0000
,  // measure 24
0010
0000
1000
0000
,  // measure 25
0001
0001
0001
0001
,  // measure 26
0001
0000
0000
0000
,  // measure 27
1001
0000
0000
0000
,  // measure 28
1000
0000
0001
0000
,  // measure 29
1001
0000
0000
0000
,  // measure 30
1000
0000
0010
0000
,  // measure 31
0100
0000
0001
0000
,  // measure 32
0010
0000
0100
0100
,  // measure 33
0000
0000
0000
0000
,  // measure 34
1001
0000
0001
0000
,  // measure 35
0100
0000
0010
0010
,  // measure 36
0010
0000
1000
0000
,  // measure 37
0001
0001
0001
0000
,  // measure 38
1000
0000
0100
0000
,  // measure 39
0010
0000
0100
0100
,  // measure 40
0100
0000
1000
0000
,  // measure 41
0010
0010
0010
0000
,  // measure 42
0100
0000
0001
0000
,  // measure 43
2002
0000
3003
0000
,  // measure 44
0110
0000
0100
0000
,  // measure 45
0001
0001
0001
0000
,  // measure 46
1000
0000
0001
0000
,  // measure 47
1000
0000
1000
1000
,  // measure 48
1000
0000
0001
0000
,  // measure 49
0010
0010
0010
0000
,  // measure 50
0100
0000
0010
0000
,  // measure 51
0001
0000
2002
0000
,  // measure 52
3003
0000
0000
0000
,  // measure 53
0000
0000
0000
0000
,  // measure 54
0001
0000
0100
0000
,  // measure 55
0001
0000
1000
0000
,  // measure 56
0100
0000
0010
0000
,  // measure 57
0100
0100
0100
0000
,  // measure 58
0010
0000
0001
0000
,  // measure 59
1000
0000
0010
0000
,  // measure 60
0100
0000
0001
0000
,  // measure 61
1000
1000
1000
0000
,  // measure 62
0001
0000
1000
0000
,  // measure 63
0100
0100
0100
0000
,  // measure 64
2002
0000
0000
0000
,  // measure 65
3003
0000
0000
0000
,  // measure 66
1000
0000
0001
0000
,  // measure 67
0100
0100
0100
0100
,  // measure 68
0100
0000
0000
0000
;
