#TITLE:Cytokinesis;
#SUBTITLE:;
#ARTIST:Hommarju;
#TITLETRANSLIT:;
#SUBTITLETRANSLIT:;
#ARTISTTRANSLIT:;
#GENRE:;
#CREDIT:;
#BANNER:Cytokinesis.png;
#BACKGROUND:Cytokinesis-bg.png;
#LYRICSPATH:;
#CDTITLE:;
#MUSIC:Cytokinesis.mp3;
#OFFSET:-0.020000;
#SAMPLESTART:15.930000;
#SAMPLELENGTH:12.470000;
#SELECTABLE:YES;
#DISPLAYBPM:154.000000:444.000000;
#BPMS:0.000000=111.000000
,24.000000=173.000000
,28.000000=308.000000
,36.000000=154.000000
,68.000000=150.000000
,70.000000=155.000000
,76.000000=160.000000
,78.000000=170.000000
,82.000000=175.000000
,84.000000=180.000000
,88.000000=190.000000
,92.000000=200.000000
,96.000000=360.000000
,104.000000=182.000000
,216.000000=191.000000
,220.000000=204.000000
,224.000000=212.000000
,228.000000=225.000000
,232.000000=233.000000
,236.000000=249.000000
,240.000000=257.000000
,244.000000=266.000000
,248.000000=281.000000
,252.000000=310.000000
,256.000000=330.000000
,260.000000=346.000000
,264.000000=358.000000
,268.000000=389.998993
,272.000000=424.998993
,280.000000=433.998993
,288.000000=453.998993
,292.000000=469.998993
,296.000000=509.997986
,304.000000=891.997986
,320.000000=443.998993
;
#STOPS:
;
#BGCHANGES:;
#KEYSOUNDS:;
#ATTACKS:;

//---------------dance-single - ----------------
#NOTES:
     dance-single:
     :
     Hard:
     10:
     0.724145,1.354857,0.450768,0.476284,0.182859,596.000000,543.000000,53.000000,56.000000,0.000000,0.000000,0.724145,1.354857,0.450768,0.476284,0.182859,596.000000,543.000000,53.000000,56.000000,0.000000,0.000000:
// measure 0
0000
0000
0000
0000
,  // measure 1
0000
0000
0000
0000
,  // measure 2
0000
0000
0000
0000
,  // measure 3
0000
0000
0000
0000
,  // measure 4
2002
0000
0000
0000
,  // measure 5
0000
0000
0000
0000
,  // measure 6
0000
0000
0000
0000
,  // measure 7
0000
0000
0000
0000
,  // measure 8
0000
0000
0000
3003
,  // measure 9
1000
0000
0010
0000
0100
0000
0001
0000
0000
0000
1000
0100
0010
0000
0100
0000
,  // measure 10
1000
0000
0001
0000
0010
0000
0001
0000
0000
0000
1000
0001
1000
0001
0100
0000
,  // measure 11
0010
0000
1000
0000
0100
0000
0010
0000
0000
0000
0001
0100
0010
0000
1000
0000
,  // measure 12
2002
0000
3003
0000
1001
1100
0011
0101
,  // measure 13
0010
0000
1000
0000
0100
0000
1000
0000
0001
0000
0010
0001
0100
0000
0010
0000
,  // measure 14
1000
0000
0001
0000
1000
0000
0100
0000
0010
0000
0001
0100
1000
0100
0001
0000
,  // measure 15
1000
0000
0001
0000
0100
0000
0010
0000
1000
0000
0001
0010
0100
0000
0010
0000
,  // measure 16
2002
0000
3003
0000
0011
1100
1010
0101
,  // measure 17
2002
3000
0103
0000
,  // measure 18
2200
0000
0000
0000
0300
0000
0000
0000
3001
0000
0001
0010
0001
0000
1000
0000
,  // measure 19
0220
0300
1000
0130
,  // measure 20
2002
0000
3003
0000
0001
0100
0010
1000
,  // measure 21
0010
1000
0010
0001
0010
1000
0100
0001
,  // measure 22
0100
1000
0100
0010
0001
0100
1000
0100
,  // measure 23
0001
0000
1000
0001
1000
0000
0001
0010
0001
0000
1000
0100
1000
0000
0001
0000
,  // measure 24
2002
0000
0000
0000
,  // measure 25
3003
0000
0000
0000
,  // measure 26
0100
0000
0001
0000
1000
0000
0100
0020
0000
0000
0031
0000
0010
0000
0001
0000
,  // measure 27
0100
0000
0001
0000
1000
0000
0100
0010
0000
0001
1000
0000
0001
0000
0100
0000
,  // measure 28
0010
0000
0100
0000
1000
0000
0100
0002
0000
0000
1003
0000
0100
0000
0010
0000
,  // measure 29
0100
0000
1000
0000
0001
0000
0010
0001
0000
1000
0010
0000
0100
0000
1000
0000
,  // measure 30
0100
0000
0010
0000
1000
0000
0001
0010
0100
0000
1000
0010
0100
0000
0001
0000
,  // measure 31
1000
0000
0001
0000
0100
0000
0010
1000
0000
1000
0100
0010
0001
1000
0001
0000
,  // measure 32
1000
0000
0010
0000
0100
0001
0010
0000
0100
0000
0010
0001
1000
0001
0100
0000
,  // measure 33
0010
0000
0100
0000
0001
0000
1000
0010
0000
0100
1000
0000
0100
0000
0001
0000
,  // measure 34
1000
0000
0100
0000
0020
0000
0000
0100
0000
0100
0100
0000
0100
0000
0130
0000
,  // measure 35
0010
0000
0001
0000
0200
0000
0000
0010
0000
0010
0010
0000
0010
0000
0310
0000
,  // measure 36
0100
0000
0001
0000
1000
0000
0100
0010
0001
0000
0100
0010
1000
0000
0001
0000
,  // measure 37
1000
0001
1000
0001
1000
0001
1000
0001
0100
0010
0100
0010
1000
0001
1000
0200
,  // measure 38
0020
0000
0000
0330
,  // measure 39
0000
0010
0001
0000
1000
0100
0000
1000
,  // measure 40
0001
0100
0010
0000
0100
0001
0000
1000
,  // measure 41
0000
0001
0010
0100
0010
0001
0000
1000
,  // measure 42
1001
0001
0100
0000
0010
1000
0000
0100
,  // measure 43
0000
1000
0001
0010
0100
0010
0000
0001
,  // measure 44
0100
0010
0100
0000
0001
1000
0000
0001
,  // measure 45
1000
0100
0010
0000
0001
1000
0000
0001
,  // measure 46
0101
0000
0001
1000
1100
0100
0000
0010
,  // measure 47
0001
1000
0001
0000
1001
1000
0000
0010
,  // measure 48
0100
0001
0010
0000
0110
0100
0000
0010
,  // measure 49
0001
1000
0010
1000
1001
0001
0101
0000
,  // measure 50
1010
0000
0001
0000
1100
0100
0000
0010
,  // measure 51
0001
0100
0001
0000
0101
0100
0000
0010
,  // measure 52
1000
0001
1000
0000
1001
0001
0000
0010
,  // measure 53
0100
0010
0001
1000
1001
0001
0011
0000
,  // measure 54
2002
3003
1001
0000
,  // measure 55
0220
0330
0110
0000
,  // measure 56
2020
3030
1010
0000
,  // measure 57
0202
0303
0101
0000
,  // measure 58
0022
0033
1100
0000
,  // measure 59
2020
3030
0101
0000
,  // measure 60
0220
0330
1001
0000
,  // measure 61
2002
3003
0110
0000
,  // measure 62
1000
0100
0010
0100
,  // measure 63
1000
0001
0100
0010
,  // measure 64
0100
0001
1000
0100
,  // measure 65
0010
0001
0100
0010
,  // measure 66
1000
0010
1000
0010
,  // measure 67
0100
0001
0100
0001
,  // measure 68
0010
0001
0010
0001
,  // measure 69
1000
0100
1000
0100
,  // measure 70
1000
0001
0100
0001
,  // measure 71
1000
0001
0010
0001
,  // measure 72
1000
0010
0100
0010
,  // measure 73
0001
0010
1000
0010
,  // measure 74
0220
0000
0000
0000
,  // measure 75
0000
0000
0330
0000
,  // measure 76
2002
0000
0000
0000
,  // measure 77
0000
0000
0000
0000
,  // measure 78
0000
0000
0000
0000
,  // measure 79
3003
0000
0000
0000
,  // measure 80
1000
0100
1000
0100
,  // measure 81
0010
0001
0010
0001
,  // measure 82
1000
0010
0100
0001
,  // measure 83
0010
0000
0100
0000
0010
0000
0001
1000
,  // measure 84
0001
1000
0010
0100
,  // measure 85
0001
0100
0010
1000
,  // measure 86
0001
0000
1000
0000
0001
0100
0001
0100
,  // measure 87
0001
0000
1000
0000
0001
1000
0001
1000
,  // measure 88
0001
1000
0001
0100
,  // measure 89
0001
0010
0001
0100
,  // measure 90
0010
1000
0010
1000
,  // measure 91
0001
0000
1000
0000
0100
0000
0010
0001
,  // measure 92
0010
0001
1000
0010
,  // measure 93
0100
0001
1000
0100
,  // measure 94
1000
0000
0001
0000
1000
0001
1000
0001
,  // measure 95
0100
2020
3030
2002
,  // measure 96
3003
0000
1000
0000
0001
1000
0001
0000
,  // measure 97
0100
0000
0010
0000
1000
0010
1000
0000
,  // measure 98
0001
0000
0010
0000
0100
0010
0100
0000
,  // measure 99
0010
0000
0001
0000
1000
0000
0001
0100
,  // measure 100
0010
0000
1000
0000
0001
0010
0001
0000
,  // measure 101
1000
0000
0010
0000
0100
0010
0100
0000
,  // measure 102
0010
0000
1000
0001
1000
0000
0001
0000
,  // measure 103
1000
0100
0010
0100
2000
0000
3000
0000
,  // measure 104
0001
0000
0100
0010
1000
0000
0001
0000
,  // measure 105
1000
0000
0001
0000
0001
0010
0001
1000
,  // measure 106
0100
0000
0010
0000
0010
0000
0001
0100
,  // measure 107
0010
1000
0100
0000
1000
0000
0001
0100
,  // measure 108
0010
1000
0100
1000
,  // measure 109
0001
0010
0100
0010
,  // measure 110
0001
1000
0001
1000
0001
1000
0001
0100
,  // measure 111
0010
0100
0010
1000
0001
1000
0100
0010
,  // measure 112
0002
0000
0003
0000
,  // measure 113
2200
0000
3300
0000
,  // measure 114
2020
0000
3030
0000
,  // measure 115
0202
0000
0303
0000
,  // measure 116
2002
0000
0000
0000
,  // measure 117
0000
0000
0000
0000
,  // measure 118
3003
0000
0000
0000
;

//---------------dance-single - Oni-91----------------
#NOTES:
     dance-single:
     :
     Medium:
     9:
     0.524884,0.903238,0.433758,0.501799,0.046778,432.000000,381.000000,51.000000,59.000000,0.000000,0.000000,0.524884,0.903238,0.433758,0.501799,0.046778,432.000000,381.000000,51.000000,59.000000,0.000000,0.000000:
// measure 0
0000
0000
0000
0000
,  // measure 1
0000
0000
0000
0000
,  // measure 2
0000
0000
0000
0000
,  // measure 3
0000
0000
0000
0000
,  // measure 4
2002
0000
0000
0000
,  // measure 5
0000
0000
0000
0000
,  // measure 6
0000
0000
0000
0000
,  // measure 7
3003
0000
0000
0000
,  // measure 8
0000
0000
0000
0000
,  // measure 9
0001
0100
0001
2000
0000
3100
0010
0100
,  // measure 10
1000
0001
0100
0002
0000
1003
0010
0100
,  // measure 11
0001
0010
0100
0020
0000
0031
0100
0010
,  // measure 12
2002
0000
3003
0000
0001
0100
0001
0100
,  // measure 13
0010
1000
0100
2000
0000
3001
0010
0001
,  // measure 14
1000
0100
0010
0002
0000
0103
0010
1000
,  // measure 15
0100
1000
0001
0200
0000
1300
0100
0010
,  // measure 16
2002
0000
3003
0000
0001
1000
0001
1000
,  // measure 17
2002
3003
1001
0000
,  // measure 18
0220
0000
0330
0000
0100
0010
1000
0100
,  // measure 19
0020
0030
2002
3003
,  // measure 20
0220
0000
0330
0000
0001
1000
0001
1000
,  // measure 21
0001
0100
0010
0000
1000
0100
0010
0000
,  // measure 22
1000
0001
0010
0000
0001
1000
0010
0000
,  // measure 23
1000
0100
0010
0001
0100
0010
0100
0001
,  // measure 24
2000
0000
0000
0000
,  // measure 25
3000
0000
0000
0000
,  // measure 26
0001
0000
0010
0000
0001
0000
0000
1000
0000
0000
0001
0000
0100
0000
0001
0000
,  // measure 27
1000
0000
0010
0000
1000
0000
0000
0001
0000
0000
1000
0000
0100
0000
1000
0000
,  // measure 28
0001
0000
0100
0000
0010
0000
0000
1000
0000
0000
0001
0000
0010
0000
0100
0000
,  // measure 29
1000
0000
0001
0000
1000
0000
0010
0100
0000
0010
0100
0000
0001
0000
1000
0000
,  // measure 30
0001
0010
0100
1000
1000
0010
0010
0100
,  // measure 31
0001
0000
1000
0000
0100
0000
0000
1000
0000
0000
0001
0000
0100
0000
0010
0000
,  // measure 32
1000
0010
0001
0010
1000
0001
0010
0100
,  // measure 33
0010
0000
0001
0000
1000
0000
0000
0100
0000
0000
1000
0000
0001
0000
0100
0000
,  // measure 34
0010
0000
1000
0000
0010
0000
0000
0100
0000
0001
0100
0000
0001
0000
1000
0000
,  // measure 35
0001
0000
0010
0000
0001
0000
0000
1000
0000
0100
1000
0000
0001
0000
1000
0000
,  // measure 36
0010
0100
0010
1000
0001
0010
0001
0100
,  // measure 37
0001
0010
0100
1000
0001
0100
0010
1000
,  // measure 38
2002
0000
0000
0000
,  // measure 39
0000
0000
3003
0000
,  // measure 40
0001
0000
0000
0100
0000
0000
0001
0000
,  // measure 41
1000
0000
0000
0100
0000
0000
1000
0000
,  // measure 42
1001
0000
0000
0001
0000
0000
0100
0000
,  // measure 43
0010
0000
0000
1000
0000
0000
0100
0000
,  // measure 44
0010
0000
0000
0001
0000
0000
1000
0000
,  // measure 45
0001
0000
0000
1000
0000
0000
0100
0000
,  // measure 46
0010
0000
0001
0000
1001
0000
0000
1000
,  // measure 47
0010
0000
0100
0000
0101
0000
0001
0010
,  // measure 48
0100
0000
0000
0000
1001
0000
0000
1000
,  // measure 49
0001
0000
0100
0000
1010
0000
0100
0001
,  // measure 50
0010
0000
0001
0000
1100
0100
1000
0000
,  // measure 51
0010
0000
0100
0000
0101
0001
1000
0000
,  // measure 52
0001
0000
0010
0000
0110
0010
0001
0000
,  // measure 53
1000
0010
0100
0000
0110
0100
0001
0000
,  // measure 54
2002
0000
3003
0000
,  // measure 55
0220
0000
0330
0000
,  // measure 56
0202
0000
0303
0000
,  // measure 57
2020
0000
3030
0000
,  // measure 58
2200
0000
3300
0000
,  // measure 59
0022
0000
0033
0000
,  // measure 60
0220
0000
0330
0000
,  // measure 61
2002
0000
3003
0000
,  // measure 62
1001
0000
1001
0000
,  // measure 63
0011
0000
0011
0000
,  // measure 64
1100
0000
1100
0000
,  // measure 65
1010
0000
0101
0000
,  // measure 66
0011
0000
0110
0000
,  // measure 67
1100
0000
0110
0000
,  // measure 68
1001
0000
1010
0000
,  // measure 69
0101
0000
0011
0000
,  // measure 70
2002
0000
0000
0000
,  // measure 71
0000
0000
0000
0000
,  // measure 72
0000
0000
0000
0000
,  // measure 73
3003
0000
0000
0000
,  // measure 74
0220
0000
0000
0000
,  // measure 75
0330
0000
0000
0000
,  // measure 76
2002
0000
0000
0000
,  // measure 77
0000
0000
0000
0000
,  // measure 78
0000
0000
0000
0000
,  // measure 79
3003
0000
0000
0000
,  // measure 80
1000
0100
1000
0100
,  // measure 81
0010
0001
0010
0000
,  // measure 82
0001
0100
0001
0100
,  // measure 83
0010
1000
0010
0000
,  // measure 84
1000
0001
1000
0001
,  // measure 85
0100
0010
0100
0000
,  // measure 86
0001
0010
0100
0000
,  // measure 87
0010
0001
0100
0000
,  // measure 88
0010
0100
0001
0100
,  // measure 89
0010
1000
0100
0000
,  // measure 90
1000
0100
0010
0100
,  // measure 91
1000
0001
0100
0000
,  // measure 92
0001
1000
0100
0000
,  // measure 93
1000
0001
0010
0000
,  // measure 94
0100
0010
0100
1000
,  // measure 95
0001
1000
0000
2002
,  // measure 96
3003
1000
0001
0100
,  // measure 97
0001
0100
0010
1000
,  // measure 98
0100
0010
0100
1000
,  // measure 99
0001
0000
1000
0100
,  // measure 100
0010
0001
0100
0010
,  // measure 101
0100
1000
0100
0010
,  // measure 102
1000
0001
0010
0001
,  // measure 103
0200
0000
0301
0000
,  // measure 104
1000
0100
0010
0001
,  // measure 105
0100
0001
0100
0000
,  // measure 106
0001
0100
0010
1000
,  // measure 107
0100
1000
0100
0000
,  // measure 108
1000
0001
0100
0010
,  // measure 109
1000
0100
0010
0001
,  // measure 110
1000
1000
0001
0001
,  // measure 111
0100
0100
0010
0010
,  // measure 112
2002
0000
3003
0000
,  // measure 113
0220
0000
0330
0000
,  // measure 114
2020
0000
3030
0000
,  // measure 115
0202
0000
0303
0000
,  // measure 116
2002
0000
0000
0000
,  // measure 117
0000
0000
0000
0000
,  // measure 118
3003
0000
0000
0000
;

//---------------dance-single - Oni-91----------------
#NOTES:
     dance-single:
     :
     Easy:
     7:
     0.340203,0.652338,0.238142,0.425253,0.000000,280.000000,252.000000,28.000000,50.000000,0.000000,0.000000,0.340203,0.652338,0.238142,0.425253,0.000000,280.000000,252.000000,28.000000,50.000000,0.000000,0.000000:
// measure 0
0000
0000
0000
0000
,  // measure 1
0000
0000
0000
0000
,  // measure 2
0000
0000
0000
0000
,  // measure 3
0000
0000
0000
0000
,  // measure 4
0200
0000
0000
0000
,  // measure 5
0000
0000
0000
0000
,  // measure 6
0000
0000
0000
0000
,  // measure 7
0300
0000
0000
0000
,  // measure 8
0000
0000
0000
0000
,  // measure 9
0001
0100
0001
1000
,  // measure 10
0100
0000
1000
0000
0001
0000
1000
0001
,  // measure 11
1000
0001
0100
0010
,  // measure 12
2002
3003
0110
1001
,  // measure 13
0010
0100
0001
0010
,  // measure 14
0100
0000
0010
0000
0001
0000
1000
0100
,  // measure 15
1000
0001
0100
0010
,  // measure 16
0220
0000
0330
0000
0001
1000
0001
1000
,  // measure 17
0200
0300
0110
0000
,  // measure 18
0002
0003
1001
1000
,  // measure 19
2002
3003
0220
0330
,  // measure 20
2002
3003
0010
0100
,  // measure 21
0110
0010
1000
0100
,  // measure 22
0010
0001
1000
0001
,  // measure 23
1000
0010
0100
0010
,  // measure 24
0200
0000
0000
0000
,  // measure 25
0300
0000
0000
0000
,  // measure 26
0001
1000
0001
0000
,  // measure 27
0010
0001
0100
0010
,  // measure 28
1000
0100
1000
0000
,  // measure 29
0001
0001
1000
1000
,  // measure 30
0010
0100
0010
0000
,  // measure 31
0100
0001
0010
0100
,  // measure 32
0010
0001
1000
0000
,  // measure 33
0001
0100
0001
1000
,  // measure 34
0100
0010
0100
0000
0220
0000
0330
0000
,  // measure 35
0001
1000
0001
0000
2002
0000
3003
0000
,  // measure 36
1000
0010
1000
0000
0001
0000
0100
0000
,  // measure 37
0001
0010
0001
0000
1000
0100
1000
0000
,  // measure 38
2002
0000
0000
0000
,  // measure 39
3003
0000
0000
0000
,  // measure 40
1000
0000
0001
0000
,  // measure 41
0100
0000
0010
0000
,  // measure 42
0110
0000
0100
0000
,  // measure 43
0010
0000
1000
0000
,  // measure 44
0100
0000
0010
0000
,  // measure 45
0001
0000
1000
0000
,  // measure 46
2002
0000
3000
0000
1003
0000
0000
1000
,  // measure 47
0100
0000
0010
0000
0001
0000
0000
0001
,  // measure 48
1000
0000
0000
0000
0101
0000
0000
0100
,  // measure 49
0010
1000
0001
1000
,  // measure 50
1001
0000
0000
0000
0001
0000
0000
0001
,  // measure 51
0100
0010
1000
0001
,  // measure 52
1000
0000
0000
0000
0001
0000
0000
1000
,  // measure 53
0010
0100
0001
1000
,  // measure 54
0220
0000
0330
0000
,  // measure 55
2002
0000
3003
0000
,  // measure 56
0220
0000
0330
0000
,  // measure 57
2002
0000
3003
0000
,  // measure 58
2020
0000
3030
0000
,  // measure 59
0202
0000
0303
0000
,  // measure 60
0022
0000
0033
0000
,  // measure 61
2200
0000
3300
0000
,  // measure 62
1000
0000
1000
0000
,  // measure 63
0001
0000
0001
0000
,  // measure 64
0100
0000
0100
0000
,  // measure 65
0010
0000
0010
0000
,  // measure 66
1000
0000
0001
0000
,  // measure 67
1000
0000
0100
0000
,  // measure 68
0010
0000
0100
0000
,  // measure 69
0010
0000
0100
0000
,  // measure 70
0020
0000
0000
0000
,  // measure 71
0000
0000
0000
0000
,  // measure 72
0000
0000
0000
0000
,  // measure 73
0030
0000
0000
0000
,  // measure 74
0200
0000
0000
0000
,  // measure 75
0300
0000
0000
0000
,  // measure 76
2002
0000
0000
0000
,  // measure 77
0000
0000
0000
0000
,  // measure 78
0000
0000
0000
0000
,  // measure 79
3003
0000
0000
0000
,  // measure 80
1000
0000
0001
0000
,  // measure 81
0100
0000
0000
0000
,  // measure 82
0001
0000
1000
0000
,  // measure 83
0001
0000
0010
0000
,  // measure 84
0100
0000
0010
0000
,  // measure 85
0001
0000
0000
0000
,  // measure 86
1000
0000
0010
0000
,  // measure 87
0100
0000
0001
0000
,  // measure 88
0100
0000
0010
0000
,  // measure 89
1000
0000
0000
0000
,  // measure 90
0001
0000
1000
0000
,  // measure 91
0100
0000
0010
0000
,  // measure 92
0001
0000
1000
0000
,  // measure 93
0010
0000
1000
0000
,  // measure 94
0100
0000
0010
0000
,  // measure 95
0100
0010
0000
0220
,  // measure 96
0330
1000
0001
0000
,  // measure 97
1000
0000
0010
0100
,  // measure 98
0010
0000
0100
0000
,  // measure 99
0001
0000
1000
0100
,  // measure 100
1000
0000
0001
0000
,  // measure 101
0010
0000
0100
0010
,  // measure 102
0001
0000
0100
0000
,  // measure 103
0010
0000
1000
0010
,  // measure 104
0100
0000
0001
0000
,  // measure 105
1000
0000
0100
1000
,  // measure 106
0100
0000
0010
0000
,  // measure 107
0001
0000
0100
0001
,  // measure 108
0100
0000
0010
1000
,  // measure 109
0010
0000
1000
0001
,  // measure 110
1000
0001
1000
0001
,  // measure 111
0100
0010
0100
0010
,  // measure 112
0200
0000
0300
0000
,  // measure 113
0020
0000
0030
0000
,  // measure 114
2000
0000
3000
0000
,  // measure 115
0002
0000
0003
0000
,  // measure 116
2002
0000
0000
0000
,  // measure 117
0000
0000
0000
0000
,  // measure 118
3003
0000
0000
0000
;

//---------------dance-single - Oni-91----------------
#NOTES:
     dance-single:
     :
     Beginner:
     4:
     0.222347,0.451619,0.280667,0.076546,0.000000,183.000000,150.000000,33.000000,9.000000,0.000000,0.000000,0.222347,0.451619,0.280667,0.076546,0.000000,183.000000,150.000000,33.000000,9.000000,0.000000,0.000000:
// measure 0
0000
0000
0000
0000
,  // measure 1
0000
0000
0000
0000
,  // measure 2
0000
0000
0000
0000
,  // measure 3
0000
0000
0000
0000
,  // measure 4
1001
0000
0000
0000
,  // measure 5
0000
0000
0000
0000
,  // measure 6
0000
0000
0000
0000
,  // measure 7
0000
0000
0000
0000
,  // measure 8
0000
0000
0000
0000
,  // measure 9
1001
0000
0001
0000
,  // measure 10
0100
0000
0001
0001
,  // measure 11
0001
0000
1000
0000
,  // measure 12
0110
0000
0100
0010
,  // measure 13
0100
0000
0010
0000
,  // measure 14
0001
0000
1000
1000
,  // measure 15
1000
0000
0001
0000
,  // measure 16
0110
0000
0001
1000
,  // measure 17
1001
0000
0001
0000
,  // measure 18
1000
0000
0100
0000
,  // measure 19
1000
0000
0001
0000
,  // measure 20
0100
0000
0010
0000
,  // measure 21
1000
0000
0100
0000
,  // measure 22
0010
0000
0100
0000
,  // measure 23
0010
0000
0001
0000
,  // measure 24
1000
0000
0000
0000
,  // measure 25
0000
0000
0000
0000
,  // measure 26
1001
0000
0000
0000
,  // measure 27
0110
0000
0000
0000
,  // measure 28
0010
0000
0100
0000
,  // measure 29
0001
0000
1000
0001
,  // measure 30
1000
0000
0000
0000
,  // measure 31
0100
0000
0000
0000
,  // measure 32
0010
0000
0001
0000
,  // measure 33
1000
0000
0001
1000
,  // measure 34
0001
0001
0001
0000
,  // measure 35
0100
0100
0100
0000
,  // measure 36
0010
0010
0010
0000
,  // measure 37
1000
1000
0001
0001
,  // measure 38
2002
0000
0000
0000
,  // measure 39
3003
0000
0000
0000
,  // measure 40
0200
0000
0000
0000
,  // measure 41
0300
0000
0000
0000
,  // measure 42
0020
0000
0000
0000
,  // measure 43
0030
0000
0000
0000
,  // measure 44
2000
0000
0000
0000
,  // measure 45
3000
0000
0000
0000
,  // measure 46
1001
0000
0001
0000
,  // measure 47
0100
0000
0001
0000
,  // measure 48
1000
0000
0001
0000
,  // measure 49
0010
0000
0001
0000
,  // measure 50
1001
0000
1000
0000
,  // measure 51
0010
0000
1000
0000
,  // measure 52
0001
0000
1000
0000
,  // measure 53
0100
0000
1000
0000
,  // measure 54
0110
0000
0000
0000
,  // measure 55
1001
0000
0000
0000
,  // measure 56
0110
0000
0000
0000
,  // measure 57
1001
0000
0000
0000
,  // measure 58
0110
0000
0000
0000
,  // measure 59
1001
0000
0000
0000
,  // measure 60
0110
0000
0000
0000
,  // measure 61
1001
0000
0000
0000
,  // measure 62
1001
0000
0000
0000
,  // measure 63
1001
0000
0000
0000
,  // measure 64
0110
0000
0000
0000
,  // measure 65
0110
0000
0000
0000
,  // measure 66
1001
0000
0000
0000
,  // measure 67
0110
0000
0000
0000
,  // measure 68
1001
0000
0000
0000
,  // measure 69
0110
0000
0000
0000
,  // measure 70
1001
0000
0000
0000
,  // measure 71
0000
0000
0000
0000
,  // measure 72
0000
0000
0000
0000
,  // measure 73
0000
0000
0000
0000
,  // measure 74
0000
0000
0000
0000
,  // measure 75
0000
0000
0000
0000
,  // measure 76
0000
0000
0000
0000
,  // measure 77
0000
0000
0000
0000
,  // measure 78
0000
0000
0000
0000
,  // measure 79
0000
0000
0000
0000
,  // measure 80
1000
0000
0000
0000
,  // measure 81
0001
0000
0000
0000
,  // measure 82
0100
0000
0000
0000
,  // measure 83
0001
0000
1000
0000
,  // measure 84
0001
0000
0000
0000
,  // measure 85
1000
0000
0000
0000
,  // measure 86
0100
0000
0010
0000
,  // measure 87
0100
0000
0010
0000
,  // measure 88
0001
0000
0000
0000
,  // measure 89
1000
0000
0000
0000
,  // measure 90
0001
0000
0000
0000
,  // measure 91
0100
0000
0001
0000
,  // measure 92
0100
0000
0000
0000
,  // measure 93
0010
0000
0000
0000
,  // measure 94
1000
0000
0000
0000
,  // measure 95
2002
0000
0000
0000
,  // measure 96
3003
0000
0001
0000
,  // measure 97
1000
0000
0000
0000
,  // measure 98
0100
0000
0000
0000
,  // measure 99
1000
0000
0001
0000
,  // measure 100
1000
0000
0001
0000
,  // measure 101
0100
0000
0000
0000
,  // measure 102
0010
0000
0000
0000
,  // measure 103
0100
0000
0010
0000
,  // measure 104
1000
0000
0001
0000
,  // measure 105
0010
0000
0000
0000
,  // measure 106
0100
0000
0000
0000
,  // measure 107
0010
0000
0001
0000
,  // measure 108
1000
0000
0100
0000
,  // measure 109
0010
0000
0001
0000
,  // measure 110
1000
0000
0010
0000
,  // measure 111
0100
0000
0001
0000
,  // measure 112
1001
0000
0000
0000
,  // measure 113
1001
0000
0000
0000
,  // measure 114
1001
0000
0000
0000
,  // measure 115
1001
0000
0000
0000
,  // measure 116
0220
0000
0000
0000
,  // measure 117
0000
0000
0000
0000
,  // measure 118
0330
0000
0000
0000
;

//---------------dance-single - Oni-91----------------
#NOTES:
     dance-single:
     :
     Challenge:
     12:
     0.911257,1.455217,0.697415,0.289172,0.323192,750.000000,668.000000,82.000000,34.000000,0.000000,0.000000,0.911257,1.455217,0.697415,0.289172,0.323192,750.000000,668.000000,82.000000,34.000000,0.000000,0.000000:
// measure 0
0000
0000
0000
0000
,  // measure 1
0000
0000
0000
0000
,  // measure 2
0000
0000
0000
0000
,  // measure 3
0000
0000
0000
0000
,  // measure 4
2002
0000
0000
0000
,  // measure 5
0000
0000
0000
0000
,  // measure 6
0000
0000
0000
0000
,  // measure 7
0000
0000
0000
0000
,  // measure 8
0000
0000
0000
3003
,  // measure 9
1000
0000
0100
0000
0010
0000
0100
0000
0010
0000
0001
1000
0001
0000
0100
0000
,  // measure 10
0010
0000
0100
0000
0001
0000
1000
0000
0100
0000
0010
0001
0100
0010
1000
0000
,  // measure 11
0001
0000
0100
0000
0010
0000
1000
0000
0001
0000
1000
0001
1000
0000
0100
0000
,  // measure 12
2002
0000
3003
0000
1010
0101
0011
1100
,  // measure 13
1001
0000
0001
0000
0100
0000
0010
0000
1000
0000
0100
0010
0001
0000
0100
0000
,  // measure 14
0010
0000
1000
0000
0010
0000
0001
0000
0010
0000
0100
0001
0010
0100
0010
0001
,  // measure 15
1000
0000
0001
0000
0100
0000
0010
0000
1000
0000
0001
0100
0010
0000
1000
0000
,  // measure 16
0022
0000
0033
0000
1100
0011
0101
1010
,  // measure 17
1002
0000
1003
0100
0110
0010
0001
0000
,  // measure 18
2001
0000
0000
0000
3010
0000
0100
0000
0110
0000
0010
1000
0001
0000
1000
0000
,  // measure 19
2001
0000
3100
0010
0011
0001
0100
0000
,  // measure 20
1002
0000
0103
0010
1010
1100
1010
0110
,  // measure 21
1001
0001
0101
0100
0110
0010
1010
1000
,  // measure 22
1001
0001
0011
0010
1001
0100
1001
0100
,  // measure 23
0010
0000
0001
0010
0100
0000
1000
0010
0100
0000
0010
0100
0001
0000
1000
0000
,  // measure 24
0220
0000
0000
0000
,  // measure 25
0330
0000
0000
0000
,  // measure 26
0001
0000
0100
0000
0001
0000
1000
0100
0000
1000
0100
0000
0010
0000
0001
0000
,  // measure 27
1000
0000
0010
0000
0100
0000
0010
1000
0100
0010
0001
0010
0001
1000
0010
0000
,  // measure 28
1000
0000
0001
0000
0100
0000
0010
0100
0001
0010
0100
0000
0010
0000
0001
0000
,  // measure 29
1000
0000
0001
0000
0100
0000
0010
0010
0000
0100
0100
0000
1001
0000
0110
0000
,  // measure 30
0001
0000
1000
0000
0001
0000
0010
0001
0100
0000
0010
1000
0100
0010
0001
1000
,  // measure 31
0001
0000
0100
0000
1010
0000
1000
0100
0000
0010
0001
1000
0100
0010
0100
1000
,  // measure 32
0001
0000
1000
0000
0001
0000
0100
0010
1000
0000
0010
0100
0001
0010
0100
0000
,  // measure 33
0010
0000
0001
0000
1001
0000
0100
0100
0000
0010
0010
0000
1000
0000
0001
0000
,  // measure 34
1000
0000
0100
0000
1100
0000
0000
1100
0000
1100
1100
0000
1001
0000
0101
0000
,  // measure 35
0001
0000
0100
0000
0101
0000
0000
0101
0000
0101
0101
0000
0110
0000
1010
0000
,  // measure 36
1000
0000
0100
0000
0010
0000
0001
0100
0010
0000
1000
0010
0100
0000
0001
0000
,  // measure 37
1000
0001
1000
0001
0100
0010
0100
0010
1000
0100
0001
0100
1000
0010
0001
0020
,  // measure 38
0200
0000
0000
0330
,  // measure 39
0000
0000
1000
0000
0001
0000
0000
0000
1000
0000
0001
0010
0001
0000
1000
0000
,  // measure 40
0010
0100
0001
0010
0100
0010
0000
1001
,  // measure 41
0000
0000
1000
0000
0010
0000
0100
0000
0001
0000
1000
0100
0010
0000
0100
0000
,  // measure 42
1001
0010
0100
0001
1000
0100
0000
0011
,  // measure 43
0000
0000
0100
0000
1000
0000
0001
0000
0100
0000
0010
0100
0001
0000
1000
0000
,  // measure 44
0100
0010
0001
0000
1000
0010
0000
0101
,  // measure 45
0100
0000
0010
0000
1000
0000
0100
0000
0010
0000
0100
1000
0001
1000
0010
0000
,  // measure 46
0101
0000
0001
1000
1010
0010
0100
0001
,  // measure 47
0010
0100
0010
0001
1001
1000
0010
0100
,  // measure 48
0001
0000
1000
0100
0011
0100
1000
0001
,  // measure 49
0100
0000
0010
0000
1000
0000
0100
0000
1001
0000
0010
0000
1000
0100
1000
0100
,  // measure 50
0020
0000
0031
0100
1010
0100
0010
1000
,  // measure 51
0100
0010
0001
0100
1001
0100
0001
0010
,  // measure 52
0100
0000
0010
0001
1100
0010
0001
0100
,  // measure 53
0010
1000
0001
0100
1010
0100
1001
0000
,  // measure 54
0101
0000
0000
0000
0100
0000
0000
0000
0001
0000
1000
0100
1000
0000
0001
0000
,  // measure 55
1000
0000
0000
0000
0001
0000
0000
0000
0100
0000
0010
0100
0010
0100
0010
0000
,  // measure 56
1000
0000
0000
0000
0001
0000
0000
0000
0100
0000
0010
1000
0010
0000
1000
0000
,  // measure 57
0001
0000
0000
0000
1000
0000
0000
0000
0100
0000
0010
0001
0010
0001
1000
0100
,  // measure 58
1000
0000
0000
0000
0001
0000
0000
0000
1000
0000
0010
1000
0010
0100
0001
1000
,  // measure 59
0001
0000
0000
0000
1000
0000
0000
0000
0001
0000
1000
0100
1000
0100
0010
0001
,  // measure 60
0010
0000
0000
0000
0001
0000
0000
0000
1000
0000
0001
0100
0001
1000
0001
1000
,  // measure 61
0001
0000
0000
0000
0100
0000
0000
0000
0010
0000
1000
0001
0010
0001
1000
0000
,  // measure 62
1001
0100
0010
0100
,  // measure 63
0110
0010
0001
0100
,  // measure 64
0101
0001
1000
0010
,  // measure 65
1010
1000
0100
0010
,  // measure 66
0110
0100
0010
0001
,  // measure 67
1001
1000
0010
0100
,  // measure 68
0101
0001
1000
0100
,  // measure 69
1100
1000
0001
0100
,  // measure 70
0001
1000
0001
1000
0001
1000
0001
1000
,  // measure 71
0001
1000
0001
1000
0001
1000
0001
1000
,  // measure 72
0010
0100
0010
0100
0010
0100
0010
0100
,  // measure 73
0010
0100
0010
0100
0010
0100
0010
0100
,  // measure 74
0020
0000
0000
0000
,  // measure 75
0000
0000
0000
0000
,  // measure 76
0200
0000
0000
0000
,  // measure 77
0000
0000
0000
0000
,  // measure 78
0000
0000
0000
0000
,  // measure 79
0330
0000
0000
0000
,  // measure 80
0010
1000
0100
0010
,  // measure 81
0100
0001
0100
0010
,  // measure 82
0001
0100
1000
0100
,  // measure 83
0010
0000
1000
0000
0001
0000
0010
0001
,  // measure 84
0100
0010
0100
1000
,  // measure 85
0100
0010
1000
0001
,  // measure 86
0010
0000
0001
0000
1000
0100
0010
0100
,  // measure 87
1000
0000
0001
0000
0100
0010
0001
0010
,  // measure 88
1000
0001
0010
0100
,  // measure 89
0010
0001
1000
0001
,  // measure 90
0010
0000
0001
0100
0010
0000
0100
0000
,  // measure 91
0010
0100
0001
0000
1000
0000
0001
1000
,  // measure 92
0001
1000
0100
0010
,  // measure 93
0100
0001
0100
1000
,  // measure 94
0001
0000
0100
0000
0010
0100
0001
1000
,  // measure 95
1001
0220
0330
2002
,  // measure 96
3003
0000
0001
0010
0100
0000
0010
0000
,  // measure 97
0001
1000
0010
0000
0100
0000
0001
0010
,  // measure 98
0001
0000
1000
0000
0010
1000
0010
0100
,  // measure 99
0001
0000
1000
0000
0001
0010
0100
0010
,  // measure 100
0001
0000
1000
0000
0001
1000
0100
0000
,  // measure 101
0010
0000
0001
0000
0100
0010
1000
0000
,  // measure 102
0001
0000
1000
0100
0010
0000
0100
0010
,  // measure 103
0001
0100
0010
0100
2002
0000
3003
0000
,  // measure 104
1000
0000
0001
0100
0010
0000
0100
0010
,  // measure 105
1000
0100
0010
0000
0110
0000
1001
0001
,  // measure 106
0100
0000
0010
0100
0001
0000
1000
0100
,  // measure 107
0001
0200
1300
0000
0001
0000
0100
0010
,  // measure 108
1000
0000
0001
0000
0010
0001
1000
0000
,  // measure 109
0010
0100
0001
0000
0010
0100
1000
0000
,  // measure 110
0001
0010
0100
0010
0001
1000
0100
0010
,  // measure 111
0100
1000
0001
0100
1000
0100
0001
1000
,  // measure 112
0220
0000
0330
0000
,  // measure 113
2002
0000
3003
0000
,  // measure 114
0202
0000
0303
0000
,  // measure 115
2020
0000
3030
0000
,  // measure 116
0220
0000
0000
0000
,  // measure 117
0000
0000
0000
0000
,  // measure 118
0330
0000
0000
0000
;
