#TITLE:Coming Home;
#SUBTITLE:;
#ARTIST:Sjonni's Friends;
#TITLETRANSLIT:;
#SUBTITLETRANSLIT:;
#ARTISTTRANSLIT:;
#GENRE:;
#CREDIT:;
#BANNER:Coming Home.png;
#BACKGROUND:Coming Home-bg.png;
#LYRICSPATH:Coming Home.lrc;
#CDTITLE:;
#MUSIC:Coming Home.mp3;
#OFFSET:-0.010000;
#SAMPLESTART:36.029999;
#SAMPLELENGTH:10.430000;
#SELECTABLE:YES;
#DISPLAYBPM:74.000000:92.000000;
#BPMS:0.000000=92.000000
,116.000000=82.000000
,117.000000=76.000000
,118.000000=75.000000
,119.000000=73.000000
,120.000000=74.000000
,122.000000=76.000000
,124.000000=78.000000
,126.000000=80.000000
,128.000000=82.000000
,132.000000=85.000000
,137.000000=86.000000
,140.000000=87.000000
,144.000000=88.000000
,148.000000=90.000000
,150.000000=91.000000
,152.000000=92.000000
,182.000000=90.000000
,183.000000=72.000000
,184.000000=70.000000
,185.000000=64.000000
;
#STOPS:
;
#BGCHANGES:-0.200=Coming Home.avi=1.000=1=0=0=StretchNoLoop==CrossFade==,
99999=-nosongbg-=1.000=0=0=0 // don't automatically add -songbackground-
;
#KEYSOUNDS:;
#ATTACKS:;

//---------------dance-single - ----------------
#NOTES:
     dance-single:
     :
     Hard:
     7:
     0.351246,0.386023,0.217862,0.194519,0.132273,316.000000,288.000000,28.000000,25.000000,0.000000,0.000000,0.351246,0.386023,0.217862,0.194519,0.132273,316.000000,288.000000,28.000000,25.000000,0.000000,0.000000:
// measure 0
0000
0000
0000
0000
,  // measure 1
0000
0000
0000
0000
,  // measure 2
1000
0000
0001
0000
0100
0010
0100
0001
,  // measure 3
1000
0001
0010
0100
,  // measure 4
0010
0001
0100
1000
0100
0000
0010
0100
,  // measure 5
0002
0000
0010
0000
1000
0000
0103
0001
,  // measure 6
1000
0000
0000
0000
0000
0000
0100
0000
0000
1000
0000
0000
0100
0000
0000
0000
0000
0000
0001
0000
1000
0001
0000
0000
,  // measure 7
0010
0000
0001
0010
0001
0000
1000
0001
,  // measure 8
0100
0000
0000
0010
0000
0000
0000
0000
0100
0000
0000
0000
0001
0000
0000
0000
0000
0000
1001
0000
0000
0000
0000
0000
,  // measure 9
0220
0000
0000
0330
,  // measure 10
0002
0000
2003
0000
3200
0000
0000
0010
,  // measure 11
0320
0000
0000
0000
0000
0000
0032
0000
0000
0000
0000
0200
0000
0000
0000
0000
0000
0000
0303
0000
0000
0000
0000
0000
,  // measure 12
0001
0100
0001
0000
1000
0100
0010
0001
,  // measure 13
0100
0000
0000
0001
0000
0000
1000
0000
0000
0100
0000
2000
0000
0000
0000
0001
0000
0000
0001
0000
0000
0001
0000
0000
,  // measure 14
3001
0000
0011
0000
0010
0100
1000
0010
,  // measure 15
0100
0000
0110
0000
0010
1000
0001
0000
,  // measure 16
1000
0000
0000
0100
0000
0000
0010
0000
0000
0001
0000
0000
0100
0000
0000
0010
0000
0000
0100
0000
0000
0000
0000
0100
,  // measure 17
0010
0000
0000
1000
0000
0000
0001
0000
0000
0010
0000
0000
0100
0000
0000
0100
0000
0000
1000
0000
0100
1000
0000
0000
,  // measure 18
0001
0000
0101
0000
0100
0010
1000
0001
,  // measure 19
0010
0000
0000
0000
0000
0000
0110
0000
0000
0000
0000
0010
0100
0000
0000
1000
0000
0000
0001
0000
0000
0000
0000
0000
,  // measure 20
1000
0000
0000
0010
0000
0000
0001
0000
0000
0010
0000
0000
1000
0000
0000
0001
0000
0000
1000
0000
0000
0100
0000
0010
,  // measure 21
0000
0000
0000
0100
0000
0000
1000
0000
0000
0001
0000
0200
0000
0000
0000
0010
0000
0000
0310
0000
0000
0000
0000
0000
,  // measure 22
1001
0000
1100
0000
0010
0001
0100
0000
,  // measure 23
0010
1000
0001
1000
0100
1000
0001
0010
,  // measure 24
0011
0000
0101
0000
0010
1000
0100
0000
,  // measure 25
0010
0100
1000
0010
0001
0010
1000
0001
,  // measure 26
1001
0000
0101
0000
0001
1000
1100
0000
,  // measure 27
0100
0000
0000
0010
0000
0000
0100
0000
0000
0010
0000
0000
0001
0000
1000
0100
0000
0000
1000
0000
0000
0001
0000
0000
,  // measure 28
1002
0023
0230
2300
,  // measure 29
3001
0000
0110
0000
2002
3003
0110
0000
,  // measure 30
1010
1000
0100
0000
0010
0100
1000
0010
,  // measure 31
0200
0000
0301
0000
0100
0010
1000
0100
,  // measure 32
0001
0000
1100
0000
1000
0010
0100
0000
,  // measure 33
0001
0000
0000
0100
0000
0000
0010
0000
0000
1000
0000
0000
0001
0000
0000
0001
0000
0000
1000
0000
0100
0010
0000
0000
,  // measure 34
0110
0000
0011
0000
0001
0100
0010
1000
,  // measure 35
0001
0000
0000
0000
0000
0000
0011
0000
0000
0000
0000
0001
0010
0000
0000
1000
0000
0000
0010
0000
0000
0001
0000
0000
,  // measure 36
0010
0000
0000
0001
0000
0000
0100
0000
0000
0010
0000
0000
1000
0000
0000
0001
0000
0000
0100
0000
0000
0001
0000
2000
,  // measure 37
0010
0000
0000
0000
0000
0000
3010
0000
0000
0000
0000
1000
0010
0000
0000
0100
0000
0001
1000
0000
0001
1000
0000
0000
,  // measure 38
0101
0000
1001
0000
1000
0100
0001
0100
,  // measure 39
1000
0000
1001
0000
0001
0100
0010
0100
,  // measure 40
0001
0000
0000
1000
0000
0100
0000
0000
0010
0000
0000
0001
0000
0000
0100
0000
0000
0202
0000
0000
0000
0303
0000
0000
,  // measure 41
0001
0000
0000
1000
0000
0010
0000
0000
0100
0000
0000
0001
0000
0000
1000
0000
0000
0100
0000
0000
0010
0100
0000
0000
,  // measure 42
0010
0001
0100
0000
0010
1000
0100
0001
,  // measure 43
0100
0000
0000
0010
0000
0001
0000
0000
1000
0000
0000
0001
1000
0000
0000
0001
0000
0000
1001
0000
0000
0000
0000
0000
,  // measure 44
1000
0100
0001
0100
1000
0001
0100
0010
,  // measure 45
1000
0010
1000
0010
1000
0001
1000
0001
0200
0000
0000
0000
0010
0000
0000
0000
,  // measure 46
0001
0000
0020
0330
2002
0000
0000
0000
,  // measure 47
0000
3003
0000
0000
;

//---------------dance-single - ----------------
#NOTES:
     dance-single:
     :
     Medium:
     5:
     0.262323,0.275731,0.124492,0.287888,0.003890,236.000000,220.000000,16.000000,37.000000,0.000000,0.000000,0.262323,0.275731,0.124492,0.287888,0.003890,236.000000,220.000000,16.000000,37.000000,0.000000,0.000000:
0000
0000
0000
0000
,
0000
0000
0000
0000
,
1000
0000
0001
0000
0100
0000
0010
0100
,
0020
0100
1000
0100
,
1030
0000
0010
1000
0001
0000
1000
0001
,
0010
0000
0100
0000
0010
0000
0001
1000
,
0001
0000
1000
0001
1000
0000
0000
0000
,
0001
0000
0100
0001
0100
0000
0010
0000
,
1000
0001
0010
0110
,
2002
0000
0000
3003
,
2000
0000
3200
0000
0320
0000
0000
0001
,
0032
0000
0000
0000
2003
0000
0000
0002
0000
0000
0000
0000
3003
0000
0000
0000
,
0002
0203
2300
3200
,
0310
0100
0010
2000
0002
0000
3003
0000
,
1001
0000
0101
0000
0010
1000
0100
0000
,
1100
0000
1001
0000
0001
0010
0100
0000
,
0010
0001
1000
0000
0001
0100
0001
0000
,
1000
0000
0010
0000
0100
0001
0100
0001
,
1000
0000
1001
0000
0001
0010
0100
0000
,
0010
0001
1000
0000
0010
0100
0001
0000
,
1000
0010
1000
0000
0001
0100
0001
1000
,
0001
0000
1000
0001
0200
0000
0300
0000
,
0010
1000
0010
0000
2000
0000
3200
0000
,
0310
0000
0100
0000
0010
0001
0010
0000
,
0001
1000
0001
0000
0200
0000
0320
0000
,
1030
0000
0010
1000
0002
0000
0003
1000
,
1000
0100
0020
0032
,
1003
0001
1000
0000
0001
0000
0100
0010
,
2000
3002
0203
0320
,
0130
0110
1001
1001
,
1002
0000
0010
0000
1000
0000
0100
0100
,
0203
0001
1000
0301
,
0010
0100
0010
0000
1000
0000
0001
0000
,
1000
0100
1000
0000
0001
0010
0001
0010
,
0200
0000
0010
0000
1000
0000
0010
0010
,
0320
0001
0100
0031
,
1000
0001
1000
0000
0001
0100
0001
0100
,
0020
1000
0200
0330
,
1010
0000
1001
0000
0001
0010
0100
0010
,
0001
0000
1000
0000
0001
0100
0001
0000
,
1000
0010
1000
0000
0001
0010
0100
0000
,
0010
0001
0100
0010
1000
0000
1001
0000
,
0210
0000
0301
0000
0001
1000
0100
0000
,
0010
0000
0100
1000
0001
0000
1000
0000
,
0001
0100
0010
1000
0010
0000
0100
0000
,
0001
1000
0001
1000
0200
0000
0010
0000
,
0010
0310
2002
0000
,
0000
3003
0000
0000
;

//---------------dance-single - ----------------
#NOTES:
     dance-single:
     :
     Easy:
     3:
     0.172288,0.238967,0.085588,0.202300,0.000000,155.000000,144.000000,11.000000,26.000000,0.000000,0.000000,0.172288,0.238967,0.085588,0.202300,0.000000,155.000000,144.000000,11.000000,26.000000,0.000000,0.000000:
0000
0000
0000
0000
,
0000
0000
0000
0000
,
0100
0000
0010
0100
,
0002
0000
2000
3003
,
1000
0001
0100
0010
,
0200
0000
0002
0303
,
0001
1000
0001
0000
,
1000
0100
1000
0000
,
0001
0010
0100
0010
,
2002
0000
0000
3003
,
1000
1000
2000
0000
,
3010
0010
0020
0000
,
0230
0000
0002
0303
,
1002
1000
2000
3003
,
1000
0100
0010
0100
,
0010
0001
1000
0001
,
0100
0000
0010
0000
,
0100
0010
0100
0010
,
1000
0001
1000
0100
,
0010
0001
0100
0000
,
0010
0100
0001
1000
,
0100
1000
0001
0000
,
0001
0002
1000
1003
,
1000
0010
0100
0000
,
0010
0020
0100
0130
,
0100
0001
1000
0000
,
0001
0002
0100
0100
,
0103
0010
1000
0001
,
1000
1000
0001
0001
,
1001
1001
0110
0110
,
1000
0002
0000
0013
,
0100
0020
0000
0000
,
0031
0010
0001
0000
,
1000
0100
1000
0001
,
0100
0020
0000
0130
,
0001
1000
2002
3003
,
1000
0100
0010
0001
,
2000
0010
0002
3003
,
1000
0100
1000
0001
,
0100
0000
0010
0000
,
0100
0010
0100
0000
,
0010
1000
0001
1000
,
0100
0010
0001
0100
,
0001
1000
0001
0000
,
0100
0010
1000
0100
,
0110
1001
0220
0000
,
0000
0330
2002
0000
,
0000
3003
0000
0000
;

//---------------dance-single - ----------------
#NOTES:
     dance-single:
     :
     Beginner:
     1:
     0.090035,0.108542,0.031123,0.000000,0.000000,81.000000,77.000000,4.000000,0.000000,0.000000,0.000000,0.090035,0.108542,0.031123,0.000000,0.000000,81.000000,77.000000,4.000000,0.000000,0.000000,0.000000:
0000
0000
0000
0000
,
0000
0000
0000
0000
,
0010
0000
0001
0000
,
0010
0000
0000
0000
,
0100
0000
1000
0000
,
0100
0000
0000
0000
,
0010
0000
0010
0000
,
0001
0000
0001
0000
,
1001
0000
0000
0000
,
0000
0000
0000
0000
,
1000
0000
1000
0000
,
0001
0000
0001
0000
,
0100
0000
0000
0010
,
0010
0000
0100
0000
,
1001
0000
0001
0000
,
1000
0000
0000
0000
,
0001
0000
0010
0000
,
0001
0000
1000
0000
,
0001
0000
0100
0000
,
0010
0000
0000
0000
,
0100
0000
0010
0000
,
1000
0000
0001
0000
,
1000
0000
1000
0000
,
0100
0000
0000
0000
,
0010
0000
0010
0000
,
0100
0000
0000
0000
,
0010
0000
0010
0000
,
0001
0000
1000
0000
,
0001
0000
0100
0000
,
0010
0000
0000
0000
,
1000
0000
1000
0000
,
0001
0000
0001
0000
,
0100
0000
0010
0000
,
0100
0000
0010
0000
,
1000
0000
1000
0000
,
0001
0000
0001
0000
,
0010
0000
0001
0000
,
0100
0000
0000
0000
,
1001
0000
0001
0000
,
0100
0000
0000
0000
,
0010
0000
1000
0000
,
0001
0000
1000
0000
,
0100
0000
0010
0000
,
0100
0000
0000
0000
,
0010
0000
0001
0000
,
1000
1000
1000
0000
,
0000
0000
1001
0000
;
