#TITLE:Clash;
#SUBTITLE:;
#ARTIST:Caravan Palace;
#TITLETRANSLIT:;
#SUBTITLETRANSLIT:;
#ARTISTTRANSLIT:;
#GENRE:;
#CREDIT:;
#BANNER:Clash.png;
#BACKGROUND:Clash-bg.png;
#LYRICSPATH:;
#CDTITLE:;
#MUSIC:Clash.mp3;
#OFFSET:-3.790000;
#SAMPLESTART:41.564972;
#SAMPLELENGTH:15.118111;
#SELECTABLE:YES;
#DISPLAYBPM:127.000000;
#BPMS:0.000000=126.999992
,184.000000=253.999985
,185.000000=126.999992
;
#STOPS:184.000000=0.236000
;
#BGCHANGES:;
#KEYSOUNDS:;
#ATTACKS:;

//---------------dance-single - Oni-91----------------
#NOTES:
     dance-single:
     :
     Hard:
     8:
     0.513761,0.559943,0.176291,0.193920,0.220363,408.000000,388.000000,20.000000,22.000000,0.000000,0.000000,0.513761,0.559943,0.176291,0.193920,0.220363,408.000000,388.000000,20.000000,22.000000,0.000000,0.000000:
0010
0001
0100
0000
0010
1000
0100
0010
,
0002
0010
1000
0103
,
0010
0100
0001
1000
0100
0000
0010
0001
,
0200
1000
0010
0301
,
1000
0100
0010
0001
1000
0010
0100
0001
,
2000
0000
0010
0010
0010
0000
3001
0000
,
1000
0000
0001
0100
0010
0000
1000
0001
,
0200
0000
1000
1000
1000
0000
0010
0000
,
0302
0010
0000
1000
,
0203
0001
0000
1000
,
0320
0001
0000
0100
,
1030
0000
0000
0000
0000
0000
0001
0000
0000
0000
0000
0000
0000
0000
0000
0000
0000
0000
1000
0000
0001
1000
0000
0001
,
1000
0010
0100
0001
0010
0001
1000
0000
,
0001
0100
0010
1000
0100
0010
0100
0000
,
0001
0010
0100
1000
0100
0001
0100
0000
,
1000
0000
0010
0000
0101
0000
0000
0000
0001
0010
0100
0000
1000
0000
0100
0000
,
0010
0001
1000
0001
1000
0010
0100
0001
,
1000
0000
0000
0001
0000
0000
1000
0000
0000
0001
0000
0010
0001
0000
0000
0010
0000
0000
0100
0000
0000
0010
0000
0000
,
0001
0100
0010
1000
0100
0001
0100
1000
,
0002
0000
0000
0000
0010
0000
0000
0000
1000
0000
0000
0000
0103
0000
0001
0100
,
0001
0100
0010
1000
0001
1000
0100
0010
,
0200
0000
0001
0000
1000
1000
1300
0000
,
0001
0000
0000
0010
0000
0001
0000
0000
0010
0001
0000
0000
1000
0000
0000
0010
0000
0000
0100
0000
0000
0001
0000
0000
,
0100
0000
0010
0000
1001
0000
0000
0000
1000
0001
1000
0000
0001
0000
0010
0000
,
0100
0100
1000
1000
0001
0001
0100
0010
,
0200
0000
0001
0000
0010
0010
0310
0000
,
0010
0000
0000
1000
0000
0100
0000
0000
1000
0001
0000
0000
0010
0000
0000
0100
0000
0000
0010
0000
0000
0001
0000
0000
,
1000
0010
0101
0000
0010
0001
1100
0000
,
0001
0010
0100
1000
0100
0010
0001
2000
,
0001
0000
0000
0000
0000
3001
0000
0000
0000
0000
0000
0001
1000
0000
0000
0100
0000
0000
1000
0000
0000
0001
0000
0000
,
0100
0000
0000
0010
0000
0000
1000
0000
0000
0001
0000
0000
1000
0000
0001
1000
0000
0000
0001
0000
1000
0000
0000
1002
,
0000
0000
0000
0100
0000
0000
0103
0000
0000
0000
0000
0001
0100
0000
0000
0010
0000
0000
1000
0000
0000
0010
0000
0000
,
1000
0000
0000
0100
0000
0000
0010
0000
0000
0001
0000
0000
0010
0000
0000
0100
0000
0000
0010
0000
0001
0000
0000
1000
,
0000
0000
0001
0000
0000
0000
1000
0000
0000
0000
0000
0001
0100
0000
0000
0001
0000
0000
1000
0000
0000
0100
0000
0000
,
0010
0001
0100
0001
1000
0010
0100
0001
,
2000
0000
3000
0000
0001
0001
1000
1000
,
0001
0000
0100
0001
0000
0000
0101
0000
0000
0000
0000
0000
0010
0000
0000
0000
0000
1000
0000
0000
0000
0100
0000
0000
,
0010
0000
0001
0010
0000
0000
1100
0000
0000
0000
0000
1000
0001
0000
0000
0100
0000
0000
0001
0000
0000
1000
0000
0000
,
0010
0000
0100
0001
0000
0000
0101
0000
0000
0000
0000
0001
1000
0000
0000
0000
0000
0100
0000
0000
0000
0010
0000
0000
,
0100
0000
1000
0000
1001
0000
0000
0000
0010
0100
0010
0000
1000
0000
0001
0000
,
1000
0000
0001
0000
0000
1000
0001
0000
0000
1000
0000
0000
0100
0000
0000
0000
0000
0010
0000
0000
0000
0100
0000
0000
,
0010
0000
0001
0000
0000
1000
0100
0000
0000
0010
0000
0001
0100
0000
0000
1000
0000
0000
0100
0000
0000
0001
0000
0000
,
0100
0000
0001
0000
0000
0100
0010
0000
0000
1000
0000
0000
0100
0000
0000
0000
0000
1000
0000
0000
0000
0001
0000
0000
,
1000
0000
0100
0000
0010
0000
0100
0000
1000
0100
0010
0000
0100
0000
0010
0000
,
0002
0010
0203
1000
,
0320
0000
0000
0000
0100
0000
0000
0000
2030
0000
0000
0000
0001
0000
0001
0002
,
3003
0000
0000
0000
0000
0000
0110
0000
0000
0000
0000
0010
1000
0000
0000
0100
0000
0000
0010
0000
0000
0001
0000
0000
,
1001
0000
0000
0000
0000
0000
1100
0000
0000
0000
0000
0010
0001
0000
0000
1000
0000
0010
1000
0000
0000
0001
0000
0000
,
0100
0000
0000
0000
0000
0000
1001
0000
0000
0000
0000
1000
0100
0000
0000
0010
0000
0000
0001
0000
0000
1000
0000
0000
,
0001
0000
0000
0100
0000
0000
0010
0000
0000
0100
0000
0001
1000
0000
0000
0001
0000
1000
0100
0000
0000
0010
0000
0000
,
1001
0000
0000
0000
0000
0000
0011
0000
0000
0000
0000
1000
0100
0000
0000
0010
0000
0000
0001
0000
0000
0100
0000
0000
,
0101
0000
0000
0001
0000
0000
1001
0000
0000
0000
0000
1000
0010
0000
0000
0100
0000
0000
0010
0000
0000
1000
0000
0000
,
1100
0000
0000
0000
0000
0000
1001
0000
0000
0000
0000
0001
0010
0000
0000
1000
0000
0000
0010
0000
0000
0001
0000
0000
,
1000
0000
1000
0000
0001
0000
0001
0000
1000
0001
1000
0000
0001
0000
0100
0000
,
2001
0010
0000
0020
,
0000
0000
0030
0001
,
3002
0000
0000
0000
0000
0000
0010
0000
0000
0000
0000
0000
0000
0000
0000
0000
0000
0000
0100
0000
0000
0000
0000
2000
,
0000
0000
3000
1003
;

//---------------dance-single - Oni-91----------------
#NOTES:
     dance-single:
     :
     Medium:
     6:
     0.347544,0.381779,0.158662,0.246807,0.017629,276.000000,258.000000,18.000000,28.000000,0.000000,0.000000,0.347544,0.381779,0.158662,0.246807,0.017629,276.000000,258.000000,18.000000,28.000000,0.000000,0.000000:
1000
0000
0001
0000
1000
0000
0001
0100
,
0020
0001
0000
1030
,
0010
1000
0100
0000
0010
0000
0001
0010
,
0200
0001
0000
1300
,
0010
0001
1000
0000
0010
1000
0001
0000
,
0200
1000
0000
0301
,
0001
0100
0001
1000
0100
0000
0010
0100
,
0020
0001
0000
1030
,
0210
0010
0000
1000
,
2300
0010
0000
0001
,
3002
1000
0000
0010
,
0013
0000
0001
0000
0000
0000
1000
0001
,
1000
0100
1000
0000
0001
0100
0001
0000
,
1000
0100
0010
0001
0100
0000
0110
0000
,
0010
0100
0001
0000
0010
0100
1000
0000
,
0001
1000
0001
1000
0010
0000
0101
0000
,
0010
1000
0100
0000
0010
0000
0100
0000
,
0010
0001
0100
0000
0001
1000
0001
1000
,
0010
0000
0100
0000
0010
1000
0100
1000
,
0020
0001
1030
1001
,
0001
0000
0100
0000
0010
1000
0010
0100
,
0002
0010
1000
0103
,
1000
0100
0010
0100
1000
0000
0001
0010
,
0200
0001
0010
1300
,
0001
0010
0001
0010
0100
0000
0010
0001
,
2000
0010
0001
3100
,
1000
0001
0100
0010
0100
0000
0001
1000
,
0002
0010
1000
0013
,
2002
0000
0000
0000
,
0000
0000
0000
3003
,
0220
0000
0000
0000
,
0000
0000
0000
0330
,
1001
0100
0001
0010
,
1000
0000
0010
0000
0001
0000
1000
0001
,
1000
0000
0001
0000
0100
0000
0010
0100
,
0020
0030
1000
0001
,
1001
0000
0000
0000
0000
0000
1100
0000
0000
0000
0000
0000
0010
0000
0000
0000
0000
0001
0000
0000
0000
0010
0000
0000
,
0001
0000
1000
0000
0001
0100
0001
0000
,
1000
0000
0000
0000
0000
0000
0010
0000
0000
0000
0000
0000
0100
0000
0000
0000
0000
0010
0000
0000
0000
0100
0000
0000
,
0001
0100
0001
0000
1000
0100
0010
0000
,
0100
0000
0000
1000
0000
0000
0001
0000
0000
0000
0000
0000
1000
0000
0000
0000
0000
0001
0000
0000
0000
1000
0000
0000
,
0001
0010
0100
0000
0010
0001
0100
0000
,
0010
0000
0000
1000
0000
0000
0001
0000
0000
0000
0000
0000
1000
0000
0000
0000
0000
0001
0000
0000
0000
1000
0000
0000
,
0100
1000
0100
0000
0011
0000
1001
0000
,
0120
0230
0000
0302
,
0000
0023
0000
0200
,
0330
0000
1001
0000
0001
0100
0010
0000
,
2000
0000
3100
0000
0010
0100
1000
0001
,
0010
0000
0100
0000
0010
0001
0100
0010
,
0200
0000
0301
0000
1000
0010
0100
0000
,
1001
0000
0011
0000
0100
1000
0001
0000
,
2000
0000
3010
1000
0010
0100
0001
0000
,
1000
0000
0100
0000
0010
0100
0010
0000
,
0001
1000
0001
0000
1010
0000
0101
0000
,
0210
0010
0000
0010
,
0000
0001
0000
0302
,
1000
0100
0000
0100
,
2000
0000
3000
1003
;

//---------------dance-single - Oni-91----------------
#NOTES:
     dance-single:
     :
     Easy:
     2:
     0.166217,0.229068,0.052887,0.123403,0.000000,132.000000,126.000000,6.000000,14.000000,0.000000,0.000000,0.166217,0.229068,0.052887,0.123403,0.000000,132.000000,126.000000,6.000000,14.000000,0.000000,0.000000:
1000
0000
0001
0001
,
0002
0000
0000
0000
,
1003
0000
0010
0010
,
0020
0000
0000
0000
,
1030
0000
0100
0100
,
0200
0000
0000
0000
,
0310
0000
0001
0000
,
2000
0000
0000
0000
,
3001
0000
0000
0000
,
1000
0000
0000
0000
,
0010
0000
0000
0000
,
0100
0000
0000
0000
,
0110
0000
0010
0000
,
1000
0000
0001
0001
,
0001
0000
1000
0000
,
0100
0010
0100
0010
,
0100
0000
0010
0000
,
0001
0000
1000
1000
,
1000
0000
0001
0000
,
0100
0010
0100
0010
,
0100
0000
0001
0001
,
0001
0000
1000
0000
,
0100
0000
1000
1000
,
1000
0000
0100
0000
,
0010
0000
0001
0001
,
0001
0000
1000
0000
,
0001
0000
0100
0100
,
0100
0000
0010
0000
,
2000
0000
0000
0000
,
3002
0000
0000
0000
,
0023
0000
0000
0000
,
0230
0000
0000
0000
,
0310
0010
0100
0100
,
1000
1000
0001
0001
,
1000
0001
1000
0001
,
0100
0000
0000
0000
,
1001
0000
0001
0000
,
1000
0000
0001
0010
,
0001
0000
1000
0000
,
0100
0010
0100
0010
,
0100
0000
1000
0000
,
0001
0000
1000
0010
,
1000
0000
0010
0000
,
0100
0100
0100
0100
,
0220
0000
0000
0000
,
0000
0000
0000
0000
,
0330
0010
0010
0000
,
1000
0000
0100
0100
,
0100
0000
0010
0000
,
0001
1000
0001
1000
,
0001
0000
0100
0000
,
0010
0010
0010
0000
,
1000
0000
0100
0000
,
1000
0100
1000
0001
,
2002
0000
0000
0000
,
0000
0000
0000
3003
,
0220
0000
0000
0000
,
0330
0000
0000
0110
;

//---------------dance-single - Oni-91----------------
#NOTES:
     dance-single:
     :
     Beginner:
     1:
     0.110811,0.152712,0.070516,0.017629,0.000000,88.000000,80.000000,8.000000,2.000000,0.000000,0.000000,0.110811,0.152712,0.070516,0.017629,0.000000,88.000000,80.000000,8.000000,2.000000,0.000000,0.000000:
1000
0000
0000
0000
,
0100
0000
0000
0000
,
1000
0000
0000
0000
,
0001
0000
0000
0000
,
1000
0000
0000
0000
,
0001
0000
0000
0000
,
0100
0000
0000
0000
,
0010
0000
0000
0000
,
2002
0000
0000
0000
,
0000
0000
0000
0000
,
0000
0000
0000
0000
,
3003
0000
0000
0000
,
1001
0000
0000
0000
,
1000
0000
0100
0000
,
0010
0000
0000
0000
,
0100
0000
0010
0000
,
0100
0000
0000
0000
,
0010
0000
0001
0000
,
1000
0000
0001
0000
,
0100
0000
0010
0000
,
0110
0000
0010
0000
,
1000
0000
0000
0000
,
0001
0000
1000
0000
,
0001
0000
0000
0000
,
1000
0000
0100
0000
,
0010
0000
0001
0000
,
1000
0000
0001
0000
,
1000
0000
0000
0000
,
0010
0000
0000
0000
,
0010
0000
0000
0000
,
0100
0000
0000
0000
,
0100
0000
0000
0000
,
0001
0000
0001
0000
,
1000
0000
1000
0000
,
0001
0000
1000
0000
,
1001
0000
0000
0000
,
0110
0000
0010
0000
,
0100
0000
0010
0000
,
1000
0000
0100
0000
,
0010
0000
0001
0000
,
1000
0000
0001
0000
,
1000
0000
0001
0000
,
1000
0000
0100
0000
,
0010
0000
0001
0000
,
1000
0000
0000
0000
,
0000
0000
0000
0000
,
1000
0000
0001
0000
,
1000
0000
0100
0000
,
0010
0000
0100
0000
,
1000
0000
0000
0000
,
0001
0000
0100
0000
,
0001
0000
0100
0000
,
0010
0000
0100
0000
,
0001
0000
0000
0000
,
1001
0000
0000
0000
,
0000
0000
0000
0000
,
0110
0000
0000
0000
,
0000
0000
0000
0110
;

//---------------dance-single - Not Oni-91----------------
#NOTES:
     dance-single:
     :
     Challenge:
     10:
     0.688793,0.789011,0.237992,0.299694,0.586167,547.000000,520.000000,27.000000,34.000000,0.000000,0.000000,0.688793,0.789011,0.237992,0.299694,0.586167,547.000000,520.000000,27.000000,34.000000,0.000000,0.000000:
// measure 0
1000
0000
0000
1000
0000
0000
0010
0000
0000
1000
0000
0000
0200
0000
0000
0000
0000
0000
0310
0000
0000
0001
0000
1000
,  // measure 1
0001
0000
0000
0001
0000
0000
0100
0000
0000
0100
0000
0000
0010
0000
0000
0010
0000
1000
0001
0000
0000
1000
0000
0000
,  // measure 2
0100
0000
0000
0100
0000
0000
0010
0000
0000
0001
0000
0000
2000
0000
0000
0000
0000
0000
3010
0000
0000
0100
0000
0001
,  // measure 3
0100
0010
1000
0002
0010
0010
1000
1003
,  // measure 4
0001
0000
0000
0010
0000
0000
0001
0000
0000
1000
0000
0000
0200
0000
0000
0000
0000
0000
0310
0000
0000
0001
0000
0001
,  // measure 5
1000
0000
0000
1000
0000
0000
0010
0000
0000
0010
0000
0000
0100
0000
0000
0001
0000
0100
0010
0000
0000
1000
0000
0000
,  // measure 6
0001
0000
0000
0010
0000
0000
0010
0000
0000
0100
0000
0000
2000
0000
0000
0000
0000
0000
3010
0000
0000
1000
0000
1000
,  // measure 7
0100
0000
0000
0010
0000
0000
0001
0000
0000
1000
0000
0000
0010
0000
0100
0000
0000
0001
1000
0000
0000
0100
0000
0010
,  // measure 8
0200
0001
0000
0010
,  // measure 9
2300
0100
0000
0001
,  // measure 10
3020
0001
0000
1000
,  // measure 11
0130
0000
0000
0000
0000
0000
0000
0000
0000
0000
0000
0000
0000
0000
0000
0000
0000
0000
0000
0000
0001
1000
0000
1000
,  // measure 12
0001
0000
0000
0010
0000
0000
0100
0000
0000
1000
0000
0001
0100
0000
0000
0010
0000
0000
0100
0000
0000
0001
0000
1000
,  // measure 13
0002
0000
0000
0000
0000
0000
0013
0000
0000
0100
0000
0010
0001
0000
0000
1000
0000
1000
0010
0000
0000
1001
0000
0000
,  // measure 14
0001
0000
0000
0010
0000
0000
0100
0000
0000
0010
0000
0001
1000
0000
0000
0010
0000
0000
0100
0000
0000
0001
0000
0000
,  // measure 15
0011
0000
0000
1010
0000
0000
2001
0000
0000
0000
0000
0000
3010
1000
0001
0100
0001
1000
0100
0000
0000
1001
0000
0000
,  // measure 16
1000
0000
0000
0010
0000
0000
0100
0000
0000
0001
0000
1000
0100
0000
0000
0010
0000
0000
0100
0000
0000
1000
0000
0001
,  // measure 17
2000
0000
0000
0000
0000
3000
0010
0000
0000
1000
0000
0001
0010
0000
0000
0100
0000
0010
0001
0000
0000
1001
0000
0000
,  // measure 18
1000
0000
0000
0001
0000
0000
0010
0000
0000
0100
0000
1000
0001
0000
0000
0100
0000
0000
0010
0000
0000
1000
0000
0001
,  // measure 19
1000
0000
0000
0000
0000
0000
0100
0000
0000
0000
0000
0000
0020
0000
0000
0000
0000
0000
0000
0000
0000
0000
0000
0000
0031
0000
0000
0000
1000
0000
0000
0000
0000
0000
0001
0000
0100
0000
0000
0000
0000
0000
0010
0000
0000
1000
0000
0000
,  // measure 20
0001
0000
0000
0000
0010
0000
0000
0000
0000
0000
0100
0000
0000
0000
0000
0000
0000
0000
1000
0000
0000
0100
0000
0000
1000
0000
0000
0100
0000
0000
0010
0000
0000
0100
0000
0000
0001
0000
0000
0100
0000
0000
0001
0000
0000
0100
0000
0000
,  // measure 21
1000
0000
0001
0100
0000
0000
0010
0000
0000
0100
0000
1000
0100
0000
0000
0001
0000
0001
1000
0000
0000
0110
0000
0000
,  // measure 22
0001
0000
0000
1000
0000
0000
0001
0000
0000
0100
0000
0000
0000
0000
0000
0000
0100
0000
0010
0000
0000
0000
0100
0000
1000
0000
0000
0000
0100
0000
0000
0000
0000
0000
0100
0000
0001
0000
0000
0000
0001
0000
1000
0000
0000
0000
0000
0000
,  // measure 23
1100
0000
0000
0101
0000
0000
1002
0000
0000
0000
0000
0000
0013
0001
1000
0100
1000
0001
0100
0000
0000
1001
0000
0000
,  // measure 24
0001
0000
0000
1000
0000
0000
0100
0000
0000
1000
0000
0000
0001
0000
0000
0000
0001
0000
0010
0000
0000
0000
0010
0000
0100
0000
0000
0000
0100
0000
1000
0000
0000
0000
1000
0000
0001
0000
0000
0000
0001
0000
0100
0000
0000
0000
0000
0000
,  // measure 25
0020
0000
0000
0000
0000
0000
0130
0000
0000
0001
0000
1000
0100
0000
0000
0010
0000
0100
1000
0000
0000
0110
0000
0000
,  // measure 26
0001
0000
0010
0100
0000
0010
0000
0000
0001
1000
0000
1000
0010
0000
0100
0000
0000
0000
0000
0000
0010
1000
0000
0000
,  // measure 27
1001
0000
0000
0000
0000
0000
0001
0000
0000
0000
0000
0000
0010
0000
0000
0000
0000
0000
0010
0000
0000
0000
0001
0000
1000
0000
0000
0000
0000
0000
1000
0000
0000
0000
0001
0000
0100
0000
0000
0000
0000
0000
0010
0000
0000
1000
0000
0000
,  // measure 28
0010
0010
0100
0100
0001
0001
1000
1000
,  // measure 29
0200
0000
0000
0000
0300
0200
0000
0000
0000
0300
0000
0010
0100
0000
0000
0100
0000
0000
1000
0000
0000
0001
0000
0000
,  // measure 30
1000
1000
0010
0010
0100
0100
0010
0010
,  // measure 31
1000
0000
0000
1000
0000
0000
0002
0000
0000
0000
0003
1000
0100
0000
0100
0000
0000
0000
0010
0000
0000
0002
0000
0000
,  // measure 32
1003
0010
0001
0010
1000
0010
0001
0010
,  // measure 33
1000
0000
0000
0001
0000
0000
2000
0000
0000
3100
0000
1000
0001
0000
0000
0100
0000
0000
0010
0000
0000
2000
0000
0000
,  // measure 34
3001
0010
1000
0010
0001
0010
1000
0010
,  // measure 35
0000
0000
0000
2002
0000
0000
0000
0000
0000
3003
0000
1000
0001
0000
1000
0010
0000
0010
0100
0000
0000
0100
0000
0000
,  // measure 36
0001
0000
1000
0001
0000
0000
0100
0000
0000
0010
0000
1000
0001
0000
0001
1000
0000
0100
0000
0000
0000
0010
0000
0100
,  // measure 37
0010
0000
0010
0001
0000
0000
1000
0000
0000
0001
0000
0100
0001
0000
0000
0010
0000
0000
0100
0000
0000
1001
0000
0000
,  // measure 38
0001
0000
1000
0010
0000
0000
0100
0000
0000
0010
0000
0010
1000
0000
0001
1000
0000
0100
0000
0000
0000
0010
0000
0001
,  // measure 39
1000
0000
0000
1010
0000
0000
0012
0000
0000
0000
0000
0000
0103
0001
0010
0100
1000
0001
0100
0000
0000
1001
0000
0000
,  // measure 40
1000
0000
0001
1000
0000
0000
0010
0000
0000
0100
0000
0001
0010
0000
1000
0010
0000
0100
0000
0000
0100
0010
0000
0001
,  // measure 41
1000
0000
0001
0100
0000
0000
0010
0000
0000
1000
0000
0100
1000
0000
0000
0001
0000
0000
0010
0000
0000
1001
0000
0000
,  // measure 42
0001
0000
1000
0001
0000
0000
0100
0000
0000
0010
0000
1000
0001
0000
1000
0100
0000
0001
0000
0000
0100
0010
0000
0000
,  // measure 43
0011
0000
0000
0000
0000
0000
1100
0000
0000
0000
0000
0000
1020
0000
0000
0000
0000
0000
0000
0000
0000
0000
0000
0000
0130
0000
0001
0000
1000
0000
0100
0000
0010
0000
0001
0000
1000
0000
0000
0000
0000
0000
0010
0000
0000
0010
0000
0000
,  // measure 44
0200
0001
0000
0010
,  // measure 45
0000
0000
0000
0000
1000
0000
0000
0000
0000
0000
0000
0000
0310
0000
1000
0001
,  // measure 46
0020
0000
0000
0000
0000
0000
0130
0000
0000
0000
0000
1000
0001
0000
0000
0100
0000
0000
0100
0000
0000
0010
0000
0010
,  // measure 47
2000
0000
0000
0000
0000
0000
3100
0000
0000
0001
0000
0100
0010
0000
0000
0001
0000
0001
0100
0000
0000
1001
0000
0000
,  // measure 48
0001
0000
0000
0010
0000
0000
0100
0000
0000
0000
0000
0010
0001
0000
0000
0100
0000
0000
1000
0000
0000
0200
0000
0000
,  // measure 49
0320
0000
0000
0100
0000
0030
0100
0000
0000
0000
0000
0001
1000
0000
0000
0100
0000
0000
0100
0000
0000
1001
0000
0000
,  // measure 50
1000
0000
0000
0010
0000
0000
0001
0000
0000
0010
0000
0100
0001
0000
0000
0010
0000
0000
1000
0000
0000
0010
0000
0100
,  // measure 51
2000
0000
0000
0010
0000
3000
0001
0000
0000
0010
0000
0001
0100
0000
1000
0100
0000
0100
0010
0000
0000
1001
0000
0000
,  // measure 52
1000
0000
0000
0100
0000
0000
0010
0000
0000
1000
0000
0001
0100
0000
0000
0010
0000
0000
0001
0000
0000
2000
0000
0000
,  // measure 53
3010
0000
0000
1000
0000
0000
1002
0000
0000
0000
0000
0000
0013
0001
1000
0010
0100
0001
0010
0000
0000
2002
0000
3003
,  // measure 54
0000
0000
0000
0000
0000
0000
1000
0000
0000
0001
0000
1000
0000
0000
0000
0100
0000
0000
0010
0000
0000
0010
0000
0001
,  // measure 55
1000
0000
0000
0010
0000
0010
0100
0000
0000
0010
0000
0000
0000
0000
0000
0010
0000
0000
0001
0000
0000
0010
0000
0000
,  // measure 56
1000
0000
0000
0001
0000
0000
0010
0000
0000
0100
0000
0010
0000
0000
0000
0010
0000
0000
0001
0000
0000
1000
0000
0010
,  // measure 57
0100
0000
0000
0010
0000
0100
0001
0000
0000
0010
0000
0000
0000
0000
0000
0010
0000
0000
0100
0000
0000
0000
0000
0000
;
