#VERSION:0.83;
#TITLE:Changeling;
#SUBTITLE:;
#ARTIST:Alison Moyet;
#TITLETRANSLIT:;
#SUBTITLETRANSLIT:;
#ARTISTTRANSLIT:;
#GENRE:;
#ORIGIN:;
#CREDIT:;
#BANNER:Changeling.png;
#BACKGROUND:Changeling-bg.png;
#PREVIEWVID:;
#JACKET:;
#CDIMAGE:;
#DISCIMAGE:;
#LYRICSPATH:;
#CDTITLE:;
#MUSIC:Changeling.mp3;
#OFFSET:-9.610000;
#SAMPLESTART:46.209999;
#SAMPLELENGTH:9.600000;
#SELECTABLE:YES;
#BPMS:0.000=100.000;
#STOPS:;
#DELAYS:;
#WARPS:;
#TIMESIGNATURES:0.000=4=4;
#TICKCOUNTS:0.000=4;
#COMBOS:0.000=1;
#SPEEDS:0.000=1.000=0.000=0;
#SCROLLS:0.000=1.000;
#FAKES:;
#LABELS:0.000=Song Start;
#BGCHANGES:;
#KEYSOUNDS:;
#ATTACKS:
;

//---------------dance-single - Oni-91----------------
#NOTEDATA:;
#CHARTNAME:;
#STEPSTYPE:dance-single;
#DESCRIPTION:Oni-91;
#CHARTSTYLE:;
#DIFFICULTY:Challenge;
#METER:8;
#RADARVALUES:0.466637,0.493208,0.296110,0.277603,0.421031,353.000000,321.000000,32.000000,30.000000,0.000000,0.000000,0.000000,0.000000,0.000000,0.466637,0.493208,0.296110,0.277603,0.421031,353.000000,321.000000,32.000000,30.000000,0.000000,0.000000,0.000000,0.000000,0.000000;
#CREDIT:Oni-91;
#NOTES:
// measure 0
0200
0000
0000
0010
0000
0000
0301
0000
2002
0000
0000
0000
3003
0000
0000
0000
,  // measure 1
0200
0000
0000
0010
0000
0000
1300
0000
2001
0000
0000
0001
0000
0000
3001
0000
,  // measure 2
0002
0000
0010
0010
0020
0000
0033
0000
,  // measure 3
0001
0100
1000
0100
0010
0100
0001
1000
,  // measure 4
0200
0000
0000
1000
0000
0000
0310
0000
2002
0000
3003
0000
0000
0000
0000
0000
,  // measure 5
0001
0010
1000
0010
0100
1000
0001
0100
,  // measure 6
0002
0000
0000
0000
1000
0000
1000
0000
2000
0000
0000
3003
0000
0000
0000
0000
,  // measure 7
1000
0000
0001
0010
1000
0010
0001
0000
,  // measure 8
1000
0001
1000
0001
0100
0001
0100
0001
0100
0000
0000
0001
0000
0000
1001
0000
,  // measure 9
2000
0000
0000
0000
3010
0000
0000
0000
0001
0100
0010
0000
1000
0100
0010
0000
,  // measure 10
1000
0000
0001
0200
0000
0000
0310
0000
1010
0000
0000
1001
0000
0000
0001
0000
,  // measure 11
0010
0000
0000
0001
0000
0000
1000
0000
0001
1000
0001
1000
0001
1000
0001
0000
,  // measure 12
0100
0010
0100
0010
1000
0001
1000
0001
0010
0000
0000
0100
0000
0000
1001
0000
,  // measure 13
0002
0000
0000
0100
0000
0000
0103
0000
0010
1000
0100
0000
1000
0001
0010
0000
,  // measure 14
0100
0000
0010
0002
0000
0000
0103
0000
0110
0000
0000
1001
0000
0000
1100
0000
,  // measure 15
0001
0000
0100
0010
0000
0100
0001
0000
1000
0000
0100
0000
0010
0000
0001
0000
,  // measure 16
2001
0000
3100
0010
1001
0200
0000
0301
,  // measure 17
0100
0000
0001
0100
0000
0010
1000
0000
1001
0000
0001
0000
0010
0000
0100
0000
,  // measure 18
0002
0000
0000
0000
0103
0000
1000
0000
1001
0000
0000
0001
0000
0000
0100
0000
,  // measure 19
0001
0000
1000
0100
0000
1000
0100
0000
0011
0000
0001
0100
0010
0000
1000
0000
,  // measure 20
0001
0000
0001
0010
0000
0010
0100
1000
0002
0000
0000
0100
0000
0000
0103
0000
,  // measure 21
0010
0000
1000
0001
0000
1000
0001
0100
0010
0000
0100
0010
0100
0000
0001
0000
,  // measure 22
1000
0100
0001
0200
0000
2300
0000
3001
,  // measure 23
0220
0000
0000
0330
,  // measure 24
1001
0000
0010
0000
1000
0010
0100
0000
0001
0000
1000
0000
0001
0010
0001
0010
,  // measure 25
0100
0000
0010
0000
0001
1000
0001
0000
0100
0010
0100
0010
1000
0001
1000
0001
,  // measure 26
1000
0000
0100
0000
0010
0001
0100
0000
0001
0000
0100
0000
0010
0000
1000
0000
,  // measure 27
0200
0000
0001
0000
0000
0000
0010
0000
0010
0000
0000
1000
0000
0000
0310
0000
,  // measure 28
0100
0000
0010
0000
0001
1000
0001
1000
0001
0000
0000
0100
0000
0000
0010
0000
,  // measure 29
0100
0000
0001
0000
1000
0010
1000
0000
0001
0100
0001
0100
0010
1000
0010
1000
,  // measure 30
0001
0000
1000
0100
1000
0001
0100
0000
0010
0000
0100
0001
0000
0000
1001
0000
,  // measure 31
1000
0000
0100
1000
0000
0001
0010
0000
0001
0000
0100
0000
0010
0000
1000
0000
,  // measure 32
1001
0000
0001
0010
0000
0100
1000
0000
1001
0000
0000
0201
0000
0000
0301
0000
,  // measure 33
0100
0000
0010
1000
0000
1000
0001
0000
1001
0000
0010
0100
0010
0000
0001
0000
,  // measure 34
1000
0000
0001
0100
0000
0001
1000
0000
1100
0000
0000
0102
0000
0000
0103
0000
,  // measure 35
0010
0000
1000
0100
0000
0010
0001
0000
0011
0000
1000
0100
0010
0001
0100
0010
,  // measure 36
1000
0000
0001
0100
0000
0010
0100
0000
1001
0000
0000
0120
0000
0000
0130
0000
,  // measure 37
0010
0000
0001
1000
0000
0010
0100
0000
1001
0000
0001
1000
0001
1000
0100
0000
,  // measure 38
0010
0000
0100
1000
0000
0100
0010
0001
0011
0000
0000
0101
0000
0000
0110
0000
,  // measure 39
2002
0000
0000
0000
,  // measure 40
0000
0000
0000
0000
,  // measure 41
3003
0000
0000
0000
;

//---------------dance-single - Oni-91----------------
#NOTEDATA:;
#CHARTNAME:;
#STEPSTYPE:dance-single;
#DESCRIPTION:Oni-91;
#CHARTSTYLE:;
#DIFFICULTY:Hard;
#METER:6;
#RADARVALUES:0.276281,0.303513,0.120295,0.314617,0.092534,209.000000,196.000000,13.000000,34.000000,0.000000,0.000000,0.000000,0.000000,0.000000,0.276281,0.303513,0.120295,0.314617,0.092534,209.000000,196.000000,13.000000,34.000000,0.000000,0.000000,0.000000,0.000000,0.000000;
#CREDIT:Oni-91;
#NOTES:
// measure 0
1000
0000
0000
0001
0000
0000
0100
0000
0002
0000
0000
0000
0003
0000
0000
0000
,  // measure 1
0001
0000
0000
1000
0000
0000
0100
0000
2000
0000
0000
0000
3000
0000
0000
0000
,  // measure 2
0001
0000
0010
0100
0020
0000
0030
0000
,  // measure 3
0001
0000
1000
0000
0010
0100
0010
0100
,  // measure 4
0001
0000
0000
1000
0000
0000
0001
0000
2000
0000
0000
0000
3000
0000
0000
0000
,  // measure 5
0100
0000
0010
0001
2000
0000
3000
0000
,  // measure 6
0010
0000
0000
0100
0000
0000
0010
0000
0200
0000
0000
0000
0300
0000
0000
0000
,  // measure 7
0001
0000
1000
0001
0020
0000
0130
0000
,  // measure 8
0010
0000
0100
0000
0010
0000
0002
0000
1000
0000
0000
1000
0000
0000
1000
0000
,  // measure 9
1003
0000
0000
0001
0000
0000
0100
0000
0220
0000
0000
0000
0330
0000
0000
0000
,  // measure 10
0001
0000
0000
1000
0000
0000
0100
0000
0020
0000
0000
0000
0030
0000
0000
0000
,  // measure 11
0001
0000
0000
1000
0000
0000
0010
0000
0200
0000
0000
0000
0300
0000
0000
0000
,  // measure 12
0010
0000
0100
0000
0010
0000
2000
0000
0001
0000
0000
0001
0000
0000
0001
0000
,  // measure 13
3001
0000
0000
1000
0000
0000
0100
0000
0220
0000
0000
0000
0330
0000
0000
0000
,  // measure 14
1000
0000
0000
0001
0000
0000
0100
0000
0020
0000
0000
0000
0030
0000
0000
0000
,  // measure 15
2002
0000
0000
3003
,  // measure 16
1001
0000
0000
0001
0000
0000
0100
0000
0110
0000
0000
0000
0010
0000
0000
0000
,  // measure 17
1000
0000
0000
0001
0000
0000
1000
0000
0100
0000
0010
0000
0001
0000
1000
0000
,  // measure 18
0001
0000
0000
0100
0000
0000
0010
0000
0110
0000
0000
0000
0010
0000
0000
0000
,  // measure 19
1000
0000
0000
0001
0000
0000
0100
0000
0010
0000
1000
0000
0001
0000
0000
0000
,  // measure 20
1000
0000
0000
0100
0000
0000
0010
0000
0110
0000
0000
0000
0010
0000
0000
0000
,  // measure 21
0001
0000
0000
1000
0000
0000
0001
0000
0100
0000
0010
0000
1000
0000
0000
0000
,  // measure 22
0001
0200
0000
1000
0000
0310
0000
0000
,  // measure 23
2002
0000
0000
3003
,  // measure 24
1000
0100
1000
0100
2000
0000
3000
0000
,  // measure 25
0001
0000
0100
0000
0001
0000
0100
0000
0001
0000
0000
1000
0000
0000
0001
0000
,  // measure 26
0100
0010
1000
0001
0020
0000
0030
0000
,  // measure 27
0100
0010
0000
0110
0000
1001
0000
0001
,  // measure 28
0100
0010
1000
0010
0200
0000
0301
0000
,  // measure 29
0010
0000
0001
0000
0100
0000
0001
0000
0010
0000
0000
0100
0000
0000
0010
0000
,  // measure 30
0100
0000
0010
0000
0001
0000
0100
0000
0010
0000
0000
1000
0000
0000
0001
0000
,  // measure 31
2002
0000
3003
0000
,  // measure 32
0101
0000
0100
0010
1000
0200
0000
0310
,  // measure 33
0100
0000
0010
0001
1000
0000
0001
0100
,  // measure 34
0020
0000
1030
0100
0010
0002
0000
0103
,  // measure 35
0010
0000
1000
0001
0010
0001
1000
0010
,  // measure 36
2000
0000
3100
0001
0100
0020
0000
0031
,  // measure 37
0100
0000
0010
0100
0001
1000
0100
0010
,  // measure 38
0001
0200
0000
1000
0000
0310
0000
0100
,  // measure 39
0220
0000
0000
0000
,  // measure 40
0000
0000
0000
0000
,  // measure 41
0330
0000
0000
0000
;

//---------------dance-single - Oni-91----------------
#NOTEDATA:;
#CHARTNAME:;
#STEPSTYPE:dance-single;
#DESCRIPTION:Oni-91;
#CHARTSTYLE:;
#DIFFICULTY:Medium;
#METER:4;
#RADARVALUES:0.232658,0.227634,0.092534,0.296110,0.009253,176.000000,166.000000,10.000000,32.000000,0.000000,0.000000,0.000000,0.000000,0.000000,0.232658,0.227634,0.092534,0.296110,0.009253,176.000000,166.000000,10.000000,32.000000,0.000000,0.000000,0.000000,0.000000,0.000000;
#CREDIT:Oni-91;
#NOTES:
// measure 0
0001
0000
0000
0001
0100
0000
0000
0000
,  // measure 1
0001
0000
1000
0000
0100
0000
0010
0100
,  // measure 2
0010
0000
0000
0100
1000
0000
0000
0000
,  // measure 3
0001
0000
1000
0000
0010
0100
0010
0000
,  // measure 4
1000
0000
0000
0001
0010
0000
0000
0000
,  // measure 5
0100
0000
0010
0000
0001
1000
0001
0000
,  // measure 6
1000
0000
0000
0001
0100
0000
0010
0000
,  // measure 7
1000
0100
0020
0030
,  // measure 8
0100
0000
0010
0000
0200
0000
0000
0000
0010
0000
0000
0010
0000
0000
0020
0000
,  // measure 9
0330
0000
0001
1000
0002
0000
0000
0000
,  // measure 10
0103
0000
0010
1000
0001
0000
1000
0000
,  // measure 11
0001
0000
1000
0100
0010
0000
0001
0000
,  // measure 12
1000
0000
0000
0000
0001
0000
1000
0000
0002
0000
0000
1000
0000
0000
2000
0000
,  // measure 13
3003
0000
0001
1000
0200
0000
0300
0000
,  // measure 14
0010
0000
0100
0010
0100
0000
0010
0000
,  // measure 15
2002
0000
0000
3003
,  // measure 16
1001
0000
0001
0100
0010
0000
1000
0000
,  // measure 17
0001
0000
0010
0001
0100
0000
0010
0000
,  // measure 18
0100
0000
0001
0100
1000
0000
0100
0000
,  // measure 19
0001
0000
1000
0100
0001
0000
0100
0000
,  // measure 20
0010
0000
0001
1000
0001
0000
1000
0000
,  // measure 21
0010
0000
0100
0010
0100
0000
0010
0000
,  // measure 22
1000
0001
0000
1000
0000
0001
0000
0000
,  // measure 23
0220
0000
0330
0000
,  // measure 24
0010
1000
0001
0000
2002
0000
3003
0000
,  // measure 25
0001
1000
0100
0000
0220
0000
0330
0000
,  // measure 26
0010
0001
0010
0000
2002
0000
3003
0000
,  // measure 27
0100
1000
0100
0000
2002
0000
3003
0000
,  // measure 28
0001
0100
0001
0100
0020
0000
0030
0000
,  // measure 29
1000
0100
1000
0100
0020
0000
0030
0000
,  // measure 30
1000
0001
1000
0001
2000
0000
3000
0000
,  // measure 31
0220
0000
0330
0000
,  // measure 32
1001
0000
0001
1000
0200
0000
0310
0000
,  // measure 33
0001
0000
0010
0001
2000
0000
3010
0000
,  // measure 34
0100
0000
0010
1000
0002
0000
0003
0000
,  // measure 35
1000
0000
0010
1000
0002
0000
0013
0000
,  // measure 36
0001
0000
0100
0010
0200
0000
0301
0000
,  // measure 37
0100
0000
0010
0100
0002
0000
1003
0000
,  // measure 38
0100
0010
0000
0001
0000
1000
0000
0000
,  // measure 39
0220
0000
0000
0000
,  // measure 40
0000
0000
0000
0000
,  // measure 41
0330
0000
0000
0000
;

//---------------dance-single - Oni-91----------------
#NOTEDATA:;
#CHARTNAME:;
#STEPSTYPE:dance-single;
#DESCRIPTION:Oni-91;
#CHARTSTYLE:;
#DIFFICULTY:Easy;
#METER:2;
#RADARVALUES:0.148055,0.170726,0.046267,0.064774,0.000000,112.000000,107.000000,5.000000,7.000000,0.000000,0.000000,0.000000,0.000000,0.000000,0.148055,0.170726,0.046267,0.064774,0.000000,112.000000,107.000000,5.000000,7.000000,0.000000,0.000000,0.000000,0.000000,0.000000;
#CREDIT:Oni-91;
#NOTES:
// measure 0
0001
0000
0100
0000
,  // measure 1
0001
0000
1000
0000
,  // measure 2
0100
0000
1000
0000
,  // measure 3
0001
0000
0010
0000
,  // measure 4
0100
0000
0100
0000
,  // measure 5
0010
0000
0010
0000
,  // measure 6
0001
0000
0001
0000
,  // measure 7
1000
0000
1001
0000
,  // measure 8
0001
0001
0001
0000
0001
0000
0000
0000
,  // measure 9
0100
0010
0100
0000
,  // measure 10
0010
1000
0001
0000
,  // measure 11
1000
0001
0010
0000
,  // measure 12
0100
0100
0100
0000
0100
0000
0000
0000
,  // measure 13
0010
0001
1000
0000
,  // measure 14
0001
0100
0010
0000
,  // measure 15
2002
0000
3003
0000
,  // measure 16
0001
0010
0100
0010
,  // measure 17
0001
0000
1000
0000
,  // measure 18
0001
0100
0010
0100
,  // measure 19
0001
0000
1000
0000
,  // measure 20
0100
0010
0100
1000
,  // measure 21
0100
0000
1000
0000
,  // measure 22
0001
0010
0100
0010
,  // measure 23
0002
0000
0003
0000
,  // measure 24
1001
0000
0001
0000
,  // measure 25
0100
0010
1000
0000
,  // measure 26
0001
0000
1000
0000
,  // measure 27
0100
0010
0001
0000
,  // measure 28
1000
0000
0001
0000
,  // measure 29
0100
0010
0100
0000
,  // measure 30
0001
0000
1000
0000
,  // measure 31
2002
0000
3003
0000
,  // measure 32
0001
1000
1000
0001
,  // measure 33
0100
0000
0010
0100
,  // measure 34
0001
1000
1000
0001
,  // measure 35
0010
0000
0100
0010
,  // measure 36
0001
0100
0100
0010
,  // measure 37
1000
0000
0001
1000
,  // measure 38
0100
0010
0001
1000
,  // measure 39
2002
0000
0000
0000
,  // measure 40
0000
0000
0000
0000
,  // measure 41
3003
0000
0000
0000
;

//---------------dance-single - Oni-91----------------
#NOTEDATA:;
#CHARTNAME:;
#STEPSTYPE:dance-single;
#DESCRIPTION:Oni-91;
#CHARTSTYLE:;
#DIFFICULTY:Beginner;
#METER:1;
#RADARVALUES:0.100466,0.113817,0.037014,0.018507,0.000000,76.000000,72.000000,4.000000,2.000000,0.000000,0.000000,0.000000,0.000000,0.000000,0.100466,0.113817,0.037014,0.018507,0.000000,76.000000,72.000000,4.000000,2.000000,0.000000,0.000000,0.000000,0.000000,0.000000;
#CREDIT:Oni-91;
#NOTES:
// measure 0
1000
0000
0000
0000
,  // measure 1
0001
0000
0100
0000
,  // measure 2
0001
0000
0000
0000
,  // measure 3
0100
0000
0010
0000
,  // measure 4
0100
0000
0000
0000
,  // measure 5
0010
0000
1000
0000
,  // measure 6
0001
0000
0000
0000
,  // measure 7
1000
0000
0000
0000
,  // measure 8
0100
0100
0100
0000
,  // measure 9
0100
0000
0010
0000
,  // measure 10
0001
0000
1000
0000
,  // measure 11
0001
0001
0001
0000
,  // measure 12
1000
0000
0001
0000
,  // measure 13
0100
0000
0010
0000
,  // measure 14
0100
0000
0001
0000
,  // measure 15
1001
0000
0000
0000
,  // measure 16
1000
0000
0001
0000
,  // measure 17
0010
0000
0100
0000
,  // measure 18
0010
0000
0001
0000
,  // measure 19
1000
0000
0000
0000
,  // measure 20
0001
0000
0100
0000
,  // measure 21
0010
0000
1000
0000
,  // measure 22
0001
0000
1000
0000
,  // measure 23
1001
0000
0000
0000
,  // measure 24
1000
0000
1000
0000
,  // measure 25
0100
0000
0001
0000
,  // measure 26
0100
0000
0100
0000
,  // measure 27
0010
0000
0001
0000
,  // measure 28
1000
0000
1000
0000
,  // measure 29
0010
0000
0100
0000
,  // measure 30
0001
0000
0001
0000
,  // measure 31
1001
0000
0000
0000
,  // measure 32
1000
0000
0100
0000
,  // measure 33
0010
0000
0001
0000
,  // measure 34
0100
0000
0001
0000
,  // measure 35
0100
0000
0010
0000
,  // measure 36
1000
0000
0001
0000
,  // measure 37
1000
0000
0100
0000
,  // measure 38
0010
0000
0100
0000
,  // measure 39
2002
0000
0000
0000
,  // measure 40
0000
0000
0000
0000
,  // measure 41
3003
0000
0000
0000
;
