#VERSION:0.83;
#TITLE:Carillon;
#SUBTITLE:;
#ARTIST:Magic Box;
#TITLETRANSLIT:;
#SUBTITLETRANSLIT:;
#ARTISTTRANSLIT:;
#GENRE:;
#ORIGIN:;
#CREDIT:;
#BANNER:Carillon.png;
#BACKGROUND:Carillon-bg.png;
#PREVIEWVID:;
#JACKET:;
#CDIMAGE:;
#DISCIMAGE:;
#LYRICSPATH:;
#CDTITLE:;
#MUSIC:Carillon.mp3;
#OFFSET:-7.050000;
#SAMPLESTART:80.720001;
#SAMPLELENGTH:14.030000;
#SELECTABLE:YES;
#DISPLAYBPM:137.000000;
#BPMS:0.000=136.800,
232.000=134.000,
234.000=128.000,
236.000=123.000,
238.000=116.000,
240.000=114.000,
242.000=105.000,
244.000=100.000,
246.000=98.000;
#STOPS:;
#DELAYS:;
#WARPS:;
#TIMESIGNATURES:0.000=4=4;
#TICKCOUNTS:0.000=4;
#COMBOS:0.000=1;
#SPEEDS:0.000=1.000=0.000=0;
#SCROLLS:0.000=1.000;
#FAKES:;
#LABELS:0.000=Song Start;
#BGCHANGES:;
#KEYSOUNDS:;
#ATTACKS:
;

//---------------dance-single - Oni-91----------------
#NOTEDATA:;
#CHARTNAME:;
#STEPSTYPE:dance-single;
#DESCRIPTION:Oni-91;
#CHARTSTYLE:;
#DIFFICULTY:Hard;
#METER:6;
#RADARVALUES:0.366260,0.388815,0.159192,0.150813,0.000000,306.000000,287.000000,19.000000,18.000000,0.000000,0.000000,0.000000,0.000000,0.000000,0.366260,0.388815,0.159192,0.150813,0.000000,306.000000,287.000000,19.000000,18.000000,0.000000,0.000000,0.000000,0.000000,0.000000;
#CREDIT:Oni-91;
#DISPLAYBPM:137.000000;
#NOTES:
// measure 0
1000
0000
0001
0100
0001
0000
1000
0000
,  // measure 1
0100
0000
0010
0001
0010
0000
0001
1000
,  // measure 2
0001
0000
1000
0010
1000
0000
0010
0000
,  // measure 3
0100
0000
0001
1000
0100
0010
0100
1000
,  // measure 4
0002
0010
1000
0100
,  // measure 5
1003
0000
0001
1000
0010
0100
0010
0000
,  // measure 6
2001
0000
0001
0000
0001
0001
0002
0000
,  // measure 7
0000
0000
3003
0000
0100
0010
0100
0000
,  // measure 8
1020
0000
1000
0000
1000
1000
2000
0000
,  // measure 9
0000
0000
0000
3030
,  // measure 10
1002
0000
0100
0000
0010
0010
0020
0000
,  // measure 11
0000
0000
0033
0000
0001
1000
0001
0000
,  // measure 12
2000
0000
0010
0000
0001
0001
0002
0000
,  // measure 13
0000
0000
0000
3003
,  // measure 14
0110
0000
0100
0100
0100
0000
0010
0000
,  // measure 15
0100
0001
0000
0001
1000
0000
0100
0000
,  // measure 16
0010
0000
0001
0001
0001
0000
1000
0000
,  // measure 17
0001
0100
0000
0100
0010
0000
1000
0000
,  // measure 18
0001
0000
1000
1000
1000
0000
0100
0000
,  // measure 19
0001
0100
0000
0100
1000
0000
0001
0000
,  // measure 20
2002
0000
0000
0000
,  // measure 21
3003
0000
0000
0000
,  // measure 22
1001
0000
1000
0100
0001
0100
1000
0000
,  // measure 23
0001
0010
0100
0010
,  // measure 24
0001
0000
1000
0010
0001
0010
1000
0000
,  // measure 25
0001
0010
0110
1001
,  // measure 26
1000
0000
0010
0100
0001
0100
0010
0000
,  // measure 27
1000
0001
1000
0100
,  // measure 28
0010
0000
0100
0010
0001
0010
0100
0000
,  // measure 29
0010
0001
1001
2010
,  // measure 30
3001
0000
1000
0001
1000
0001
0100
0000
,  // measure 31
0010
0000
0100
0000
0010
1000
0010
0000
,  // measure 32
1000
0000
0001
0010
0001
0010
0100
0000
,  // measure 33
0010
0001
0011
0010
,  // measure 34
0110
0000
0100
1000
0100
0010
0001
0000
,  // measure 35
1000
0000
0010
0100
0001
1000
0100
0000
,  // measure 36
0011
0001
1000
0001
,  // measure 37
1000
0001
1000
0001
0100
0010
0100
0020
,  // measure 38
0000
0000
0000
0000
,  // measure 39
0000
0000
0000
0030
,  // measure 40
2002
0000
0000
0000
,  // measure 41
0000
0000
0000
3003
,  // measure 42
1000
0000
0001
1000
0001
0000
0010
0000
,  // measure 43
0100
0000
0010
0000
0001
0000
0100
0001
,  // measure 44
0100
0000
0010
1000
0010
0000
1000
0000
,  // measure 45
0100
0000
0010
0000
0100
0000
1000
0100
,  // measure 46
1100
0000
0001
0010
0100
0000
0010
0000
,  // measure 47
0001
0000
1000
0010
0100
0000
0010
0100
,  // measure 48
0001
0000
1000
0001
1000
0000
0001
0000
,  // measure 49
0010
0001
0000
2002
0000
0000
3003
0000
,  // measure 50
1001
0000
1000
0010
1000
0010
1000
0000
,  // measure 51
0001
0000
0010
0000
0100
0000
0010
0001
,  // measure 52
0010
0000
0001
1000
0010
1000
0001
0000
,  // measure 53
0100
0000
0010
0000
0100
0000
0010
1000
,  // measure 54
0100
0000
0010
0100
0010
0001
0010
0000
,  // measure 55
0001
0000
1000
0010
0100
0000
0010
0100
,  // measure 56
0001
0000
1000
0100
0010
0001
1000
0000
,  // measure 57
0102
0000
0103
0000
0100
0010
1000
0001
,  // measure 58
1001
0000
1000
0001
1000
0001
0100
0000
,  // measure 59
0010
0000
0100
0010
0100
0010
1000
0001
,  // measure 60
1000
0000
0001
1000
0001
1000
0100
0000
,  // measure 61
0010
0000
0100
0010
0001
0010
0100
1000
;

//---------------dance-single - Oni-91----------------
#NOTEDATA:;
#CHARTNAME:;
#STEPSTYPE:dance-single;
#DESCRIPTION:Oni-91;
#CHARTSTYLE:;
#DIFFICULTY:Medium;
#METER:5;
#RADARVALUES:0.317186,0.336973,0.117299,0.184327,0.000000,265.000000,251.000000,14.000000,22.000000,0.000000,0.000000,0.000000,0.000000,0.000000,0.317186,0.336973,0.117299,0.184327,0.000000,265.000000,251.000000,14.000000,22.000000,0.000000,0.000000,0.000000,0.000000,0.000000;
#CREDIT:Oni-91;
#DISPLAYBPM:137.000000;
#NOTES:
// measure 0
1000
0000
0001
1000
0001
0000
1000
0000
,  // measure 1
0001
0000
0100
0000
0010
0000
0100
0010
,  // measure 2
0100
0000
0010
0100
0010
0000
1000
0000
,  // measure 3
0001
0000
1000
0000
0100
0000
0010
0001
,  // measure 4
0020
0100
0001
0130
,  // measure 5
0010
0000
0001
1000
0001
0000
1000
0000
,  // measure 6
2001
0001
0010
0020
,  // measure 7
0000
0000
3030
0000
0001
0100
0001
0000
,  // measure 8
0210
0010
0001
0002
,  // measure 9
0000
0000
0000
0303
,  // measure 10
2001
0001
0010
0020
,  // measure 11
0000
0000
3030
0000
1000
0001
1000
0000
,  // measure 12
0002
0010
0100
0200
,  // measure 13
0000
0000
0000
0303
,  // measure 14
1001
1000
0100
0010
,  // measure 15
0001
0000
0000
0001
0100
0000
1000
0000
,  // measure 16
0100
0001
1000
0100
,  // measure 17
0010
0000
0000
0001
0010
0000
0100
0000
,  // measure 18
0010
0000
0001
0010
0001
0000
1000
0000
,  // measure 19
0010
0000
0000
0100
0001
0000
1000
0000
,  // measure 20
2002
0000
0000
0000
,  // measure 21
3003
0000
0000
0000
,  // measure 22
1001
0000
0001
0000
0100
0001
0100
0000
,  // measure 23
0010
0000
1000
0000
0001
0000
1000
0100
,  // measure 24
1000
0000
0001
0000
0010
0001
0100
0000
,  // measure 25
0020
1000
0200
0330
,  // measure 26
1010
0000
1000
0000
0100
1000
0100
0000
,  // measure 27
0010
0000
0001
0000
0100
0000
0010
0100
,  // measure 28
0010
0000
1000
0000
0010
1000
0001
0000
,  // measure 29
1000
0010
0100
0002
,  // measure 30
1003
0000
0001
0000
0010
0001
0100
0000
,  // measure 31
0010
0000
1000
0000
0001
0000
1000
0001
,  // measure 32
1000
0000
0010
0000
0100
0001
0010
0000
,  // measure 33
0200
0000
0000
1000
2000
0000
3300
0000
,  // measure 34
1000
0000
0010
0000
0100
0001
0100
0000
,  // measure 35
0001
1000
1100
0011
,  // measure 36
1001
0001
0100
0001
,  // measure 37
1001
0000
0010
0000
0100
0001
0100
0002
,  // measure 38
0000
0000
0000
0000
,  // measure 39
0000
0000
0000
0003
,  // measure 40
0220
0000
0000
0000
,  // measure 41
0000
0000
0000
0330
,  // measure 42
1000
0001
0010
0100
,  // measure 43
0010
0000
0001
0000
1000
0000
0001
0100
,  // measure 44
0001
1000
0010
0100
,  // measure 45
0001
0000
1000
0000
0100
0000
1000
0100
,  // measure 46
1000
0001
0010
0100
,  // measure 47
0010
0000
0001
0000
1000
0000
0001
1000
,  // measure 48
0001
0000
1000
0001
1000
0000
0001
0000
,  // measure 49
0100
0010
0000
2002
0000
0000
3003
0000
,  // measure 50
1100
0000
0010
0001
0010
0000
0001
0000
,  // measure 51
0100
0000
0010
1000
0010
0000
0100
0001
,  // measure 52
0100
0000
0001
1000
0100
0000
0010
0000
,  // measure 53
0100
0000
0010
0001
0100
0000
0010
1000
,  // measure 54
0001
0000
0010
0001
0100
0000
0010
0000
,  // measure 55
1000
0000
0001
1000
0100
0000
0010
0001
,  // measure 56
1000
0000
0001
1000
0001
0000
1000
0000
,  // measure 57
0020
0000
0130
0000
1000
0001
1000
0001
,  // measure 58
0100
0010
0100
0001
,  // measure 59
1000
0000
0001
0010
0001
0000
1000
0100
,  // measure 60
1000
0001
0100
0010
,  // measure 61
1000
0000
0001
0100
0001
0000
1000
0010
;

//---------------dance-single - Oni-91----------------
#NOTEDATA:;
#CHARTNAME:;
#STEPSTYPE:dance-single;
#DESCRIPTION:Oni-91;
#CHARTSTYLE:;
#DIFFICULTY:Easy;
#METER:3;
#RADARVALUES:0.235795,0.232818,0.067028,0.075407,0.000000,197.000000,189.000000,8.000000,9.000000,0.000000,0.000000,0.000000,0.000000,0.000000,0.235795,0.232818,0.067028,0.075407,0.000000,197.000000,189.000000,8.000000,9.000000,0.000000,0.000000,0.000000,0.000000,0.000000;
#CREDIT:Oni-91;
#DISPLAYBPM:137.000000;
#NOTES:
// measure 0
1000
0000
0001
0100
,  // measure 1
0001
0000
1000
0100
,  // measure 2
1000
0000
0001
1000
,  // measure 3
0001
0000
0100
0010
,  // measure 4
0100
0000
0001
1000
,  // measure 5
0200
0000
0300
0000
,  // measure 6
1001
0000
1000
0001
,  // measure 7
0100
0000
0010
0100
,  // measure 8
0010
1000
0001
1000
,  // measure 9
0200
0000
0300
0000
,  // measure 10
0010
0001
0010
0001
,  // measure 11
0000
1000
0001
1000
,  // measure 12
0010
0100
0010
0100
,  // measure 13
0001
0000
1000
0001
,  // measure 14
1001
0000
0001
1000
,  // measure 15
0010
0000
0100
0010
,  // measure 16
0100
0001
1000
0100
,  // measure 17
2000
0000
3001
0000
,  // measure 18
1000
0001
0100
0001
,  // measure 19
0010
0000
0100
1000
,  // measure 20
2002
0000
0000
0000
,  // measure 21
3003
0000
0000
0000
,  // measure 22
1001
0001
0100
1000
,  // measure 23
0100
0000
0010
0100
,  // measure 24
0001
0010
0100
0010
,  // measure 25
0001
0000
1000
0001
,  // measure 26
1000
0100
0010
0001
,  // measure 27
0100
0000
0010
0100
,  // measure 28
0010
1000
0001
1000
,  // measure 29
0100
0010
0001
0200
,  // measure 30
0310
0010
1000
0100
,  // measure 31
1000
0000
0001
0010
,  // measure 32
0100
0100
0010
0001
,  // measure 33
1000
0000
0001
0100
,  // measure 34
1000
0100
0001
0010
,  // measure 35
0100
0010
0001
1000
,  // measure 36
0001
1000
0010
0100
,  // measure 37
0010
0010
0100
0200
,  // measure 38
0000
0000
0000
0000
,  // measure 39
0000
0000
0000
0300
,  // measure 40
2002
0000
0000
0000
,  // measure 41
0000
0000
0000
3003
,  // measure 42
1001
0000
0010
0001
,  // measure 43
0010
0000
0100
1000
,  // measure 44
0100
0000
0010
0001
,  // measure 45
0100
0000
0010
1000
,  // measure 46
0100
1000
0001
0100
,  // measure 47
0000
0010
0100
0001
,  // measure 48
1000
0100
0010
0100
,  // measure 49
0010
0000
0001
1000
,  // measure 50
1001
0000
0001
0100
,  // measure 51
0001
0010
0100
0010
,  // measure 52
0001
0000
1000
0001
,  // measure 53
1000
0010
0100
0001
,  // measure 54
0100
0000
0010
0100
,  // measure 55
0001
0010
0100
0010
,  // measure 56
0001
1000
0001
1000
,  // measure 57
0001
0000
1000
0001
,  // measure 58
1001
0000
1000
0010
,  // measure 59
0100
0001
0100
0010
,  // measure 60
1000
0000
0001
0010
,  // measure 61
0100
1000
0100
0010
;

//---------------dance-single - Oni-91----------------
#NOTEDATA:;
#CHARTNAME:;
#STEPSTYPE:dance-single;
#DESCRIPTION:Oni-91;
#CHARTSTYLE:;
#DIFFICULTY:Beginner;
#METER:1;
#RADARVALUES:0.113708,0.155212,0.075407,0.000000,0.000000,95.000000,86.000000,9.000000,0.000000,0.000000,0.000000,0.000000,0.000000,0.000000,0.113708,0.155212,0.075407,0.000000,0.000000,95.000000,86.000000,9.000000,0.000000,0.000000,0.000000,0.000000,0.000000,0.000000;
#CREDIT:Oni-91;
#DISPLAYBPM:137.000000;
#NOTES:
// measure 0
1000
0000
0100
0000
,  // measure 1
1000
0000
0000
0000
,  // measure 2
0001
0000
0010
0000
,  // measure 3
0001
0000
0000
0000
,  // measure 4
1000
0000
0000
0000
,  // measure 5
0001
0000
0000
0000
,  // measure 6
1001
0000
0000
0000
,  // measure 7
0000
0000
1000
0000
,  // measure 8
1000
0000
0000
0000
,  // measure 9
0001
0000
0000
0000
,  // measure 10
0100
0000
0000
0000
,  // measure 11
0000
0000
0010
0000
,  // measure 12
0010
0000
0000
0000
,  // measure 13
0100
0000
0000
0000
,  // measure 14
1001
0000
0000
0000
,  // measure 15
1000
0000
0100
0000
,  // measure 16
1000
0000
0000
0000
,  // measure 17
0001
0000
0000
0000
,  // measure 18
0100
0000
0010
0000
,  // measure 19
0100
0000
0000
0000
,  // measure 20
0001
0000
0000
0000
,  // measure 21
1001
0000
0000
0000
,  // measure 22
0110
0000
0100
0000
,  // measure 23
0010
0000
1000
0000
,  // measure 24
0001
0000
1000
0000
,  // measure 25
0100
0000
0000
0000
,  // measure 26
0010
0000
0001
0000
,  // measure 27
0100
0000
0010
0000
,  // measure 28
1000
0000
0001
0000
,  // measure 29
1000
0000
0010
0000
,  // measure 30
0000
0000
0100
0000
,  // measure 31
0010
0000
1000
0000
,  // measure 32
0001
0000
1000
0000
,  // measure 33
0100
0000
0000
0000
,  // measure 34
0010
0000
0100
0000
,  // measure 35
0010
0000
0001
0000
,  // measure 36
1000
0000
0001
0000
,  // measure 37
1001
0000
0000
0000
,  // measure 38
0000
0000
0000
0000
,  // measure 39
0000
0000
0000
0000
,  // measure 40
0110
0000
0000
0000
,  // measure 41
0000
0000
0000
0000
,  // measure 42
1001
0000
0000
0000
,  // measure 43
0000
0000
0000
0000
,  // measure 44
0000
0000
0000
0000
,  // measure 45
0000
0000
0000
0000
,  // measure 46
1000
0000
0100
0000
,  // measure 47
1000
0000
0000
0000
,  // measure 48
0001
0000
0100
0000
,  // measure 49
0001
0000
1000
0000
,  // measure 50
1001
0000
0001
0000
,  // measure 51
0010
0000
0100
0000
,  // measure 52
1000
0000
0100
0000
,  // measure 53
0010
0000
0001
0000
,  // measure 54
1000
0000
0001
0000
,  // measure 55
0100
0000
0010
0000
,  // measure 56
1000
0000
0001
0000
,  // measure 57
0010
0000
0100
0000
,  // measure 58
0110
0000
0000
0000
,  // measure 59
1000
0000
0001
0000
,  // measure 60
0100
0000
0000
0000
,  // measure 61
0010
0000
0100
0100
;
