#TITLE:C'est dans l'air;
#SUBTITLE:;
#ARTIST:Mylène Farmer;
#TITLETRANSLIT:;
#SUBTITLETRANSLIT:;
#ARTISTTRANSLIT:;
#GENRE:;
#CREDIT:;
#BANNER:C'est dans l'air.png;
#BACKGROUND:C'est dans l'air-bg.png;
#LYRICSPATH:;
#CDTITLE:;
#MUSIC:C'est dans l'air.mp3;
#OFFSET:-1.950000;
#SAMPLESTART:64.750000;
#SAMPLELENGTH:15.360000;
#SELECTABLE:YES;
#BPMS:0.000000=124.999992
;
#STOPS:
;
#BGCHANGES:3.000=C'est dans l'air.avi=1.000=0=0=0=StretchNoLoop====,
242.000=C'est dans l'air.avi=0.000=0=0=1=====,
99999=-nosongbg-=1.000=0=0=0 // don't automatically add -songbackground-
;
#KEYSOUNDS:;
#ATTACKS:;

//---------------dance-single - Oni-91----------------
#NOTES:
     dance-single:
     :
     Challenge:
     8:
     0.531402,0.558812,0.184731,0.125953,0.281295,443.000000,421.000000,22.000000,15.000000,0.000000,0.000000,0.531402,0.558812,0.184731,0.125953,0.281295,443.000000,421.000000,22.000000,15.000000,0.000000,0.000000:
// measure 0
0000
0000
0000
1001
,  // measure 1
0110
0000
0100
0000
0010
0100
0010
0001
,  // measure 2
1000
0010
0000
0100
0010
0000
1001
0000
,  // measure 3
1100
0000
0011
0000
0010
1000
0001
0100
,  // measure 4
0010
0001
0000
0010
0001
0000
1001
0000
,  // measure 5
1000
0000
0010
0100
0001
0000
1000
0000
,  // measure 6
0010
0100
0001
0010
0100
0000
0010
0000
,  // measure 7
0100
0000
0010
0001
1000
0000
0010
0000
,  // measure 8
0210
0000
0000
0000
0010
0000
0000
0010
0310
0000
0000
0000
1001
0000
0000
0000
,  // measure 9
0011
0000
0000
0000
1100
0000
0000
0000
0010
0000
0000
0001
0000
0010
0001
0000
,  // measure 10
1000
0100
0001
0100
1000
0000
0001
0000
,  // measure 11
1000
0000
0000
0000
0010
0000
0000
0000
1000
0000
0010
1000
0000
0010
1000
0000
,  // measure 12
0001
0000
1000
0000
0100
0000
0010
0000
0001
0000
0000
0000
1000
0000
0000
1000
,  // measure 13
0001
0000
0000
0000
0010
0000
0000
0000
0100
0000
0000
0010
0000
0100
0010
0000
,  // measure 14
0100
1000
0001
0100
0010
0000
0100
0000
,  // measure 15
0001
0000
0000
0000
1000
0000
0000
0000
0001
0000
0010
0001
0000
1000
0100
0000
,  // measure 16
2000
0000
0000
3001
,  // measure 17
1001
0000
0000
0000
1000
0000
0000
0000
0001
0000
0000
0000
0100
0010
0100
0000
,  // measure 18
0010
0000
0100
0000
0001
0000
0000
0000
1000
0010
1000
0000
0001
0100
0001
0000
,  // measure 19
1000
0000
0000
0000
0011
0000
0000
0000
1001
0000
0000
0000
0001
0100
0001
0000
,  // measure 20
1000
0000
0100
0000
0010
0000
0001
0000
1000
0001
1000
0000
0001
0100
0001
0000
,  // measure 21
0100
0000
0000
0000
0110
0000
0000
0000
1001
0000
0000
0000
1000
0001
1000
0000
,  // measure 22
0001
0000
0010
0000
0100
0000
0010
0000
0001
0010
0001
0000
1000
0100
1000
0000
,  // measure 23
0001
0000
0000
0000
0100
0000
0001
0100
0000
0000
0001
0000
0100
0000
0020
0000
,  // measure 24
1000
0000
0000
0000
1000
0000
0000
0000
1030
0010
1000
0000
0001
1000
0001
0000
,  // measure 25
1001
0000
1000
0100
0001
0100
0001
0100
,  // measure 26
1000
0000
0001
0000
0100
0000
0010
0000
1000
0010
1000
0010
0100
0001
0100
0001
,  // measure 27
0010
0000
0001
0010
1000
0100
1000
0010
,  // measure 28
0001
0000
1000
0000
0001
0000
0100
0000
0001
0010
0001
0010
0100
1000
0100
1000
,  // measure 29
0001
0000
1000
0010
0001
0010
1000
0100
,  // measure 30
0010
0000
0100
0000
1000
0000
0001
0000
0100
0010
0100
0010
1000
0001
1000
0001
,  // measure 31
1000
0000
0100
0000
0010
0000
0001
0010
0000
0000
0001
0000
0100
0000
0010
0000
,  // measure 32
2002
0000
0000
3003
,  // measure 33
0110
0000
0000
0000
0010
0000
1000
0200
0000
0000
0000
0000
0310
0000
0001
0200
,  // measure 34
0000
0000
0000
0000
0310
0000
1000
0001
0000
0000
0001
0000
0010
0000
0100
0000
,  // measure 35
0010
0001
0100
1000
0010
1000
0100
0001
,  // measure 36
0010
0001
0100
0010
1000
0010
0100
0001
,  // measure 37
1000
0000
0000
0000
0001
0000
0010
0002
0000
0000
0000
0000
1003
0000
0010
2000
,  // measure 38
0000
0000
0000
0000
3001
0000
0010
0001
0000
0000
0001
0000
0100
0000
1000
0000
,  // measure 39
0100
0010
1000
0100
0001
0100
1000
0010
,  // measure 40
0100
0000
0010
0000
0100
0000
0001
1000
0000
0001
0000
1000
0100
0000
0010
0000
,  // measure 41
0110
0000
0000
0000
0100
0000
0010
0001
0000
0000
0001
0000
0100
0000
0010
1000
,  // measure 42
0000
0000
1000
0000
0100
0000
0010
0001
0000
0000
0001
0000
0100
0000
0010
0000
,  // measure 43
1000
0100
0001
0100
1000
0010
0001
0010
,  // measure 44
1000
0100
0001
0100
0010
0001
0100
0010
,  // measure 45
1000
0000
0000
0000
0001
0000
0010
0001
0000
0000
0010
0000
0001
0000
1000
0010
,  // measure 46
0000
0000
1000
0000
0001
0000
0010
0001
0000
0000
1000
0000
0010
0000
1000
0000
,  // measure 47
0001
0010
0100
0001
0100
1000
0010
0100
,  // measure 48
1000
0000
0100
0000
0001
0000
0100
0010
0000
0010
1000
0000
0100
0000
0010
0000
,  // measure 49
0210
0000
1000
0000
0310
0001
1000
0001
,  // measure 50
0100
0010
0100
1000
0100
0001
1000
0100
,  // measure 51
0020
0000
0001
0000
0130
0010
0001
0010
,  // measure 52
0001
0000
0100
0000
1000
0000
0001
0000
0010
0000
1000
0000
0001
0000
1000
0002
,  // measure 53
0000
0000
1003
0100
0010
0100
1000
0010
,  // measure 54
0200
0010
1000
0301
,  // measure 55
0100
0001
0010
0100
0010
0100
1000
0001
,  // measure 56
0100
0000
0001
0000
0010
0000
0100
0000
0010
0100
0000
0010
0100
0000
0000
0000
,  // measure 57
1002
0000
0000
1000
0000
1000
0000
0000
1000
0000
0000
0000
0100
0000
0100
0000
,  // measure 58
0100
0000
0000
0010
0000
0010
0000
0020
0000
0000
0000
0000
0033
0000
0000
0001
,  // measure 59
1000
0001
0000
1000
0000
0000
0001
0000
1000
0000
0000
0001
1000
0001
1000
0010
,  // measure 60
0100
0000
0010
0000
0000
0100
0000
0000
0110
0000
0000
0000
0000
0000
0000
0000
;

//---------------dance-single - Oni-91----------------
#NOTES:
     dance-single:
     :
     Hard:
     7:
     0.398252,0.406408,0.167937,0.151144,0.096564,332.000000,312.000000,20.000000,18.000000,0.000000,0.000000,0.398252,0.406408,0.167937,0.151144,0.096564,332.000000,312.000000,20.000000,18.000000,0.000000,0.000000:
// measure 0
0000
0000
0000
1001
,  // measure 1
0001
1000
0001
0010
,  // measure 2
0100
0010
0100
1000
0100
0000
0010
0000
,  // measure 3
0001
1000
0001
1000
,  // measure 4
0010
0100
0010
0100
0001
0000
1000
0000
,  // measure 5
0001
0000
0010
0001
0100
0000
0010
0000
,  // measure 6
1000
0010
0100
0001
0100
0000
0010
0000
,  // measure 7
1000
0000
0001
1000
0001
0000
1000
0000
,  // measure 8
0010
0000
0000
0000
0100
0000
0000
0010
0100
0000
0000
0000
0010
0000
0000
0000
,  // measure 9
1000
0000
0000
0000
0001
0000
0000
0000
1000
0000
0000
0001
0000
0000
1000
0000
,  // measure 10
0001
1000
0100
0010
,  // measure 11
0100
0000
0000
0000
0010
0000
0000
0000
0100
0000
0000
0010
0000
0000
0100
0000
,  // measure 12
0010
0000
0000
0000
0001
0000
0000
0001
1000
0000
0000
0000
0001
0000
0000
0000
,  // measure 13
1000
0000
0000
0000
0010
0000
0000
0000
0100
0000
0000
0001
0000
0000
0100
0000
,  // measure 14
0001
0100
0010
1000
,  // measure 15
0001
0000
0000
0000
1000
0000
0000
0000
0001
0000
1000
0001
0000
1000
0001
0000
,  // measure 16
0200
0000
0000
0310
,  // measure 17
1001
0000
1000
0000
0001
0000
0100
0010
,  // measure 18
1000
0010
0100
0000
1010
0000
0101
0000
,  // measure 19
0001
0000
0100
0000
0001
0010
0100
1000
,  // measure 20
0100
0010
0001
0000
1001
0000
1010
0000
,  // measure 21
0010
0000
1000
0000
0001
0000
1000
0100
,  // measure 22
1000
0001
0100
0000
0101
0000
1001
0000
,  // measure 23
1000
0000
0001
0000
0010
0001
0100
0020
,  // measure 24
0100
0100
0100
0130
,  // measure 25
1001
0000
1000
0100
0001
0000
1001
0000
,  // measure 26
0001
0100
1000
0000
0001
0010
0100
1000
,  // measure 27
1001
0000
0001
0100
1000
0000
1001
0000
,  // measure 28
1000
0100
0001
0000
1000
0010
0100
0001
,  // measure 29
0011
0000
0010
0001
0100
0000
1010
0000
,  // measure 30
0010
1000
0100
0000
0010
0001
1000
0010
,  // measure 31
0100
0000
0001
0000
1000
0000
0000
0001
0000
0000
1000
0000
0100
0000
0010
0000
,  // measure 32
2002
0000
0000
3003
,  // measure 33
1001
0000
0000
0000
1000
0000
0000
2000
0000
0000
0000
0000
3001
0000
0000
0002
,  // measure 34
0000
0000
0000
0000
0103
0000
0000
0100
0000
0000
0100
0000
0010
0000
1000
0000
,  // measure 35
0100
0000
0010
0001
0100
0000
0010
1000
,  // measure 36
0001
0000
1000
0001
0010
0010
0100
0010
,  // measure 37
0001
0000
0000
0000
0100
0000
0000
0200
0000
0000
0000
0000
0310
0000
0000
0020
,  // measure 38
0000
0000
0000
0000
1030
0000
0000
1000
0000
0000
1000
0000
0001
0000
0010
0000
,  // measure 39
0100
0000
0010
0001
1000
0000
0010
1000
,  // measure 40
0001
0000
1000
0010
0100
0100
1000
0100
,  // measure 41
0110
0000
0000
0000
0010
0000
0000
1000
0000
0000
0001
0000
0010
0000
0000
0001
,  // measure 42
0000
0000
1000
0000
0001
0000
0000
0010
0000
0000
0100
0000
1000
0000
0100
0000
,  // measure 43
0002
0000
0103
1000
0010
0000
1000
0010
,  // measure 44
0001
0000
0010
0001
0010
1000
0100
0010
,  // measure 45
0100
0000
0000
0000
1000
0000
0000
0001
0000
0000
1000
0000
0010
0000
0000
0100
,  // measure 46
0000
0000
0010
0000
1000
0000
0000
0001
0000
0000
1000
0000
0100
0000
0010
0000
,  // measure 47
0002
0000
0103
1000
0001
0000
0001
0100
,  // measure 48
0010
0000
0010
0100
0001
1000
0001
1000
,  // measure 49
1002
0000
0010
0000
0100
0000
1003
0100
,  // measure 50
0020
0000
0100
0000
1000
0000
0130
0010
,  // measure 51
0002
0100
1000
0013
,  // measure 52
0001
0000
0000
0000
0010
0000
0000
0000
0100
0000
1000
0000
0001
0000
0000
2001
,  // measure 53
0000
0000
0100
0000
0010
0000
3001
1000
,  // measure 54
0200
0000
0001
0000
0010
0000
1300
0100
,  // measure 55
0020
0001
1000
0001
,  // measure 56
0031
0010
0100
1000
0010
0100
0001
1000
,  // measure 57
2002
0000
0000
0000
,  // measure 58
0000
0000
3003
0000
,  // measure 59
0010
0000
0000
0100
0000
0000
0010
0000
0100
0000
0000
0000
0010
0000
0100
0000
,  // measure 60
0010
0000
0100
0000
0000
0010
0000
0000
0100
0000
0000
0000
0000
0000
0000
0000
;

//---------------dance-single - Oni-91----------------
#NOTES:
     dance-single:
     :
     Medium:
     5:
     0.327478,0.355607,0.142747,0.134350,0.016794,273.000000,256.000000,17.000000,16.000000,0.000000,0.000000,0.327478,0.355607,0.142747,0.134350,0.016794,273.000000,256.000000,17.000000,16.000000,0.000000,0.000000:
// measure 0
0000
0000
0000
1001
,  // measure 1
0001
1000
0001
1000
,  // measure 2
0100
0010
0000
0100
0010
0000
0000
0000
,  // measure 3
0010
0100
0010
0100
,  // measure 4
1000
0001
0000
1000
0001
0000
0000
0000
,  // measure 5
0001
0100
0010
1000
,  // measure 6
0001
1000
0000
0001
1000
0000
0000
0000
,  // measure 7
0001
0010
0100
1000
,  // measure 8
2001
0001
0002
3003
,  // measure 9
1000
0000
0000
0000
0001
0000
0000
0000
0100
0000
0000
0100
0000
0000
0100
0000
,  // measure 10
0100
0010
1000
0100
,  // measure 11
0010
0000
0000
0000
0100
0000
0000
0000
1000
0000
0000
1000
0000
0000
1000
0000
,  // measure 12
1000
0100
0010
0001
,  // measure 13
0010
0000
0000
0000
0010
0000
0000
0000
0010
0000
0000
0010
0000
0000
0010
0000
,  // measure 14
0010
0100
0010
0001
,  // measure 15
0001
0000
0000
0000
0001
0000
0000
0000
0001
0000
0000
0001
0000
0000
0001
0000
,  // measure 16
0002
0000
0000
1003
,  // measure 17
0001
0000
1000
0010
1000
0000
0001
0000
,  // measure 18
0010
0001
0000
0010
0001
0000
1001
0000
,  // measure 19
1000
0000
0010
0100
0001
0000
0100
0000
,  // measure 20
0010
1000
0000
1000
0100
0000
0110
0000
,  // measure 21
0010
0000
0001
1000
0001
0000
0100
0000
,  // measure 22
0010
1000
0000
0001
0100
0000
1001
0000
,  // measure 23
0001
0000
0010
0001
1000
0000
0100
0000
,  // measure 24
0220
0030
0010
0310
,  // measure 25
0100
0000
0010
0001
0100
0000
0010
0000
,  // measure 26
0100
0010
1000
0000
1001
0000
1001
0000
,  // measure 27
0001
0000
1000
0100
1000
0000
0001
0000
,  // measure 28
0010
0001
0010
0000
0110
0000
0110
0000
,  // measure 29
0100
0000
1000
0010
0100
0000
0010
0000
,  // measure 30
0100
0010
1000
0000
1001
0000
1001
0000
,  // measure 31
0001
0000
1000
0100
0010
0000
0001
0000
,  // measure 32
2002
0000
0000
3003
,  // measure 33
1001
0000
0001
0100
0010
0000
0100
0010
,  // measure 34
1000
0000
0010
1000
0001
0000
1000
0000
,  // measure 35
0001
0010
0100
0001
,  // measure 36
0100
1000
0010
0100
,  // measure 37
0010
0000
1000
0100
0010
0000
0100
0010
,  // measure 38
0001
0000
1000
0001
1000
0000
0001
0100
,  // measure 39
0001
0100
1000
0001
,  // measure 40
0010
0000
0100
0000
0001
0000
1000
0001
,  // measure 41
1000
0000
0001
0010
0100
0000
0010
0100
,  // measure 42
1000
0000
0001
1000
0001
0000
1000
0010
,  // measure 43
0100
0010
1000
0100
,  // measure 44
0001
0100
0010
0001
,  // measure 45
1000
0000
0010
1000
0100
0000
1000
0100
,  // measure 46
0001
0000
0001
0100
1000
0000
0001
1000
,  // measure 47
0001
1000
0010
0100
,  // measure 48
0001
0010
0100
0010
,  // measure 49
2002
3000
0100
0010
,  // measure 50
2003
0000
0010
0100
,  // measure 51
3001
0000
0010
0000
0100
0000
0010
0100
,  // measure 52
0010
0000
0100
0000
1000
0001
1000
0001
,  // measure 53
0200
0000
1000
0010
,  // measure 54
0302
0000
0010
1000
,  // measure 55
0103
0001
0100
0010
,  // measure 56
1000
0010
1000
0000
0001
0010
0100
0010
,  // measure 57
0220
0000
0000
0000
,  // measure 58
0000
0000
0330
0000
,  // measure 59
2002
0000
0000
0000
,  // measure 60
0000
0000
3003
0000
;

//---------------dance-single - Oni-91----------------
#NOTES:
     dance-single:
     :
     Easy:
     4:
     0.265101,0.279406,0.218319,0.335875,0.000000,221.000000,195.000000,26.000000,40.000000,0.000000,0.000000,0.265101,0.279406,0.218319,0.335875,0.000000,221.000000,195.000000,26.000000,40.000000,0.000000,0.000000:
// measure 0
0000
0000
0000
1001
,  // measure 1
0001
0001
0001
0001
,  // measure 2
0100
0010
0100
0000
,  // measure 3
0010
0010
0010
0010
,  // measure 4
0100
0010
1000
0000
,  // measure 5
0100
0100
0100
0100
,  // measure 6
0010
0100
1000
0000
,  // measure 7
1000
1000
1000
1000
,  // measure 8
0010
0100
0001
1001
,  // measure 9
1000
0001
1000
0001
,  // measure 10
0010
0100
0010
0000
,  // measure 11
0100
0010
0100
0010
,  // measure 12
0001
1000
0010
0000
,  // measure 13
0100
0010
1000
0100
,  // measure 14
0010
0001
0100
0000
,  // measure 15
0010
0100
0001
1000
,  // measure 16
2002
0000
3003
1001
,  // measure 17
0001
0001
1000
1000
,  // measure 18
0001
1000
0010
0010
,  // measure 19
0100
0100
0010
0010
,  // measure 20
1000
0100
1000
1000
,  // measure 21
0001
0010
0001
0010
,  // measure 22
0100
1000
0100
0100
,  // measure 23
0010
0100
1000
0001
,  // measure 24
1000
0000
1000
1000
,  // measure 25
0001
0010
0001
0100
,  // measure 26
0001
1000
0100
0100
,  // measure 27
0010
0100
1000
0100
,  // measure 28
0010
0001
0100
0100
,  // measure 29
0010
1000
0100
0010
,  // measure 30
0001
0100
0010
0010
,  // measure 31
0100
0001
1000
0100
,  // measure 32
0220
0000
0000
0330
,  // measure 33
1001
1000
0001
1000
,  // measure 34
0100
0010
0100
0010
,  // measure 35
0220
0330
2002
3003
,  // measure 36
0220
0330
2002
3003
,  // measure 37
1000
0010
0001
0010
,  // measure 38
1000
0100
0001
0100
,  // measure 39
2002
3003
0220
0330
,  // measure 40
2002
3003
0220
0330
,  // measure 41
0010
0001
0100
0010
,  // measure 42
1000
0100
1000
0001
,  // measure 43
0220
0330
2002
3003
,  // measure 44
0220
0330
2002
3003
,  // measure 45
1000
0100
0010
0001
,  // measure 46
1000
0010
0100
0001
,  // measure 47
1000
0100
0001
0100
,  // measure 48
1000
0010
0001
0010
,  // measure 49
0220
0330
0010
1000
,  // measure 50
1002
0000
0010
0013
,  // measure 51
0210
0000
1000
0000
,  // measure 52
0310
0001
1000
0001
,  // measure 53
2002
3003
0001
1000
,  // measure 54
2001
0000
0010
3010
,  // measure 55
0120
0000
1000
0000
,  // measure 56
0130
0010
1000
0001
,  // measure 57
2002
0000
0000
0000
,  // measure 58
0000
0000
3003
0000
,  // measure 59
0220
0000
0000
0000
,  // measure 60
0000
0000
0330
0000
;

//---------------dance-single - Oni-91----------------
#NOTES:
     dance-single:
     :
     Beginner:
     1:
     0.118756,0.167518,0.067175,0.000000,0.000000,99.000000,91.000000,8.000000,0.000000,0.000000,0.000000,0.118756,0.167518,0.067175,0.000000,0.000000,99.000000,91.000000,8.000000,0.000000,0.000000,0.000000:
// measure 0
0000
0000
0000
1001
,  // measure 1
1000
0000
0000
0000
,  // measure 2
0001
0000
1000
0000
,  // measure 3
0001
0000
0000
0000
,  // measure 4
0010
0000
0001
0000
,  // measure 5
0010
0000
0000
0000
,  // measure 6
0100
0000
1000
0000
,  // measure 7
0100
0000
0000
0000
,  // measure 8
0110
0000
0000
1001
,  // measure 9
0001
0000
0001
0000
,  // measure 10
1000
0000
0000
0000
,  // measure 11
0010
0000
0010
0000
,  // measure 12
0100
0000
0000
0000
,  // measure 13
0100
0000
0100
0000
,  // measure 14
0001
0000
0000
0000
,  // measure 15
1000
0000
1000
0000
,  // measure 16
0100
0000
0000
0110
,  // measure 17
0010
0000
0000
0000
,  // measure 18
0001
0000
1000
0000
,  // measure 19
0001
0000
0000
0000
,  // measure 20
0100
0000
0010
0000
,  // measure 21
0100
0000
0000
0000
,  // measure 22
0010
0000
1000
0000
,  // measure 23
0001
0000
1000
0000
,  // measure 24
0001
0001
0001
0000
,  // measure 25
1000
0000
0100
0000
,  // measure 26
1000
0000
0000
0000
,  // measure 27
0001
0000
0010
0000
,  // measure 28
0100
0000
0010
0000
,  // measure 29
0001
0000
0100
0000
,  // measure 30
0001
0000
0000
0000
,  // measure 31
0100
0000
0010
0000
,  // measure 32
1001
0000
0000
0000
,  // measure 33
0110
0000
0010
0000
,  // measure 34
1000
0000
0001
0000
,  // measure 35
1000
0000
0000
0000
,  // measure 36
0100
0000
0000
0000
,  // measure 37
0010
0000
0001
0000
,  // measure 38
0010
0000
0100
0000
,  // measure 39
1000
0000
0000
0000
,  // measure 40
0001
0000
0000
0000
,  // measure 41
1000
0000
0001
0000
,  // measure 42
0100
0000
0010
0000
,  // measure 43
1000
0000
0000
0000
,  // measure 44
0001
0000
0000
0000
,  // measure 45
1000
0000
0001
0000
,  // measure 46
1000
0000
0001
0000
,  // measure 47
0100
0000
0010
0000
,  // measure 48
0100
0000
0010
0000
,  // measure 49
0110
0000
0000
0000
,  // measure 50
0010
0000
1000
0000
,  // measure 51
0001
0000
0000
0000
,  // measure 52
1000
0000
0000
0000
,  // measure 53
0001
0000
1000
0000
,  // measure 54
0001
0000
1000
0000
,  // measure 55
0100
0000
0000
0000
,  // measure 56
0010
0000
0000
0000
,  // measure 57
1001
0000
0000
0000
;
