#VERSION:0.83;
#TITLE:Birds;
#SUBTITLE:(Original Mix);
#ARTIST:Middle Milk;
#TITLETRANSLIT:;
#SUBTITLETRANSLIT:;
#ARTISTTRANSLIT:;
#GENRE:;
#ORIGIN:;
#CREDIT:;
#BANNER:Birds (Original Mix).png;
#BACKGROUND:Birds (Original Mix)-bg.png;
#PREVIEWVID:;
#JACKET:;
#CDIMAGE:;
#DISCIMAGE:;
#LYRICSPATH:;
#CDTITLE:;
#MUSIC:Birds (Original Mix).mp3;
#OFFSET:-8.370000;
#SAMPLESTART:15.910681;
#SAMPLELENGTH:15.737705;
#SELECTABLE:YES;
#BPMS:0.000=122.000;
#STOPS:;
#DELAYS:;
#WARPS:;
#TIMESIGNATURES:0.000=4=4;
#TICKCOUNTS:0.000=4;
#COMBOS:0.000=1;
#SPEEDS:0.000=1.000=0.000=0;
#SCROLLS:0.000=1.000;
#FAKES:;
#LABELS:0.000=Song Start;
#BGCHANGES:;
#KEYSOUNDS:;
#ATTACKS:
;

//---------------dance-single - Oni-91----------------
#NOTEDATA:;
#CHARTNAME:;
#STEPSTYPE:dance-single;
#DESCRIPTION:Oni-91;
#CHARTSTYLE:;
#DIFFICULTY:Hard;
#METER:9;
#RADARVALUES:0.526517,0.537890,0.101207,0.261451,0.362658,437.000000,425.000000,12.000000,31.000000,0.000000,0.000000,0.000000,0.000000,0.000000,0.526517,0.537890,0.101207,0.261451,0.362658,437.000000,425.000000,12.000000,31.000000,0.000000,0.000000,0.000000,0.000000,0.000000;
#CREDIT:Oni-91;
#NOTES:
// measure 0
0020
1000
0000
1000
0000
0100
0000
0100
,  // measure 1
0000
0001
0000
0001
0000
0100
0000
0130
,  // measure 2
0002
1000
0000
1000
0000
0010
0000
0013
,  // measure 3
0011
0000
0000
0000
0000
0000
1100
0000
0000
0000
0000
2001
0000
0000
0000
0100
0000
0000
3100
0000
0000
0000
0000
0000
,  // measure 4
0010
0000
0000
0001
0000
0000
1000
0000
0000
0001
0000
0000
0100
0000
0000
0000
0000
0010
0000
0000
0000
0100
0000
0000
,  // measure 5
0010
0000
0000
1000
0000
0000
0100
0000
0000
1000
0000
0000
0001
0000
0000
0000
0000
0010
0000
0000
0000
0001
0000
0000
,  // measure 6
1000
0000
0000
0100
0000
0000
0010
0000
0000
0100
0000
0000
1000
0000
0000
0000
0000
0001
0000
0000
0000
0100
0000
0000
,  // measure 7
1000
0100
0001
1000
0001
0010
1000
0010
,  // measure 8
0100
0000
0000
0010
0000
0000
0100
0000
0000
1000
0000
0000
0001
0000
0000
1000
0000
0010
0000
0000
0000
0100
0000
0000
,  // measure 9
0010
0000
0000
1000
0000
0000
0001
0000
0000
0010
0000
0000
0100
0000
0000
0010
0000
0100
0000
0000
0000
1000
0000
0000
,  // measure 10
0001
0000
0000
0100
0000
0000
0010
0000
0000
0100
0000
0000
1000
0000
0000
0100
0000
0010
0000
0000
0010
1000
0000
0000
,  // measure 11
0101
1100
2002
3003
,  // measure 12
0001
0000
0000
0100
0000
0000
0001
0000
0000
1000
0000
0000
0100
0000
0000
1000
0000
0001
0000
0000
1000
0001
0000
0000
,  // measure 13
0100
0000
0000
0010
0000
0000
1000
0000
0000
0001
0000
0000
0010
0000
0000
0001
0000
0100
0000
0000
0010
1000
0000
0000
,  // measure 14
0001
0000
0000
1000
0000
0000
0100
0000
0000
0010
0000
0000
0100
0000
0000
0010
0000
0001
0000
0000
1000
0001
0000
1000
,  // measure 15
0001
0000
0000
0001
0000
0200
0000
0000
0000
0310
0000
0000
1000
0000
0000
1000
0000
0200
0000
0000
0000
0310
0000
0000
,  // measure 16
0100
0000
0000
1000
0000
0000
0100
0000
0000
0010
0000
0000
0100
0000
0000
0010
0000
0001
0000
0000
1000
0001
0000
0000
,  // measure 17
0100
0000
0000
0010
0000
0000
0100
0000
0000
1000
0000
0000
0100
0000
0000
0001
0000
0100
0000
0000
0001
1000
0000
0000
,  // measure 18
0010
0000
0000
1000
0000
0000
0001
0000
0000
1000
0000
0000
0100
0000
0000
0010
0000
0001
0000
0000
1000
0001
0000
1000
,  // measure 19
0001
0100
0010
0100
2002
0000
3003
0000
,  // measure 20
1200
0010
2300
0010
,  // measure 21
3002
0000
0010
0000
0203
1000
0310
0000
,  // measure 22
0002
1000
0010
0000
2003
0001
0010
0000
,  // measure 23
3200
1000
0010
0000
1000
1000
1300
0000
,  // measure 24
0001
1100
1000
0101
,  // measure 25
0010
0000
1000
0000
0100
0000
0010
0000
0001
0000
0000
1000
0000
0000
0001
0000
,  // measure 26
0100
0000
0000
0010
0000
0000
0100
0000
0001
0000
0000
0000
1010
0000
0000
0000
,  // measure 27
1000
0000
0100
0000
0001
0000
0100
0000
1000
0000
0000
0100
0000
0000
0010
0000
,  // measure 28
0001
0000
0000
1000
0001
0000
1000
0000
0010
0000
0000
0000
0100
0000
0001
0000
,  // measure 29
0010
0000
0000
0010
0001
0000
0001
0000
0100
0000
0000
0010
0000
0000
1000
0000
,  // measure 30
0002
0010
1000
0103
,  // measure 31
0010
0000
0000
0100
0000
0000
0001
0000
1000
0002
0000
2000
0000
0000
0000
0000
0000
0000
3003
0000
0000
0000
0000
0000
,  // measure 32
0001
0010
0001
0200
0010
0010
0310
0000
,  // measure 33
0010
1000
0100
0020
0100
0100
0130
0000
,  // measure 34
0010
0000
0001
1000
0001
0000
0200
0000
0001
0000
0001
0000
0301
0000
0000
0000
,  // measure 35
0100
0000
0010
1000
0010
0000
1000
0001
0000
0001
1000
0000
0001
0000
0010
0000
,  // measure 36
0100
2000
3001
0100
0010
0200
1000
0301
,  // measure 37
1000
0200
0310
0100
1000
0002
0010
0103
,  // measure 38
0001
0200
1300
0100
0010
2000
0010
3001
,  // measure 39
1000
0001
1000
0001
1000
0001
0100
0020
0000
0000
0000
0000
0030
0000
0000
0000
,  // measure 40
1000
0000
0000
0100
0000
0000
0010
0000
0000
0100
0000
0000
1000
0000
0000
0001
0000
0010
0000
0000
0001
1000
0000
0000
,  // measure 41
0001
0000
0000
0100
0000
0000
0010
0000
0000
0100
0000
0000
0001
0000
0000
1000
0000
0100
0000
0000
0010
0001
0000
0010
,  // measure 42
0001
0000
0000
0100
0000
0000
1000
0000
0000
0100
0000
0000
0010
0000
0000
1000
0000
0001
0000
0000
0100
0001
0000
0000
,  // measure 43
0100
0000
0000
0010
0000
1000
0000
0000
1000
0100
0000
0000
0010
0000
0000
0001
0000
0100
0000
0000
0100
0010
0000
0000
,  // measure 44
1000
0000
0000
0100
0000
0000
0001
0000
0000
0100
0000
0000
0010
0000
0000
0001
0000
0100
0000
0000
0010
1000
0000
0010
,  // measure 45
1000
0000
0000
0100
0000
0000
0010
0000
0000
0001
0000
0000
0100
0000
0000
0010
0000
1000
0000
0000
0001
0100
0000
0001
,  // measure 46
0100
0000
0000
0001
0000
0000
0010
0000
0000
0001
0000
0000
1000
0000
0010
1000
0000
0010
0000
0000
1000
0001
0000
1000
,  // measure 47
0001
0010
0001
0010
0002
0000
0003
0000
,  // measure 48
1000
0000
0000
0001
0000
0000
0010
0000
0000
0001
0000
0100
0000
0000
0100
0001
0000
0000
1000
0000
0000
0100
0000
1000
,  // measure 49
0000
0000
1000
0100
0000
0000
1000
0000
0000
0001
0000
0010
0000
0000
0100
0010
0000
0000
0001
0000
1000
0000
0000
1000
,  // measure 50
0010
0000
0000
1000
0000
0000
0100
0000
0000
0010
0000
0001
0000
0000
0001
1000
0000
0000
0010
0000
0000
0100
0000
0010
,  // measure 51
0000
0000
0100
0001
0000
0000
1000
0000
0000
0100
0000
0000
0010
0000
0000
0000
0000
0000
1001
0000
0000
0000
0000
0000
,  // measure 52
1000
0000
0001
1000
0000
0000
0001
0000
0000
0100
0000
0010
0100
0000
0000
0001
0000
0000
1000
0000
0000
0100
0000
0010
,  // measure 53
0100
0000
0000
0010
0000
0000
0001
0000
0000
1000
0000
0000
0001
0000
0100
0000
0000
0001
0000
0000
1000
0000
0000
0100
,  // measure 54
1000
0000
0001
1000
0000
0000
0010
0000
0000
0100
0000
0001
0100
0000
0001
1000
0000
0000
0001
0000
0000
1000
0000
0000
,  // measure 55
0001
0000
0100
0001
0000
0000
1000
0000
0100
2000
0000
3001
0000
0000
0000
0000
0000
0000
0000
0000
0000
0000
0000
0000
;

//---------------dance-single - Oni-91----------------
#NOTEDATA:;
#CHARTNAME:;
#STEPSTYPE:dance-single;
#DESCRIPTION:Oni-91;
#CHARTSTYLE:;
#DIFFICULTY:Medium;
#METER:5;
#RADARVALUES:0.361453,0.374184,0.269885,0.219282,0.008434,300.000000,268.000000,32.000000,26.000000,0.000000,0.000000,0.000000,0.000000,0.000000,0.361453,0.374184,0.269885,0.219282,0.008434,300.000000,268.000000,32.000000,26.000000,0.000000,0.000000,0.000000,0.000000,0.000000;
#CREDIT:Oni-91;
#NOTES:
// measure 0
1000
1000
0100
0100
,  // measure 1
0010
0010
0001
0001
,  // measure 2
1000
0001
1000
0001
,  // measure 3
0100
0000
0000
0000
0000
0000
0010
0000
0000
0000
0000
2002
0000
0000
0000
0000
0000
0000
3003
0000
0000
0000
0000
0000
,  // measure 4
0001
0100
0001
0000
1000
0000
0100
0000
,  // measure 5
0010
0100
0010
0000
0001
1000
0100
0000
,  // measure 6
1000
0010
0100
0000
0001
0000
0100
0000
,  // measure 7
0010
1000
0100
0000
0010
0001
0100
0000
,  // measure 8
0001
1000
0001
0000
1000
0000
0100
0000
,  // measure 9
0010
0100
0010
0000
0001
1000
0001
0000
,  // measure 10
0100
0010
1000
0000
0001
0000
0100
0000
,  // measure 11
0001
1000
0001
1000
0002
0000
0003
0000
,  // measure 12
1000
0100
0010
0000
0100
0000
1000
0000
,  // measure 13
0001
0100
0010
0000
1000
0010
1000
0000
,  // measure 14
0001
0010
0100
0000
0010
0000
0001
0000
,  // measure 15
1000
0001
1000
0000
0010
0100
0010
0000
,  // measure 16
1000
0000
0001
0000
0010
0001
0100
0000
,  // measure 17
0001
1000
0010
0000
1000
0001
0100
0000
,  // measure 18
0010
0000
1000
0000
0100
0010
0001
0000
,  // measure 19
1000
0001
1000
0001
0200
0000
0300
0000
,  // measure 20
0020
1030
0200
0301
,  // measure 21
0002
0000
0013
0000
0100
1000
0100
0000
,  // measure 22
2000
3001
0200
0310
,  // measure 23
0020
1030
1010
0101
,  // measure 24
1002
1000
0100
0100
,  // measure 25
1003
0000
0001
0010
0001
0000
1000
0000
,  // measure 26
2001
0001
0100
0100
,  // measure 27
3001
0000
0010
0001
0100
0000
0010
0000
,  // measure 28
1020
0001
1000
0100
,  // measure 29
1030
0000
0010
0100
0001
0000
1000
0000
,  // measure 30
0021
0100
0001
0100
,  // measure 31
0031
0010
0001
1000
0002
0000
0003
0000
,  // measure 32
2002
0000
3003
0000
0100
0100
0100
0000
,  // measure 33
0220
0000
0330
0000
0001
0001
0001
0000
,  // measure 34
2002
0000
3003
0000
1000
1000
1000
0000
,  // measure 35
0220
0000
0330
0000
0010
0010
0010
0000
,  // measure 36
1000
0000
0010
0000
0100
0001
0100
0000
,  // measure 37
0001
0000
0010
0000
0100
1000
0100
0000
,  // measure 38
1000
0000
0001
0000
1000
0001
1000
0000
,  // measure 39
0110
1001
0220
0330
,  // measure 40
0010
1000
0010
0000
0100
0001
1000
0000
,  // measure 41
0001
0010
0001
0000
0100
0001
1000
0000
,  // measure 42
0001
1000
0010
0000
1000
0001
0100
0000
,  // measure 43
0110
0010
1010
0101
,  // measure 44
1000
0000
0001
0000
0010
0001
0100
0000
,  // measure 45
0001
0000
1000
0000
0100
1000
0001
0000
,  // measure 46
0100
0010
1000
0000
0010
1000
0001
0000
,  // measure 47
0010
0001
1000
0001
0200
0000
0300
0000
,  // measure 48
0010
0000
0101
0000
0010
1000
0100
0000
,  // measure 49
0010
0000
1100
0000
0010
0001
1000
0000
,  // measure 50
0001
0000
1001
0000
0100
0010
1000
0000
,  // measure 51
1010
0010
0101
0011
,  // measure 52
1001
0000
0011
0000
0010
0001
0100
0000
,  // measure 53
0110
0000
1001
0000
1000
0100
0010
0000
,  // measure 54
0011
0000
1100
0000
1000
0010
0100
0000
,  // measure 55
0110
0000
0000
0000
0000
0000
1001
0000
0000
0000
0000
1001
0000
0000
0000
0000
0000
0000
0000
0000
0000
0000
0000
0000
;

//---------------dance-single - Oni-91----------------
#NOTEDATA:;
#CHARTNAME:;
#STEPSTYPE:dance-single;
#DESCRIPTION:Oni-91;
#CHARTSTYLE:;
#DIFFICULTY:Easy;
#METER:3;
#RADARVALUES:0.209643,0.234041,0.042170,0.092773,0.000000,174.000000,169.000000,5.000000,11.000000,0.000000,0.000000,0.000000,0.000000,0.000000,0.209643,0.234041,0.042170,0.092773,0.000000,174.000000,169.000000,5.000000,11.000000,0.000000,0.000000,0.000000,0.000000,0.000000;
#CREDIT:Oni-91;
#NOTES:
// measure 0
1000
0001
1000
0001
,  // measure 1
0100
0010
0100
0010
,  // measure 2
1000
0010
0100
0001
,  // measure 3
0010
0001
2002
3003
,  // measure 4
1000
0100
1000
0000
,  // measure 5
0001
0100
0001
0000
,  // measure 6
1000
0010
0100
0001
,  // measure 7
0010
0000
0100
0010
,  // measure 8
0100
0010
0001
0000
,  // measure 9
1000
0010
0100
0000
,  // measure 10
0010
0100
0001
1000
,  // measure 11
0100
0010
0001
0000
,  // measure 12
1001
0000
0001
0000
,  // measure 13
1000
0010
1000
0000
,  // measure 14
0001
0100
0010
0000
,  // measure 15
0100
0000
0010
1000
,  // measure 16
0010
1000
0001
0000
,  // measure 17
0010
0001
0100
0000
,  // measure 18
0001
0010
0100
1000
,  // measure 19
0100
0010
0001
0000
,  // measure 20
2000
0000
3002
0000
,  // measure 21
0203
0000
0320
0000
,  // measure 22
2030
0000
3200
0000
,  // measure 23
0320
0000
0031
0001
,  // measure 24
2002
0000
3003
0000
,  // measure 25
0001
1000
0001
0100
,  // measure 26
0010
0000
0100
0000
,  // measure 27
0010
0000
1000
0001
,  // measure 28
1000
0000
0001
0000
,  // measure 29
1000
0000
0100
0010
,  // measure 30
0100
0000
0010
0000
,  // measure 31
0001
1000
0001
0000
,  // measure 32
1001
0000
0001
0000
,  // measure 33
0100
0100
0100
0000
,  // measure 34
0010
0000
1000
0000
,  // measure 35
0100
1000
0001
1000
,  // measure 36
0001
0000
0100
0000
,  // measure 37
0001
1000
0100
0000
,  // measure 38
0010
0000
0100
0000
,  // measure 39
0010
0100
0010
0000
,  // measure 40
0001
0001
0100
0000
,  // measure 41
0001
0001
1000
0000
,  // measure 42
1000
1000
0100
0000
,  // measure 43
1000
0001
1000
0100
,  // measure 44
0010
0010
0100
0000
,  // measure 45
0010
0010
0001
0000
,  // measure 46
1000
0001
0100
0010
,  // measure 47
1000
0001
0100
0000
,  // measure 48
0001
0100
0001
1000
,  // measure 49
0001
0010
0001
0000
,  // measure 50
1000
0010
1000
0001
,  // measure 51
1000
0100
1000
0000
,  // measure 52
0001
0100
0010
1000
,  // measure 53
0100
0010
0001
0000
,  // measure 54
0100
0010
0100
0010
,  // measure 55
1000
0001
1001
0000
;

//---------------dance-single - Oni-91----------------
#NOTEDATA:;
#CHARTNAME:;
#STEPSTYPE:dance-single;
#DESCRIPTION:Oni-91;
#CHARTSTYLE:;
#DIFFICULTY:Beginner;
#METER:1;
#RADARVALUES:0.142172,0.163829,0.050603,0.000000,0.000000,118.000000,112.000000,6.000000,0.000000,0.000000,0.000000,0.000000,0.000000,0.000000,0.142172,0.163829,0.050603,0.000000,0.000000,118.000000,112.000000,6.000000,0.000000,0.000000,0.000000,0.000000,0.000000,0.000000;
#CREDIT:Oni-91;
#NOTES:
// measure 0
1000
0000
1000
0000
,  // measure 1
0001
0000
0001
0000
,  // measure 2
0100
0000
0000
0000
,  // measure 3
0010
0010
0010
0000
,  // measure 4
0100
0000
0010
0000
,  // measure 5
1000
0000
0001
0000
,  // measure 6
1000
0000
0100
0000
,  // measure 7
0010
0000
0010
0000
,  // measure 8
0100
0000
0010
0000
,  // measure 9
0001
0000
1000
0000
,  // measure 10
0001
0000
1000
0000
,  // measure 11
1000
1000
1000
0000
,  // measure 12
0001
0000
0100
0000
,  // measure 13
0001
0000
1000
0000
,  // measure 14
0100
0000
1000
0000
,  // measure 15
0001
0000
0001
0000
,  // measure 16
0010
0000
0100
0000
,  // measure 17
0010
0000
0001
0000
,  // measure 18
0100
0000
0010
0000
,  // measure 19
1000
1000
1000
0000
,  // measure 20
1001
0000
0000
0000
,  // measure 21
0001
0000
0000
0000
,  // measure 22
1000
0000
0000
0000
,  // measure 23
0100
0000
0010
0000
,  // measure 24
0100
0000
0000
0000
,  // measure 25
0010
0000
0001
0000
,  // measure 26
1000
0000
0000
0000
,  // measure 27
0001
0000
1000
0000
,  // measure 28
0010
0000
0000
0000
,  // measure 29
0100
0000
0010
0000
,  // measure 30
0100
0000
0000
0000
,  // measure 31
0001
0001
0001
0000
,  // measure 32
1001
0000
0000
0000
,  // measure 33
0110
0000
0000
0000
,  // measure 34
1001
0000
0000
0000
,  // measure 35
0110
0000
0000
0000
,  // measure 36
0001
0000
0001
0000
,  // measure 37
1000
0000
1000
0000
,  // measure 38
0010
0000
0100
0000
,  // measure 39
0110
0000
0000
0000
,  // measure 40
0010
0010
0010
0000
,  // measure 41
0100
0100
0100
0000
,  // measure 42
0001
0001
0001
0000
,  // measure 43
1000
0000
0001
0000
,  // measure 44
1000
1000
1000
0000
,  // measure 45
0001
0001
0001
0000
,  // measure 46
0010
0010
0010
0000
,  // measure 47
0100
0100
0100
0000
,  // measure 48
0010
0000
0001
0000
,  // measure 49
1000
0000
0100
0000
,  // measure 50
1000
0000
0001
0000
,  // measure 51
0100
0000
0010
0010
,  // measure 52
0010
0000
1000
0000
,  // measure 53
0001
0000
1000
0000
,  // measure 54
0100
0000
0010
0000
,  // measure 55
0001
0001
0001
0000
;
