#VERSION:0.83;
#TITLE:Benita;
#SUBTITLE:;
#ARTIST:Gekidan Record;
#TITLETRANSLIT:;
#SUBTITLETRANSLIT:;
#ARTISTTRANSLIT:;
#GENRE:;
#ORIGIN:;
#CREDIT:;
#BANNER:Benita.png;
#BACKGROUND:Benita-bg.png;
#PREVIEWVID:;
#JACKET:;
#CDIMAGE:;
#DISCIMAGE:;
#LYRICSPATH:;
#CDTITLE:;
#MUSIC:Benita.mp3;
#OFFSET:-6.220000;
#SAMPLESTART:63.785900;
#SAMPLELENGTH:13.793110;
#SELECTABLE:YES;
#BPMS:0.000=174.000;
#STOPS:;
#DELAYS:;
#WARPS:;
#TIMESIGNATURES:0.000=4=4;
#TICKCOUNTS:0.000=4;
#COMBOS:0.000=1;
#SPEEDS:0.000=1.000=0.000=0;
#SCROLLS:0.000=1.000;
#FAKES:;
#LABELS:0.000=Song Start;
#BGCHANGES:;
#KEYSOUNDS:;
#ATTACKS:
;

//---------------dance-single - Oni-91----------------
#NOTEDATA:;
#CHARTNAME:;
#STEPSTYPE:dance-single;
#DESCRIPTION:Oni-91;
#CHARTSTYLE:;
#DIFFICULTY:Challenge;
#METER:10;
#RADARVALUES:0.732852,0.833619,0.562188,0.351367,0.592932,584.000000,520.000000,64.000000,40.000000,0.000000,0.000000,0.000000,0.000000,0.000000,0.732852,0.833619,0.562188,0.351367,0.592932,584.000000,520.000000,64.000000,40.000000,0.000000,0.000000,0.000000,0.000000,0.000000;
#CREDIT:Oni-91;
#NOTES:
0220
0000
0000
0000
0000
0000
0330
1010
,
2002
0000
0000
3003
,
0022
0033
2200
3300
,
2002
0000
3003
0010
,
0220
0000
0000
0330
,
1000
0000
0001
0000
0000
0100
0000
0100
0000
0000
0001
0000
0000
0010
0000
0010
,
0000
0000
0100
0000
1000
0001
0000
0001
0000
0000
0100
0000
0010
1000
0000
0010
,
1000
0000
0001
0000
0010
0001
0000
0010
0000
0000
0001
0000
0100
0010
0000
1000
,
0001
0000
1000
0000
0001
0010
0000
0100
1000
0000
0001
0000
0010
0001
1000
0001
,
0100
0000
0010
0000
0000
1000
0000
1000
0000
0000
0100
0000
0000
0010
0000
0010
,
0000
0000
0001
0000
1000
0001
0000
0100
0000
0000
0010
0000
1000
0001
0000
0100
,
0010
0000
1000
0000
0100
0010
0000
0100
1000
0000
0001
0000
0100
0000
0001
0000
,
1000
0100
0010
0001
1000
0000
0100
0000
1000
0000
0010
0000
0100
0000
0001
0000
,
1001
0000
0100
0011
0000
0010
0101
0000
,
0011
0000
0000
1100
0000
0000
2002
0000
0000
0000
0000
0000
0000
0000
0000
0000
,
0000
0000
0000
0000
0003
0000
0000
0000
3001
0000
0000
1000
0000
0000
0001
0000
,
0100
0010
0100
0001
0000
0001
1000
0010
,
1000
0000
0000
0001
0000
0000
0010
0000
1000
0000
0000
0010
0000
0000
0001
0000
,
1000
0000
0010
0000
0001
0000
1000
0000
0100
0000
0000
0100
0010
0000
0100
0000
,
0001
1000
0001
1000
0200
0000
0000
0000
0001
0000
0000
0000
1300
0000
0000
0000
,
0011
0000
0100
0000
1000
0000
0001
0000
0100
0000
0000
0010
0000
0000
0100
0000
,
1001
0000
0000
0010
0000
0000
0100
0010
0001
0000
0000
0000
1000
0100
0000
0100
,
1000
0000
0001
0000
0100
0000
0010
0000
1000
0000
0000
0100
0000
0000
1000
0000
,
0001
0000
0000
0000
0100
0000
0000
0000
0010
0000
0000
0000
2000
0000
0000
0000
0000
0000
0000
0000
0000
0000
0000
0000
0010
0000
0000
0000
0000
0000
0000
0000
0000
0001
0000
0000
0000
0000
0000
0000
0000
0000
3010
0000
0000
0000
0000
0000
,
1000
0100
0001
0200
0000
0310
0001
1000
,
0010
0000
0000
1000
0100
0000
0010
0000
0001
1000
0001
0000
1000
0000
0010
0000
,
0100
0000
1000
0000
0100
0000
0010
0000
1000
0000
0000
0100
0010
0000
0001
0000
,
0010
0000
0001
0000
0010
0000
0001
0000
0000
1000
0000
0000
0001
0000
0000
0100
0000
0000
0010
0000
0000
0000
0000
0000
,
1001
0000
0001
0000
0010
0000
0100
0000
1000
0000
0000
0100
0000
0000
1000
0000
,
0001
0000
0000
0000
0000
0000
0000
0000
0000
0100
0000
0000
0010
0000
0000
0000
0000
0000
1000
0000
0000
0000
0000
0000
0100
0000
0000
0000
0000
0000
0010
0000
0000
0000
0000
0000
0001
0000
0000
0000
1000
0000
0000
0000
0010
0000
0000
0000
,
0100
0000
0010
1000
0001
0000
0010
0000
0100
0000
0010
0001
1000
0000
0010
0000
,
1000
0001
0100
0001
0020
0000
0000
0000
0100
0000
0000
0000
0031
0010
0001
1000
,
0101
0000
0000
0000
0001
0000
1000
0000
0000
0000
1000
0100
0011
0000
0100
0000
,
1001
0000
0000
0000
0010
0000
0100
0000
0000
0000
0010
0000
1001
0000
1000
0100
,
0001
0000
0000
0000
0000
0000
1000
0010
0001
0000
0000
1000
0000
0000
0001
0000
,
1001
0000
0000
0000
0000
0000
0010
1000
0100
0000
0000
0000
1000
0000
0010
0100
,
1010
0000
0000
1000
0000
0000
0100
0000
0011
0000
0001
0000
1000
0000
0010
1000
,
0101
0000
0000
0001
0000
0000
0100
0000
1010
0000
0000
1000
0001
0100
1000
0100
,
0010
0000
0000
0100
0000
0000
0001
0000
1000
0000
0100
0000
0010
0000
0000
0100
0000
0000
1000
0000
0000
0001
0000
0000
,
1000
0000
0000
0000
0000
0000
0010
0000
0000
0000
0000
0000
1000
0000
0000
0000
0100
0000
0000
0000
0001
0000
0000
0000
0100
0000
0000
0000
0000
0000
0000
0000
0000
0010
0000
0000
0001
0000
0000
0000
0000
0000
1000
0000
0000
0000
0000
0000
,
0101
0000
0000
0100
0001
0000
1000
0000
1100
0000
0000
0010
0001
0000
1000
0000
,
0010
2002
0000
3003
,
0101
0000
0010
1000
0000
0001
1000
0000
0001
0000
0020
0000
0031
0000
1000
0000
,
0010
0000
0100
0001
0000
1000
0010
0000
0100
0000
0020
0000
1030
0000
0001
0010
,
0100
0000
1000
0001
0000
1000
0001
1000
0010
0000
0100
0000
0001
0000
1000
0000
,
0001
0010
0002
0000
1000
0000
1000
0000
1003
0000
0000
0000
0001
0000
0100
0000
,
0010
0000
1000
0100
0000
0100
0001
0000
1000
0000
0010
0000
0100
0000
1000
0000
,
0001
0000
0100
0000
0010
1000
0100
0010
0100
0000
0000
0000
0010
0000
0001
0000
,
1001
0011
1100
1010
,
0101
0000
0110
0110
2002
0000
3003
0000
,
0010
0000
0001
0010
0000
0100
2000
0000
3010
0000
1001
0000
1000
0000
0010
0000
,
0100
0000
0001
0100
0000
0010
0200
0000
0310
0000
1001
0000
0000
0000
1000
0100
,
0010
0000
0001
1000
0000
0001
1000
0010
0100
0000
0001
0000
1001
0000
0000
0000
,
1000
0100
0020
0000
0100
0000
0100
0000
0130
0000
0000
0000
0001
0000
1000
0000
,
0001
0100
0010
0100
0001
0000
1000
0100
0010
0000
0100
0000
1000
0000
0001
0000
,
0110
0000
0000
0000
0000
0000
0001
0000
0100
0000
0010
0000
1010
0000
0000
0000
0000
0000
0011
0000
0000
0001
0000
0000
,
0011
0000
0000
1001
0000
0000
1100
0000
1001
0000
0000
0101
0000
0000
0110
0000
,
1010
0010
0100
0101
0000
0001
1001
1000
,
1100
0000
0000
0110
0000
0000
0011
0000
2002
0000
0000
0000
0000
0000
0000
0000
,
0003
0100
0010
3001
,
1002
0000
0000
0000
0000
0000
0000
0000
0013
0000
0000
0001
0000
0000
1000
0000
,
0202
0003
0020
0330
,
2001
0000
0000
0000
0000
0000
0000
0000
3100
0000
0000
1000
0000
0000
0001
0000
,
1000
0200
0000
0000
0000
0310
0001
1000
,
0010
0000
1000
0010
0000
1000
0010
0000
1000
0010
0100
0000
0001
0000
0010
0000
,
0001
0000
0010
0001
0000
0010
0001
0000
0010
0001
0100
0000
0010
0000
1000
0000
,
1001
0000
0001
0100
0000
0010
1000
0000
0010
0000
0001
0000
0010
0000
1000
0000
,
1001
0220
0330
1010
,
0010
1000
0100
0010
0100
0000
0010
0000
0001
0010
0100
0010
0001
0000
1000
0000
,
0001
0100
0010
1000
0001
0000
1000
0000
0001
0010
1000
0010
0001
0000
1000
0000
,
0001
0100
0010
0001
0010
0000
0100
0000
0001
0010
1000
0010
0100
0000
0010
0000
,
0100
1000
0010
0100
0001
0000
1000
0000
0001
0100
1000
0001
0010
0000
1000
0000
,
2002
0000
0000
0000
0000
0000
0000
0000
0000
0000
0000
0000
3003
0000
0010
1000
,
0001
0000
0000
0000
;

//---------------dance-single - Oni-91----------------
#NOTEDATA:;
#CHARTNAME:;
#STEPSTYPE:dance-single;
#DESCRIPTION:Oni-91;
#CHARTSTYLE:;
#DIFFICULTY:Medium;
#METER:7;
#RADARVALUES:0.463052,0.512996,0.289878,0.325015,0.061489,369.000000,336.000000,33.000000,37.000000,0.000000,0.000000,0.000000,0.000000,0.000000,0.463052,0.512996,0.289878,0.325015,0.061489,369.000000,336.000000,33.000000,37.000000,0.000000,0.000000,0.000000,0.000000,0.000000;
#CREDIT:Oni-91;
#NOTES:
2002
0000
0000
0000
0000
0000
3003
0001
,
2000
0000
0000
3000
,
0022
0033
2200
3300
,
2002
0000
0000
0000
,
3003
0000
0000
0000
,
0001
0000
0100
0010
0100
0000
0001
0000
,
1000
0000
0100
0010
0100
0000
1000
0000
,
0001
0000
1000
0100
0010
0000
0001
0000
,
1000
0000
0010
0100
0001
0100
0010
0100
,
0001
0000
1000
0100
0010
0000
0100
0000
,
1000
0000
0001
0010
0100
0000
0010
0000
,
0001
0000
0100
0010
1000
0000
0001
0000
,
1000
1000
2000
0000
0010
0000
3001
0000
,
1010
0000
0000
0101
0000
0000
0110
0000
,
1001
0000
0000
1001
0000
0000
2002
0000
0000
0000
0000
0000
0000
0000
0000
0000
,
0000
0000
3003
0000
,
1001
0000
0001
0100
0000
0010
1000
0100
,
0010
0000
0100
0010
0000
0100
0010
0001
,
1000
0000
0001
0100
0001
0000
1000
0000
,
0001
0000
1000
0100
1000
0000
0001
0000
,
1000
0100
0010
0001
0100
0000
0001
0000
,
1000
0000
0010
0100
0010
0000
0100
0000
,
0001
0100
0010
1000
0100
0000
1000
0000
,
0110
2002
3003
0100
,
0001
0000
0010
0001
0000
1000
0100
0010
,
0001
0000
0100
0010
0000
0001
0100
0010
,
1000
0000
0001
0100
0010
0000
1000
0000
,
0001
0000
1000
0100
0010
0100
1000
0001
,
0100
0000
0010
0100
0001
0000
1000
0000
,
0110
0000
0010
0100
1000
0000
0101
0000
,
1000
0000
0000
0001
0000
0000
1000
0000
0100
0000
0000
0010
0000
0000
0100
0000
,
0010
0010
0020
0000
0030
0000
0001
0000
,
1001
0000
1000
0200
0000
0310
0100
1000
,
0001
0000
0100
0020
0000
1030
0100
1000
,
0001
0000
1000
0010
0001
0000
0110
0000
,
1001
0000
0001
0010
1000
0000
0110
0000
,
1001
0000
1000
0100
0010
0001
0100
0010
,
0100
0000
0010
1000
0001
0000
1000
0000
,
1100
0000
0001
0001
0002
0000
0013
0000
,
0100
0000
0010
0010
0020
0000
0031
0000
,
0001
0000
0000
0001
0000
0000
1000
0000
0010
0000
0000
0010
0000
0000
0100
0000
,
0010
2002
0000
3003
,
0001
0000
0000
0100
0000
0000
0001
0000
0010
0000
0100
0000
1000
0000
0000
0000
,
1000
0000
0000
0100
0000
0000
1000
0000
0010
0000
0100
0000
0001
0000
0000
0000
,
1000
0000
0000
0001
0000
0000
1000
0000
0001
0000
0000
0000
0110
0000
0000
0000
,
0001
0100
0010
1000
0100
0000
0010
0000
,
0100
0010
0001
1000
0010
0000
0101
0000
,
0010
1000
0010
1000
0001
0000
1000
0100
,
1000
0101
1010
1001
,
0110
0000
0010
0010
0020
0000
0030
0000
,
0001
0000
0000
0001
0000
0000
1000
0000
0100
0000
0020
0000
0000
0000
0031
0000
,
0100
0000
0000
0100
0000
0000
0010
0000
1000
0000
0002
0000
0000
0000
1003
0000
,
0100
0000
0000
1000
0000
0000
0100
0000
1000
0000
0000
0000
1001
0000
0000
0000
,
0001
0100
0010
1000
0001
0000
0101
0000
,
0100
0001
0100
0001
1000
0000
0001
1000
,
0100
0000
0010
0001
0100
0000
0010
1000
,
0001
0000
0000
1000
0000
0000
0001
0000
0100
0000
0000
0010
0000
0000
0100
0000
,
0001
0000
0000
1010
0000
0000
0100
0000
,
1000
0000
0000
0001
0000
0000
2000
0000
0002
0000
0000
0000
0000
0000
0000
0000
,
0000
0000
0000
3003
,
0120
0000
0000
0000
,
2030
0000
3200
0000
,
2300
0000
0000
0000
,
3002
0000
0000
0000
,
0203
0000
0010
0000
0001
0000
0310
0100
,
0002
0000
0010
0000
1000
0000
0013
0001
,
2000
0000
0010
0000
0100
0000
3001
1000
,
0001
0220
0330
0010
,
1000
0010
1000
0000
0001
0100
0001
0000
,
0010
0001
0100
0000
0010
1000
0100
0000
,
1000
0100
0001
0000
0001
0100
0010
0000
,
0001
1000
0001
1000
0010
0100
0010
0100
,
0002
0000
0000
0000
,
1003
0000
0000
0000
;

//---------------dance-single - Oni-91----------------
#NOTEDATA:;
#CHARTNAME:;
#STEPSTYPE:dance-single;
#DESCRIPTION:Oni-91;
#CHARTSTYLE:;
#DIFFICULTY:Easy;
#METER:6;
#RADARVALUES:0.380230,0.480934,0.430425,0.360151,0.008784,303.000000,254.000000,49.000000,41.000000,0.000000,0.000000,0.000000,0.000000,0.000000,0.380230,0.480934,0.430425,0.360151,0.008784,303.000000,254.000000,49.000000,41.000000,0.000000,0.000000,0.000000,0.000000,0.000000;
#CREDIT:Oni-91;
#NOTES:
2002
0000
0000
3003
,
0220
0000
0000
0330
,
2020
3030
0202
0303
,
2002
0000
0000
0000
,
3003
0000
0000
0000
,
1000
0100
1000
0001
,
0100
0000
0001
0000
0010
0000
0100
0010
,
0100
0010
0001
1000
,
0001
0000
0100
0000
0010
0000
1000
0010
,
1000
0001
0100
0001
,
1000
0000
0100
0000
0010
0000
0001
0010
,
0001
1000
0001
0100
,
0010
0100
0010
0000
1000
0000
0001
0000
,
1001
0000
0000
0110
0000
0000
1001
0000
,
0100
0000
0000
0100
0000
0000
0200
0000
0000
0000
0000
0000
0000
0000
0000
0000
,
0000
0000
0300
0000
,
0001
0100
0001
1000
,
0100
0010
0001
0000
,
1000
0001
1000
0010
,
1000
0100
1000
0001
,
0101
0100
0010
1000
,
0100
0010
0100
0010
,
0110
0100
1100
1001
,
0202
0303
0000
0000
,
0001
1000
0010
0001
,
0010
0100
0001
0010
,
0110
0100
0010
0001
,
1000
0100
1000
0001
,
0101
0100
0010
1000
,
1001
0001
0010
0100
,
0110
0010
1001
0010
,
0220
0000
0000
0000
0330
0000
0100
0001
,
0100
0000
0001
0000
1000
0000
0100
1000
,
0100
0000
1000
0000
0001
0000
0010
0001
,
0010
0000
0000
0001
0001
0000
1000
0000
,
0110
0000
0000
0100
0100
0000
0110
0000
,
1001
0000
0001
0000
0010
0000
0100
0100
,
0010
0001
1000
0010
,
1001
0100
2002
3003
,
0110
1001
0220
0330
,
0001
0100
0001
1000
,
1100
2002
0000
3003
,
0001
0000
0100
0000
0001
0001
0001
0000
,
1000
0000
0100
0000
1000
1000
1000
0000
,
0001
0000
1000
0000
0010
0100
0010
0000
,
0100
0001
2002
3003
,
1000
0000
0100
1000
0100
0000
1000
0000
,
0001
0000
0100
0001
0100
0000
0001
0000
,
0011
1100
1010
0101
,
0110
0000
0001
1000
0200
0000
0300
0000
,
1000
0000
0001
0000
0100
0002
0103
0000
,
0001
0000
1000
0000
0100
2000
3100
0000
,
0010
0001
0100
0010
,
1000
0000
0001
1000
0002
0000
0003
0000
,
1000
0000
0001
0100
0001
0000
1000
0000
,
1100
0101
2002
3003
,
0001
0100
0010
1000
,
1001
0000
0000
0110
0000
0000
1001
0000
,
0100
0000
0000
0100
0000
0000
0100
0000
0200
0000
0000
0000
0000
0000
0000
0000
,
0000
0000
0000
0300
,
1002
0000
0000
0000
,
1000
0000
0100
0000
,
2003
0000
0000
0000
,
0002
0000
0000
3003
,
0220
0000
0330
0000
,
2002
0000
3003
0000
,
1001
0100
1001
0010
,
0110
2002
3003
0001
,
1000
0000
0100
0000
1000
0100
1000
0000
,
0001
0000
0100
0000
0001
0100
0001
0000
,
1000
0000
0001
0000
0100
0010
0100
0000
,
0001
1000
0001
0000
0010
0100
0010
0000
,
2002
0000
0000
0000
,
3003
0000
0000
0000
;

//---------------dance-single - Oni-91----------------
#NOTEDATA:;
#CHARTNAME:;
#STEPSTYPE:dance-single;
#DESCRIPTION:Oni-91;
#CHARTSTYLE:;
#DIFFICULTY:Beginner;
#METER:3;
#RADARVALUES:0.199526,0.320623,0.166899,0.087842,0.000000,159.000000,140.000000,19.000000,10.000000,0.000000,0.000000,0.000000,0.000000,0.000000,0.199526,0.320623,0.166899,0.087842,0.000000,159.000000,140.000000,19.000000,10.000000,0.000000,0.000000,0.000000,0.000000,0.000000;
#CREDIT:Oni-91;
#NOTES:
// measure 0
1001
0000
0000
0000
,  // measure 1
1001
0000
0000
0000
,  // measure 2
0001
0000
1000
0000
,  // measure 3
1001
0000
0000
0000
,  // measure 4
0000
0000
0000
0000
,  // measure 5
1000
0000
0000
0000
,  // measure 6
0001
0000
0000
0000
,  // measure 7
0100
0000
0010
0000
,  // measure 8
1000
0000
0001
0001
,  // measure 9
0001
0000
0000
0000
,  // measure 10
1000
0000
0000
0000
,  // measure 11
0001
0000
0010
0000
,  // measure 12
0100
0000
0010
0000
,  // measure 13
0001
0000
0000
1000
0000
0000
0001
0000
,  // measure 14
2002
0000
3003
0000
,  // measure 15
0000
0000
0000
0000
,  // measure 16
1000
0000
0001
0000
,  // measure 17
0100
0000
0001
0000
,  // measure 18
1000
0000
0100
0000
,  // measure 19
0010
0000
0000
0000
,  // measure 20
0100
0000
1000
0000
,  // measure 21
0100
0000
0010
0000
,  // measure 22
0001
0000
1000
0000
,  // measure 23
0001
0000
0000
0000
,  // measure 24
0100
0000
0001
0000
,  // measure 25
1000
0000
0001
0000
,  // measure 26
0100
0000
0010
0010
,  // measure 27
0010
0000
0000
0000
,  // measure 28
0100
0000
0010
0000
,  // measure 29
1000
1000
1000
0000
,  // measure 30
0001
0001
0001
0000
,  // measure 31
0010
0000
0100
0000
,  // measure 32
1001
0000
0001
1000
,  // measure 33
1000
0000
0010
0100
,  // measure 34
0100
0000
1000
0001
,  // measure 35
0001
0000
0010
0001
,  // measure 36
0001
0000
1000
0000
,  // measure 37
0100
0000
1000
1000
,  // measure 38
1000
0000
0001
0000
,  // measure 39
0100
0000
0010
0010
,  // measure 40
0010
0100
0010
0100
,  // measure 41
1001
2002
0000
3003
,  // measure 42
1001
0000
0001
0100
,  // measure 43
0001
0000
1000
0100
,  // measure 44
1000
0000
0001
0000
,  // measure 45
1000
0000
0000
0000
,  // measure 46
0100
0000
0010
0000
,  // measure 47
0100
0100
0100
0000
,  // measure 48
0010
0010
0010
0000
,  // measure 49
0001
1000
0001
0000
,  // measure 50
1000
0000
0001
0100
,  // measure 51
0001
0000
1000
0010
,  // measure 52
1000
0000
0001
0000
,  // measure 53
1000
0000
0000
0000
,  // measure 54
0010
0000
0100
0000
,  // measure 55
0010
0010
0010
0000
,  // measure 56
1000
0000
0001
0000
,  // measure 57
1001
0000
0000
1001
0000
0000
0000
0000
,  // measure 58
0220
0000
0330
0000
,  // measure 59
0000
0000
0000
0000
,  // measure 60
1001
0000
0000
0000
,  // measure 61
0001
0000
0000
0000
,  // measure 62
1000
0000
0000
0000
,  // measure 63
0100
0000
0000
0000
,  // measure 64
1001
0000
0000
0000
,  // measure 65
0110
0000
0000
0000
,  // measure 66
1001
0000
0110
0000
,  // measure 67
1001
2002
0000
3003
,  // measure 68
0001
0000
0100
0000
,  // measure 69
0001
0000
1000
0000
,  // measure 70
0100
0000
1000
0000
,  // measure 71
0001
0000
1000
0000
,  // measure 72
2002
0000
0000
0000
,  // measure 73
3003
0000
0000
0000
;

//---------------dance-single - Oni-91----------------
#NOTEDATA:;
#CHARTNAME:;
#STEPSTYPE:dance-single;
#DESCRIPTION:Oni-91;
#CHARTSTYLE:;
#DIFFICULTY:Hard;
#METER:9;
#RADARVALUES:0.563442,0.609183,0.368936,0.430425,0.232781,449.000000,407.000000,42.000000,49.000000,0.000000,0.000000,0.000000,0.000000,0.000000,0.563442,0.609183,0.368936,0.430425,0.232781,449.000000,407.000000,42.000000,49.000000,0.000000,0.000000,0.000000,0.000000,0.000000;
#CREDIT:Oni-91;
#NOTES:
2002
0000
0000
0000
0000
0000
3003
0001
,
0200
0000
0000
0300
,
0220
0330
2002
3003
,
0220
0000
0330
0100
,
2002
0000
0000
3003
,
1001
0000
0001
0100
0010
0000
1000
0100
,
0010
0000
0001
0100
0010
0000
1000
0100
,
0010
0000
0001
1000
0010
0000
1000
0001
,
0010
0000
0100
0010
0001
0100
0010
1000
,
0010
1000
0001
0010
0001
0000
1000
0100
,
0010
0000
0001
0100
1000
0000
0100
0010
,
1000
0000
0001
0010
0100
0010
0001
1000
,
0001
1000
0001
1000
0002
0000
0000
0000
0010
0000
0000
0000
1003
0000
0000
0000
,
2002
0000
3003
0202
0000
0303
1001
0000
,
0011
0000
0000
1100
0000
0000
2002
0000
0000
0000
0000
0000
0000
0000
0000
0000
,
0000
0000
3003
0000
,
1001
0000
0001
0100
0000
0100
0001
1000
,
0100
0000
0000
1000
0000
0000
0100
0000
1000
0000
0000
0001
0000
0000
1000
0000
,
0001
0000
0100
0000
0010
0000
1000
0000
0100
0000
0000
0010
0000
0000
0001
0000
,
1000
0001
1000
0001
2000
0000
0000
0000
0010
0000
0000
0000
3001
0000
0000
0000
,
0010
1000
0100
0010
0100
1000
0001
0100
,
0010
0000
0000
0100
0000
0000
0010
0000
1000
0000
0000
0000
0010
0000
0010
0000
,
1000
0000
0100
0000
1000
0000
0001
0000
0010
0000
0000
0001
0000
0000
1000
0000
,
0001
1000
0002
2000
0000
0000
3003
0000
0000
0110
0000
0000
,
1001
0000
1000
0100
0000
0010
0001
0100
,
0010
0000
0000
0100
0000
0000
0010
0000
1000
0000
2000
0000
0000
0000
0000
0000
,
3100
0000
0010
0000
0001
0000
0100
0000
0010
0000
0000
1000
0000
0000
0001
0000
,
1000
0000
0100
1000
0001
0100
0000
0100
,
0010
0000
1000
0000
0001
0000
0010
0000
0001
0000
0000
0001
0000
0000
1000
0000
,
0100
0000
0000
0000
0000
0000
0000
0000
0000
0100
0000
0000
0000
0000
0000
0000
0000
0000
1000
0000
0000
0000
0000
0000
0001
0000
0000
0000
0000
0000
0000
0000
0000
0000
0000
0000
1000
0000
0000
0000
0010
0000
0000
0000
0100
0000
0000
0000
,
0001
0000
0000
0100
0000
0000
0001
0000
1000
0000
0000
0100
0000
0000
1000
0000
,
0001
1000
0001
1000
0002
0000
0000
0000
0003
0000
0000
0000
1000
0000
0001
0000
,
1000
0000
0000
1000
0100
0000
0000
0100
1000
0000
0001
0000
0100
0000
0001
0000
,
1000
0000
0000
1000
0001
0000
0000
0001
0100
0000
0010
0000
1000
0000
0100
0000
,
0110
0000
0010
1001
1001
0000
0001
0000
,
0101
0000
0010
1010
1010
0000
1001
0000
,
0001
0000
0000
0001
0100
0000
0000
0100
0010
0000
1000
0000
0010
0000
1000
0000
,
0100
0000
0000
0100
0010
0000
0001
0000
1000
0000
0000
0000
0001
0000
0100
0000
,
0010
0000
0000
1000
0010
1000
0002
0000
0000
0010
0000
0000
,
1003
0000
0000
0001
0010
0001
1000
0000
0000
1100
0000
0000
,
1001
0000
0000
0001
0000
0000
0100
0000
0110
0000
0000
0010
0000
0000
1000
0000
,
0001
2002
0000
3003
,
0001
0000
1000
0200
0000
0000
0310
0000
0001
0000
0100
0000
0010
0000
0100
0000
,
0001
0000
1000
0020
0000
0000
0130
0000
0001
0000
0010
0000
0001
0000
1000
0000
,
0100
0000
0000
1000
0000
0000
0001
0000
0100
0000
0010
0000
1000
0000
0100
0000
,
0001
0100
1000
0100
0020
0000
0031
0100
,
0010
0000
1000
0002
0000
0000
0013
0000
0001
0000
0100
0000
0010
0000
1000
0000
,
0001
0100
0001
0010
0200
0000
0310
0001
,
0101
1100
0011
1010
,
1001
0000
0001
1000
2002
0000
3003
0000
,
0001
0000
1000
0001
0000
1000
0001
0000
1000
0000
0220
0000
0330
0000
0100
0000
,
0010
0000
0100
0010
0000
0100
0010
0000
0100
0000
2002
0000
3003
0000
0001
0000
,
0010
0001
0100
0010
1000
0100
1000
0001
,
1000
1000
0100
0010
0002
0000
1003
0000
,
0001
0100
1000
0100
0001
0010
0100
1000
,
0100
0000
0000
0000
0000
0000
1000
0000
0001
0000
1000
0000
0001
0000
0000
0000
0000
0000
0100
0000
0000
0010
0000
0000
,
1000
0000
0000
0010
0000
0000
1000
0000
0001
0000
0000
0010
0000
0000
0001
0000
,
1001
0000
1000
1100
0000
0001
0101
0000
,
0001
0000
0000
1000
0000
0000
0001
0000
2002
0000
0000
0000
0000
0000
0000
0000
,
0000
0000
0000
3003
,
0210
0000
0000
0000
,
0302
0000
0023
0000
,
0230
0000
0000
0000
,
0320
0000
0000
0000
,
0031
0000
0000
0010
0000
0000
0001
0000
1000
0000
0010
0000
0100
0000
0001
0000
,
1000
0000
0000
0001
0000
0000
1000
0000
0000
0001
0000
0000
0010
0000
0001
0000
,
0100
0000
0000
1001
0000
0000
0100
0000
0010
0000
0001
0000
1000
0000
0010
0000
,
0100
2002
3003
0010
,
1000
0100
0010
0001
1000
0010
0100
0001
,
1000
0010
1000
0001
0100
0001
0010
0100
,
0001
0100
1000
0010
0001
0010
0100
0001
,
1000
0010
0001
0010
1000
0100
0010
0100
,
2002
0000
0000
0000
0000
0000
0000
0000
0000
0000
0000
0000
3003
0000
0001
1000
,
0001
0000
0000
0000
;
