#VERSION:0.83;
#TITLE:Baroque & Roll;
#SUBTITLE:;
#ARTIST:Yngwie J. Malmsteen's Rising Force;
#TITLETRANSLIT:;
#SUBTITLETRANSLIT:;
#ARTISTTRANSLIT:;
#GENRE:;
#ORIGIN:;
#CREDIT:;
#BANNER:Baroque and Roll.png;
#BACKGROUND:Baroque and Roll-bg.png;
#PREVIEWVID:;
#JACKET:;
#CDIMAGE:;
#DISCIMAGE:;
#LYRICSPATH:;
#CDTITLE:;
#MUSIC:Baroque and Roll.mp3;
#OFFSET:-5.670000;
#SAMPLESTART:50.564808;
#SAMPLELENGTH:12.534912;
#SELECTABLE:YES;
#DISPLAYBPM:187.000000:196.000000;
#BPMS:0.000=187.000,
3.000=209.000,
4.000=192.000,
12.000=196.000,
15.000=188.000,
16.000=196.000,
20.000=190.000,
28.000=194.000,
32.000=193.000,
52.000=187.000,
56.000=194.000,
64.000=187.000,
68.000=193.000,
72.000=192.000,
80.000=194.000,
84.000=188.000,
88.000=190.000,
92.000=199.000,
96.000=189.000,
100.000=193.000,
108.000=189.000,
110.000=196.000,
112.000=186.000,
116.000=196.000,
120.000=192.000,
136.000=197.000,
142.000=185.000,
144.000=186.000,
148.000=196.000,
150.000=189.000,
152.000=193.000,
175.000=187.000,
176.000=190.000,
184.000=193.000,
192.000=190.000,
200.000=192.000,
208.000=194.000,
216.000=189.000,
224.000=194.000,
240.000=196.000,
248.000=190.000,
252.000=185.000,
256.000=194.000,
264.000=192.000,
272.000=190.000,
280.000=193.000,
288.000=194.000,
296.000=192.000,
304.000=191.000,
311.000=213.000,
312.000=187.000,
316.000=191.000,
320.000=194.000,
324.000=199.000;
#STOPS:;
#DELAYS:;
#WARPS:;
#TIMESIGNATURES:0.000=4=4;
#TICKCOUNTS:0.000=4;
#COMBOS:0.000=1;
#SPEEDS:0.000=1.000=0.000=0;
#SCROLLS:0.000=1.000;
#FAKES:;
#LABELS:0.000=Song Start;
#BGCHANGES:;
#KEYSOUNDS:;
#ATTACKS:
;

//---------------dance-single - Oni-91----------------
#NOTEDATA:;
#CHARTNAME:;
#STEPSTYPE:dance-single;
#DESCRIPTION:Oni-91;
#CHARTSTYLE:;
#DIFFICULTY:Hard;
#METER:9;
#RADARVALUES:0.599177,0.665067,0.542358,0.506201,0.108472,464.000000,404.000000,60.000000,56.000000,0.000000,0.000000,0.000000,0.000000,0.000000,0.599177,0.665067,0.542358,0.506201,0.108472,464.000000,404.000000,60.000000,56.000000,0.000000,0.000000,0.000000,0.000000,0.000000;
#CREDIT:Oni-91;
#DISPLAYBPM:187.000000:196.000000;
#NOTES:
2002
0000
0000
0000
0000
0000
3003
0000
0000
0001
1000
0002
,
2000
0000
3003
1001
,
0220
0000
0000
0000
0000
0000
0330
0000
0000
0010
0100
0020
,
0200
0000
0330
1001
,
2002
0000
0000
3003
,
0220
0000
0000
0330
,
2002
0000
0000
3003
,
1000
0001
1000
0001
1000
0000
0110
0000
,
1001
0000
1010
0000
0010
1000
0100
0000
,
0010
0000
0001
0000
0010
0000
0100
0000
1000
0000
0100
0000
,
1000
0000
1001
0000
0001
0100
0010
0100
,
0010
1000
0100
0000
0010
0001
1000
0000
,
0001
0010
0001
0000
1000
0010
0100
0000
,
0010
0000
0100
0000
0001
0000
1000
0000
0100
0000
0010
0000
,
0001
0100
0010
0000
1000
0001
1000
0000
,
0001
0010
0100
1000
0002
0000
0003
0000
,
1000
0000
1000
0100
0000
0100
0001
0000
0001
0100
0000
0100
,
0010
0000
0010
0001
0000
0001
1000
0000
0000
0110
0000
0000
,
1000
0010
0100
0001
0000
0000
1000
0100
0010
0001
0000
0000
,
1000
0001
1000
0001
0000
0000
0220
0000
0000
0330
0000
0000
,
1001
0000
0001
0010
1000
0010
0001
1000
,
0002
1000
0010
1000
,
0103
0000
0100
0010
1000
0100
0010
0100
,
2000
0010
0001
3100
,
1001
0000
0001
0100
1000
0100
0010
1000
,
0200
0001
0010
1300
,
2002
0000
3003
0000
0001
0100
0001
0100
,
0010
1000
0100
0010
0001
0010
0100
0000
,
2002
0000
3003
0000
1000
0010
0100
0001
,
0010
1100
1010
0101
,
0220
0000
0330
0000
0010
1000
0100
1000
,
0001
1001
1100
0011
,
0220
0000
0330
0000
0010
0001
1000
0001
,
0101
1100
0101
1001
,
1000
0100
1000
1000
0001
0100
0001
0001
,
1000
0000
0001
1000
0100
0000
0110
0000
,
1001
0000
1000
0010
0100
0010
0100
0000
,
0010
0100
0001
0000
0011
0000
1100
0000
,
1001
0000
0001
0100
1000
0100
0010
1000
,
0001
0000
0010
0001
0100
0000
0110
0000
,
1001
0000
1000
0100
0010
0001
0100
0010
,
1000
0010
0110
1001
,
1000
0100
0010
0001
0100
0010
0100
0001
,
0010
0100
0001
0100
0010
0001
1000
0000
,
0001
0010
0001
2000
0000
0000
3010
0100
,
0010
0200
0000
0000
0310
1000
0001
1000
,
2002
3003
0000
0000
,
0000
0000
0000
0110
,
2002
3003
0000
0000
,
0000
0000
0000
0011
,
2200
3300
0000
0000
,
0000
0000
0000
1010
,
0202
0303
0000
0000
,
0000
0000
0000
0110
,
2002
3003
0000
0000
,
0220
0330
0000
0000
,
2002
3003
0022
0033
,
1100
0000
1001
0000
0001
0100
1000
0100
,
0220
0000
0000
0000
,
0000
0000
0000
0330
,
0010
0010
0010
1000
0100
0100
0100
0010
,
0001
0001
1000
1000
0010
0010
0100
0100
,
1001
0000
1000
0100
0010
0001
0010
0001
,
0100
0001
1000
0100
0010
0001
0100
0001
,
0100
0000
0010
1000
0100
0010
0100
1000
,
0010
0100
0010
1000
0100
0010
0100
1000
,
0001
0000
0010
0001
0100
1000
0100
0001
,
0010
0001
0010
0001
0100
1000
0100
0001
,
1000
0000
0001
0010
0100
0001
0100
0010
,
0001
0010
0100
0001
0100
0010
0001
1000
,
0010
1000
0010
1000
0001
0100
0001
0100
,
0001
0010
0100
1000
0010
0001
0010
0100
,
0010
0100
0010
0100
0001
0100
0001
0100
,
0010
1000
0100
0001
0100
1000
0010
0100
,
0001
1000
0001
1000
0100
0010
0100
0010
,
0001
0010
0100
1000
0001
0010
0100
1000
,
0010
0100
0010
0001
0010
1000
0100
0010
,
1000
0010
0001
0010
0100
0010
0001
0000
,
2002
3003
0000
0000
,
0220
0330
0000
0000
,
2002
3003
0000
0000
,
0110
1001
0220
0330
;

//---------------dance-single - Oni-91----------------
#NOTEDATA:;
#CHARTNAME:;
#STEPSTYPE:dance-single;
#DESCRIPTION:Oni-91;
#CHARTSTYLE:;
#DIFFICULTY:Medium;
#METER:6;
#RADARVALUES:0.414517,0.480326,0.379651,0.632751,0.000000,321.000000,279.000000,42.000000,70.000000,0.000000,0.000000,0.000000,0.000000,0.000000,0.414517,0.480326,0.379651,0.632751,0.000000,321.000000,279.000000,42.000000,70.000000,0.000000,0.000000,0.000000,0.000000,0.000000;
#CREDIT:Oni-91;
#DISPLAYBPM:187.000000:196.000000;
#NOTES:
2002
0000
0000
3003
,
0202
0000
0000
0303
,
2020
0000
0000
3030
,
0220
0000
0330
1001
,
2002
0000
0000
3003
,
0220
0000
0000
0330
,
2002
0000
0000
3003
,
0220
0000
0000
0330
,
1001
0000
1000
0000
0001
1000
0100
0000
,
0010
0010
0100
0100
,
0010
0000
0001
0000
1000
0010
0100
0000
,
0010
0010
0100
0100
,
0010
1000
0001
0000
0010
0001
1000
0000
,
0001
1000
0001
1000
,
0010
1000
0100
0000
0010
0001
0100
0000
,
0010
0000
0001
1000
0002
0000
0003
0000
,
1000
0010
0001
0010
,
1000
0100
0020
0030
,
0001
0100
1000
0100
,
0001
0010
2002
3003
,
0220
0000
0330
0000
0010
1000
0100
0000
,
0001
0100
0010
0001
,
1000
0000
0001
0000
0100
0010
1000
0000
,
0001
0000
1000
0000
0100
0010
0100
0000
,
0010
0000
0001
0000
1000
0010
0100
0000
,
1000
0100
0010
1000
,
2002
0000
3003
0000
0001
0010
0100
0000
,
0010
0001
0100
0000
0010
1000
0001
0000
,
2002
0000
3003
0000
1000
0010
0100
0000
,
1000
0100
0001
0010
,
0100
0000
0010
0000
0100
0010
0001
0000
,
1000
0000
0010
0000
0100
0010
1000
0000
,
0010
0000
0100
0000
0001
1000
0100
0000
,
0001
0100
1000
0100
,
2002
3003
0220
0330
,
0010
1000
0001
1000
,
2002
3003
0001
0100
,
1000
0010
0001
1000
,
2002
3003
0001
1000
,
0100
0010
1000
0001
,
2002
0000
3003
0000
1000
0010
0100
0000
,
0001
0010
0100
1000
,
0220
0330
0010
0001
,
0100
0010
2020
3030
,
1000
0000
0010
1000
0000
1000
0001
0000
,
0001
0010
0000
0000
0001
1000
0001
0000
,
2002
3003
0000
0000
,
0000
0000
0000
0110
,
0220
0330
0000
0000
,
0000
0000
0000
1001
,
2002
3003
0000
0000
,
0000
0000
0000
0110
,
0220
0330
0000
0000
,
0000
0000
0000
1001
,
2002
3003
0000
0000
,
0220
0330
0000
0000
,
2002
3003
0220
0330
,
2002
0000
3003
0000
0001
1000
0001
0000
,
2002
0000
0000
0000
,
0000
0000
0000
3003
,
1000
0001
1000
0000
0001
1000
0001
0000
,
0100
0010
0100
0020
0200
0000
0330
0000
,
0110
0000
0010
1000
0001
0000
1000
0000
,
0100
0001
0100
1000
,
0001
0000
1000
0001
1000
0000
0001
0000
,
0100
1000
0100
0001
,
1000
0000
0100
1000
0100
0000
0010
0000
,
0100
1000
0001
0100
,
0010
0000
0100
0010
1000
0000
0100
0000
,
0010
0100
0010
0001
,
1000
0000
0001
0100
1000
0000
1000
0100
,
0001
1000
0100
0010
,
0001
0000
1000
0010
0001
0000
0001
0010
,
1000
0001
1000
0100
,
0010
0000
0100
0010
0001
0000
0001
0010
,
0100
0010
0001
1000
,
0010
0000
1000
0010
0100
0000
0100
0010
,
1000
0001
1000
0100
,
0220
0330
0000
0000
,
2002
3003
0000
0000
,
0220
0330
0000
0000
,
1001
0110
2002
3003
;

//---------------dance-single - Oni-91----------------
#NOTEDATA:;
#CHARTNAME:;
#STEPSTYPE:dance-single;
#DESCRIPTION:Oni-91;
#CHARTSTYLE:;
#DIFFICULTY:Easy;
#METER:4;
#RADARVALUES:0.317667,0.369482,0.343494,0.542358,0.000000,246.000000,208.000000,38.000000,60.000000,0.000000,0.000000,0.000000,0.000000,0.000000,0.317667,0.369482,0.343494,0.542358,0.000000,246.000000,208.000000,38.000000,60.000000,0.000000,0.000000,0.000000,0.000000,0.000000;
#CREDIT:Oni-91;
#DISPLAYBPM:187.000000:196.000000;
#NOTES:
2002
3003
0000
1000
,
0001
0000
0000
0110
,
0220
0330
0000
0010
,
0100
0000
0000
1001
,
2002
0000
3003
0000
,
2002
0000
3003
0000
,
2002
0000
3003
0000
,
0220
0000
0000
0330
,
1001
0000
0001
0000
,
1000
0100
0010
0100
,
1000
0000
0001
0000
,
0100
0010
0001
0010
,
0100
0000
0001
0000
,
0010
0001
0100
1000
,
0100
0000
0010
0000
,
1000
0100
0010
0000
,
0100
0010
0100
0010
,
0001
1000
0001
1000
,
0010
0100
0010
0100
,
0001
1000
1001
0000
,
0220
0000
0330
0010
,
1000
0001
1000
0100
,
0020
0000
0031
0100
,
0001
0100
0010
1000
,
0200
0000
0310
0100
,
1000
0010
0100
1000
,
0200
0000
1300
0001
,
0100
0010
1000
0001
,
2002
0000
3003
0001
,
0100
0010
0100
0001
,
0200
0000
0310
1000
,
0100
0001
0100
1000
,
0020
0000
0130
0001
,
0010
0100
0010
0001
,
2002
0000
0000
0000
,
3003
0000
0000
0000
,
0220
0000
0330
0010
,
1000
0001
2002
3003
,
0220
0330
0010
0100
,
0001
0000
0100
0001
,
1000
0000
0001
1000
,
0100
0010
0100
0010
,
2002
3003
0001
1000
,
0010
0000
0110
0000
,
2002
0000
0000
0000
,
0000
0000
0000
3003
,
2002
3003
0000
0000
,
0000
0000
0000
0110
,
0220
0330
0000
0000
,
0000
0000
0000
1001
,
2002
3003
0000
0000
,
0000
0000
0000
0110
,
0220
0330
0000
0000
,
0000
0000
0000
1001
,
2002
3003
0000
0000
,
0220
0330
0000
0000
,
2002
3003
0220
0330
,
0010
1000
0001
1000
,
2002
0000
0000
0000
,
0000
0000
0000
3003
,
0001
1000
0001
0100
,
0010
0100
0020
0030
,
1000
0001
1000
0100
,
0001
0000
0001
0100
,
1000
0001
0100
0010
,
0100
0000
0010
0100
,
0001
1000
0100
0010
,
0001
0000
0010
0001
,
0100
0010
1000
0010
,
0100
0000
0010
0100
,
0001
0001
0100
0100
,
0010
1000
0010
0000
,
1000
1000
0100
0100
,
0010
0001
0010
0000
,
0001
1000
0001
1000
,
0010
0100
0010
0000
,
0010
1000
0100
0010
,
0001
1000
0001
0000
,
2002
3003
0000
0000
,
2002
3003
0000
0000
,
2002
3003
0000
0000
,
1001
1001
2002
3003
;

//---------------dance-single - Oni-91----------------
#NOTEDATA:;
#CHARTNAME:;
#STEPSTYPE:dance-single;
#DESCRIPTION:Oni-91;
#CHARTSTYLE:;
#DIFFICULTY:Beginner;
#METER:2;
#RADARVALUES:0.178203,0.368352,0.244061,0.000000,0.000000,138.000000,111.000000,27.000000,0.000000,0.000000,0.000000,0.000000,0.000000,0.000000,0.178203,0.368352,0.244061,0.000000,0.000000,138.000000,111.000000,27.000000,0.000000,0.000000,0.000000,0.000000,0.000000,0.000000;
#CREDIT:Oni-91;
#DISPLAYBPM:187.000000:196.000000;
#NOTES:
// measure 0
1001
0000
0000
0000
,  // measure 1
0001
0000
0000
0000
,  // measure 2
0100
0000
0000
0000
,  // measure 3
0010
0000
0000
0000
,  // measure 4
0110
0000
0000
0000
,  // measure 5
0110
0000
0000
0000
,  // measure 6
0110
0000
0000
0000
,  // measure 7
1001
0000
0001
0000
,  // measure 8
0100
0000
0010
0000
,  // measure 9
1000
0000
0100
0000
,  // measure 10
0010
0000
0000
0000
,  // measure 11
0100
0000
0010
0000
,  // measure 12
0001
0000
0100
0000
,  // measure 13
0010
0000
1000
0000
,  // measure 14
0001
0000
1000
0000
,  // measure 15
0001
0000
0000
0000
,  // measure 16
1000
0000
0100
0000
,  // measure 17
0001
0000
0100
0000
,  // measure 18
1000
0000
0001
0000
,  // measure 19
1000
0000
0000
0000
,  // measure 20
1001
0000
0000
0000
,  // measure 21
0001
0000
0100
0000
,  // measure 22
0010
0000
0000
0000
,  // measure 23
0100
0000
0010
0000
,  // measure 24
1000
0000
0000
0000
,  // measure 25
0001
0000
1000
0000
,  // measure 26
0001
0000
0000
0000
,  // measure 27
1000
0000
0001
0000
,  // measure 28
1001
0000
0000
0000
,  // measure 29
1000
0000
0100
0000
,  // measure 30
0010
0000
0000
0000
,  // measure 31
0100
0000
0010
0000
,  // measure 32
0100
0000
0000
0000
,  // measure 33
0010
0000
0001
0000
,  // measure 34
1001
0000
0000
0000
,  // measure 35
0000
0000
0000
0000
,  // measure 36
1001
0000
0000
0000
,  // measure 37
0001
0000
0100
0000
,  // measure 38
0010
0000
0000
0000
,  // measure 39
0100
0000
0010
0000
,  // measure 40
0100
0000
0000
0000
,  // measure 41
0010
0000
1000
0000
,  // measure 42
0001
0000
1000
0000
,  // measure 43
0001
0000
1000
0000
,  // measure 44
0001
0000
0000
0000
,  // measure 45
0000
0000
0000
0000
,  // measure 46
1001
0000
0000
0000
,  // measure 47
0000
0000
0000
0000
,  // measure 48
0110
0000
0000
0000
,  // measure 49
0000
0000
0000
0000
,  // measure 50
1001
0000
0000
0000
,  // measure 51
0000
0000
0000
0000
,  // measure 52
0110
0000
0000
0000
,  // measure 53
0000
0000
0000
0000
,  // measure 54
1001
0000
0000
0000
,  // measure 55
1001
0000
0000
0000
,  // measure 56
0110
0000
0110
0000
,  // measure 57
1001
0000
1001
0000
,  // measure 58
0110
0000
0000
0000
,  // measure 59
0000
0000
0000
0000
,  // measure 60
1001
0000
0000
0000
,  // measure 61
0000
0000
0000
0000
,  // measure 62
1001
0000
1000
0000
,  // measure 63
0001
0000
0000
0000
,  // measure 64
1000
0000
0100
0000
,  // measure 65
1000
0000
0000
0000
,  // measure 66
0001
0000
0010
0000
,  // measure 67
0100
0000
0000
0000
,  // measure 68
0100
0000
0010
0000
,  // measure 69
0001
0000
0000
0000
,  // measure 70
0010
0000
0001
0000
,  // measure 71
0100
0000
0010
0000
,  // measure 72
1000
0000
0100
0000
,  // measure 73
0001
0000
0100
0000
,  // measure 74
0010
0000
0001
0000
,  // measure 75
0100
0000
0010
0000
,  // measure 76
1000
0000
0010
0000
,  // measure 77
0100
0000
0001
0000
,  // measure 78
1001
0000
0000
0000
,  // measure 79
1001
0000
0000
0000
,  // measure 80
1001
0000
0000
0000
,  // measure 81
1001
0000
0110
0000
;
