#VERSION:0.83;
#TITLE:Attitude;
#SUBTITLE:;
#ARTIST:Y&Co.;
#TITLETRANSLIT:;
#SUBTITLETRANSLIT:;
#ARTISTTRANSLIT:;
#GENRE:;
#ORIGIN:;
#CREDIT:;
#BANNER:Attitude.png;
#BACKGROUND:Attitude-bg.png;
#PREVIEWVID:;
#JACKET:;
#CDIMAGE:;
#DISCIMAGE:;
#LYRICSPATH:;
#CDTITLE:;
#MUSIC:Attitude.mp3;
#OFFSET:-1.680000;
#SAMPLESTART:38.070000;
#SAMPLELENGTH:13.240000;
#SELECTABLE:YES;
#BPMS:0.000=145.000;
#STOPS:;
#DELAYS:;
#WARPS:;
#TIMESIGNATURES:0.000=4=4;
#TICKCOUNTS:0.000=4;
#COMBOS:0.000=1;
#SPEEDS:0.000=1.000=0.000=0;
#SCROLLS:0.000=1.000;
#FAKES:;
#LABELS:0.000=Song Start;
#BGCHANGES:;
#KEYSOUNDS:;
#ATTACKS:
;

//---------------dance-single - Oni-91----------------
#NOTEDATA:;
#CHARTNAME:;
#STEPSTYPE:dance-single;
#DESCRIPTION:Oni-91;
#CHARTSTYLE:;
#DIFFICULTY:Hard;
#METER:7;
#RADARVALUES:0.396372,0.514118,0.204015,0.293782,0.187694,340.000000,315.000000,25.000000,36.000000,0.000000,0.000000,0.000000,0.000000,0.000000,0.396372,0.514118,0.204015,0.293782,0.187694,340.000000,315.000000,25.000000,36.000000,0.000000,0.000000,0.000000,0.000000,0.000000;
#CREDIT:Oni-91;
#NOTES:
// measure 0
1002
0000
0000
0000
,  // measure 1
0023
0000
0000
0000
,  // measure 2
2030
0000
0000
0000
,  // measure 3
3020
0000
0032
0000
,  // measure 4
2003
0000
0000
0000
,  // measure 5
3200
0000
0000
0000
,  // measure 6
0302
0000
0000
0000
,  // measure 7
0203
0000
2300
0000
,  // measure 8
3002
0000
0010
0000
,  // measure 9
2003
0000
0010
0000
,  // measure 10
3200
0000
0001
0000
,  // measure 11
0320
0000
0032
1000
,  // measure 12
0203
0000
1000
0000
,  // measure 13
0320
0000
0001
0000
,  // measure 14
2030
0000
0010
0000
,  // measure 15
3002
0000
0020
0033
,  // measure 16
2002
0000
0000
3003
,  // measure 17
0220
0330
2002
3003
,  // measure 18
1010
0101
0011
1100
,  // measure 19
0001
0010
0100
1000
0001
0100
0010
1000
,  // measure 20
2002
0000
0000
0000
,  // measure 21
3003
0000
0000
0110
,  // measure 22
1001
0000
0000
0001
0000
0000
1000
0000
0100
0000
0000
0010
0000
0000
0001
0000
,  // measure 23
1000
0001
0100
0000
0010
0000
0110
0000
,  // measure 24
0100
0000
0000
0001
0000
0000
1000
0000
0001
0000
0000
0010
0000
0000
0100
0000
,  // measure 25
0010
0001
0100
0000
0010
0000
1000
0001
,  // measure 26
0010
0000
0000
0001
0000
0000
0010
0000
0001
0000
0000
1000
0000
0000
0010
0000
,  // measure 27
0100
0001
0010
0000
0100
0000
1001
0000
,  // measure 28
1000
0000
0000
0100
0000
0000
0010
0000
0001
0000
0000
0010
0000
0000
0100
0000
,  // measure 29
1000
0000
0000
0010
0000
0000
0100
0000
0001
0000
0000
0100
0000
0000
0010
0000
,  // measure 30
0110
0000
0000
0100
0000
0000
0001
0000
0010
0000
0000
0000
1001
0000
0000
0000
,  // measure 31
0100
1000
0001
0100
0010
0000
0110
0000
,  // measure 32
0100
0000
0000
0001
0000
0000
0100
0000
0010
0000
0000
0000
1010
0000
0000
0000
,  // measure 33
1000
0100
0000
1000
0000
0000
0001
0000
0100
0000
0000
0001
0000
0000
0100
0000
,  // measure 34
0010
0000
0000
1000
0000
0000
0001
0000
1000
0000
0000
0100
0000
0000
0010
0000
,  // measure 35
0100
0000
0010
0000
0001
0000
1000
0000
0001
0000
0000
1000
0000
0000
0100
0000
,  // measure 36
0001
0100
1000
0010
0100
0001
1000
0100
,  // measure 37
0010
0000
0000
0010
0000
0000
0100
0000
1000
0000
0000
1000
0000
0000
0001
0000
,  // measure 38
1001
0000
0001
0010
0000
0100
1000
0100
,  // measure 39
0001
0000
0100
0000
1000
0000
0010
0100
,  // measure 40
0000
0100
0001
0010
0100
0010
0001
1000
,  // measure 41
0000
0001
0100
0000
0001
1000
0100
0010
,  // measure 42
0100
0000
1000
0000
0001
0000
0010
0001
,  // measure 43
0000
0010
0001
0010
0001
0100
0000
0101
,  // measure 44
0000
0001
1000
0100
0010
0100
0000
1001
,  // measure 45
0000
1000
0010
0000
0100
0001
0010
0100
,  // measure 46
0220
0000
0000
0300
0000
0100
0000
0000
,  // measure 47
0002
0000
0030
0000
1000
0000
0100
0200
,  // measure 48
0000
0000
0003
0000
0000
0010
0000
0002
,  // measure 49
0000
0000
0000
0300
0000
0103
0001
2000
,  // measure 50
0000
0000
0000
0000
3100
0000
0010
0002
,  // measure 51
0000
0000
0000
0010
0000
0100
0000
2000
,  // measure 52
0000
0000
0000
0000
,  // measure 53
0000
0000
3003
1001
,  // measure 54
1000
0000
0000
0010
0000
0000
1000
0000
0010
0000
0000
0100
0000
0000
0010
0000
,  // measure 55
0100
0000
0001
0000
0010
0000
0100
0000
0010
0000
0000
0001
0000
0000
1000
0000
,  // measure 56
0001
0000
0000
0100
0000
0000
0010
0000
1000
0000
0000
0010
0000
0000
0100
0000
,  // measure 57
0001
0000
0100
0000
0010
0000
1000
0000
0001
0000
0000
0010
0000
0000
0100
0000
,  // measure 58
1000
0000
0000
1000
0000
0000
0001
0000
0100
0000
0000
0100
0000
0000
0010
0000
,  // measure 59
0100
0000
0001
0000
0010
0000
0100
0000
1000
0000
0000
1000
0000
0000
0001
0000
,  // measure 60
0100
0000
0000
1000
0000
0000
0100
0000
0010
0000
0000
0100
0000
0000
0010
0000
,  // measure 61
1000
0001
0000
0010
0000
0000
0100
0000
0010
0000
0000
0001
0000
0000
1000
0000
,  // measure 62
1001
0000
0000
0001
0000
0000
0100
0000
0010
0000
0000
1000
0000
0000
0100
0000
,  // measure 63
0010
0001
1000
0010
0100
0001
0010
0100
,  // measure 64
0010
0000
0000
0001
0000
0000
0010
0000
0100
0000
0000
1000
0000
0000
0001
0000
,  // measure 65
1000
0010
0001
0010
1000
0100
0010
0100
,  // measure 66
1000
0000
0000
0100
0000
0000
0010
0000
0001
0000
0000
1000
0000
0000
0100
0000
,  // measure 67
0010
0001
1000
0010
0100
0001
0100
1000
,  // measure 68
0100
0000
0000
0001
0000
0000
0100
0000
0010
0000
0000
1000
0000
0000
0010
0000
,  // measure 69
1000
0001
0000
1001
0000
0000
0100
0000
0010
0100
0000
0010
0100
0000
0001
0000
,  // measure 70
1001
0000
0000
0000
;

//---------------dance-single - Oni-91----------------
#NOTEDATA:;
#CHARTNAME:;
#STEPSTYPE:dance-single;
#DESCRIPTION:Oni-91;
#CHARTSTYLE:;
#DIFFICULTY:Medium;
#METER:6;
#RADARVALUES:0.326424,0.485556,0.163212,0.318263,0.089767,280.000000,260.000000,20.000000,39.000000,0.000000,0.000000,0.000000,0.000000,0.000000,0.326424,0.485556,0.163212,0.318263,0.089767,280.000000,260.000000,20.000000,39.000000,0.000000,0.000000,0.000000,0.000000,0.000000;
#CREDIT:Oni-91;
#NOTES:
2001
0000
0000
0000
,
0000
0000
0000
0000
,
3002
0000
0000
0000
,
0203
0000
0000
0000
,
0320
0000
0000
0000
,
0000
0000
0000
0000
,
2030
0000
0000
0000
,
3002
0000
2003
0000
,
3200
0000
0000
0000
,
0320
0000
0000
0000
,
0032
0000
0000
0000
,
2003
0000
3002
0000
,
0203
0000
0000
0000
,
0320
0000
0000
0000
,
2030
0000
0000
0000
,
0002
0000
0000
3003
,
0220
0000
0000
0330
,
2002
3003
0220
0330
,
1001
1001
0110
0110
,
0001
0000
1000
0000
0001
1000
0001
1000
,
0200
0000
0000
0000
,
0300
0000
0000
0110
,
1001
0000
0001
0100
0001
0000
1000
0000
,
0100
1000
0100
0010
0001
0000
0100
0000
,
0001
0000
1000
0010
0100
0000
0001
0000
,
1000
0010
0100
0001
0010
0000
0100
0000
,
0010
0000
0001
1000
0001
0000
0100
0000
,
0010
1000
0010
0100
0001
0000
1000
0000
,
0001
0000
1000
0100
0001
0000
0001
0100
,
1000
0000
1000
0010
0100
0000
0010
0100
,
0001
0000
1000
0010
1000
0000
0001
0000
,
1000
0100
1000
0001
0100
0000
0010
0000
,
0100
0000
0001
0010
0001
0000
1000
0000
,
0001
0100
0001
0010
0100
0000
0010
0001
,
1000
0000
0010
1000
0100
0000
1000
0000
,
0001
0100
0010
1000
0100
0000
0010
0000
,
0100
0000
0100
1000
0100
0000
0100
0010
,
0100
0000
0010
0001
1000
0000
0110
0000
,
1002
0000
0010
0000
1003
0001
0000
0001
,
0200
0000
1000
0000
0310
0000
0010
1000
,
0200
0000
0001
0000
0310
0100
0000
0010
,
0002
0000
0010
0000
1003
0001
1000
0010
,
0020
0000
0100
0000
1000
0000
0130
0010
,
2000
0000
0010
0000
3001
1000
0000
0210
,
0000
0000
0010
0000
0301
0100
0000
0102
,
0000
0000
0010
0000
1003
0010
0100
0001
,
2000
0000
0000
0000
,
3200
0000
0000
0000
,
0320
0000
0000
0000
,
0032
0000
0000
0000
,
0203
0000
0000
0000
,
0320
0000
0000
0000
,
2030
0000
0000
0000
,
0002
0000
0000
3003
,
1000
0000
0000
1000
0000
0000
1000
0000
0001
0000
0000
0000
0100
0000
0000
0000
,
0001
0000
0000
0001
0000
0000
0001
0000
1000
0000
0000
0000
0100
0000
0000
0000
,
0010
0000
0000
0010
0000
0000
0010
0000
0001
0000
0000
0000
1000
0000
0000
0000
,
0010
0000
0000
0010
0000
0000
0010
0000
0100
0000
0000
0000
0001
0000
0000
0000
,
1000
0000
0000
1000
0000
0000
1000
0000
0001
0000
0000
0001
0000
0000
0001
0000
,
0100
0000
0000
0100
0000
0000
0100
0000
0010
0000
0000
0010
0000
0000
0010
0000
,
1000
0000
0000
0100
0000
0000
1000
0000
0001
0000
0000
0100
0000
0000
0001
0000
,
1000
0000
0000
0100
0000
0000
0010
0000
0001
0000
0000
0100
0000
0000
0010
0000
,
1000
0000
0000
0001
0000
0000
1000
0000
0100
0000
0000
0010
0000
0000
0100
0000
,
0001
0100
0010
1000
0100
0000
1000
0000
,
0001
0000
0000
1000
0000
0000
0100
0000
1000
0000
0000
0001
0000
0000
0100
0000
,
0010
0100
0001
1000
0100
0000
1000
0000
,
0001
0000
0000
0010
0000
0000
0001
0000
1000
0000
0000
0100
0000
0000
1000
0000
,
0001
0000
0000
0100
0000
0000
0010
0000
1000
0000
0000
0100
0000
0000
0010
0000
,
0110
0000
0000
0100
0000
0000
0010
0000
0001
0000
0000
1000
0000
0000
0001
0000
,
1001
1010
0101
0110
,
1001
0000
0000
0000
;

//---------------dance-single - Oni-91----------------
#NOTEDATA:;
#CHARTNAME:;
#STEPSTYPE:dance-single;
#DESCRIPTION:Oni-91;
#CHARTSTYLE:;
#DIFFICULTY:Easy;
#METER:4;
#RADARVALUES:0.228497,0.456994,0.146891,0.277460,0.000000,196.000000,178.000000,18.000000,34.000000,0.000000,0.000000,0.000000,0.000000,0.000000,0.228497,0.456994,0.146891,0.277460,0.000000,196.000000,178.000000,18.000000,34.000000,0.000000,0.000000,0.000000,0.000000,0.000000;
#CREDIT:Oni-91;
#NOTES:
0200
0000
0000
0000
,
0000
0000
0000
0000
,
0320
0000
0000
0000
,
0000
0000
0000
0000
,
2030
0000
0000
0000
,
0000
0000
0000
0000
,
3002
0000
0000
0000
,
2003
0000
3020
0000
,
0230
0000
0000
0000
,
0000
0000
0000
0000
,
0320
0000
0000
0000
,
0000
0000
0000
0000
,
0032
0000
0000
0000
,
0000
0000
0000
0000
,
2003
0000
0000
0000
,
0002
0000
0000
3003
,
0220
0000
0000
0330
,
1001
0000
0110
0000
,
0010
1000
0001
0100
,
0001
1000
0001
1000
,
2002
0000
0000
0000
,
3003
0000
0000
1000
,
1001
0000
0001
0000
,
0100
0001
0100
0010
,
1000
0000
0100
0000
,
1000
0100
0010
0001
,
0100
0001
1000
0000
,
0001
1000
0010
0100
,
0001
0010
0100
0000
,
0010
0001
1000
0001
,
0100
0100
0010
0000
,
1000
0100
1000
0001
,
0010
0010
0100
0000
,
0010
0001
1000
0100
,
0010
0100
1000
0000
,
0001
0100
0010
0100
,
0001
0100
0010
1000
,
0001
1000
0100
1000
,
2002
3003
0001
0100
,
0002
0000
1003
0100
,
0020
0000
0130
0010
,
0100
0010
0001
1000
,
0020
0000
0130
0010
,
2000
0000
3001
0010
,
0002
0000
1000
1000
,
2003
0000
3010
1000
,
1002
0000
0000
0003
,
0200
0000
0000
0300
,
0020
0000
0000
0030
,
2000
0000
0000
3000
,
0200
0000
0000
0300
,
0020
0030
0002
0003
,
2000
0000
0000
0000
,
0002
0000
0000
3003
,
0001
0100
0001
1000
,
0100
1000
0010
0010
,
0100
0001
0010
0100
,
0010
0001
0010
0001
,
1000
0010
0100
0001
,
0100
0100
0010
0010
,
1000
0100
1000
0001
,
1000
0100
0010
0100
,
0110
0010
0001
1000
,
0020
0100
1000
0130
,
1001
0001
0010
0100
,
2000
0010
0001
3100
,
0110
0010
0001
1000
,
1001
0001
0100
0010
,
0110
1000
1001
0100
,
0110
0110
1001
0110
,
1001
0000
0000
0000
;

//---------------dance-single - Oni-91----------------
#NOTEDATA:;
#CHARTNAME:;
#STEPSTYPE:dance-single;
#DESCRIPTION:Oni-91;
#CHARTSTYLE:;
#DIFFICULTY:Beginner;
#METER:1;
#RADARVALUES:0.134067,0.199935,0.040803,0.000000,0.000000,115.000000,110.000000,5.000000,0.000000,0.000000,0.000000,0.000000,0.000000,0.000000,0.134067,0.199935,0.040803,0.000000,0.000000,115.000000,110.000000,5.000000,0.000000,0.000000,0.000000,0.000000,0.000000,0.000000;
#CREDIT:Oni-91;
#NOTES:
0100
0000
0000
0000
,
0000
0000
0000
0000
,
0010
0000
0000
0000
,
0000
0000
0000
0000
,
1000
0000
0000
0000
,
0001
0000
0000
0000
,
0100
0000
0000
0000
,
0010
0000
0010
0000
,
0010
0000
0000
0000
,
1000
0000
0000
0000
,
0100
0000
0000
0000
,
1000
0000
0000
0000
,
0001
0000
0000
0000
,
0010
0000
0000
0000
,
0100
0000
0000
0000
,
0100
0000
0000
0000
,
1001
0000
0000
0000
,
0001
0000
0001
0000
,
1000
0000
1000
0000
,
0010
0000
0100
0100
,
0100
0000
0000
0000
,
0000
0000
0000
0000
,
1001
0000
0001
0000
,
0100
0000
0001
0000
,
1000
0000
0100
0000
,
1000
0000
0000
0000
,
0001
0000
0010
0000
,
0001
0000
0100
0000
,
0010
0000
0100
0000
,
0010
0000
0000
0000
,
1000
0000
1000
0000
,
0100
0000
1000
0000
,
0001
0000
0001
0000
,
0100
0000
0000
0000
,
0001
0000
0010
0000
,
0001
0000
1000
0000
,
0010
0000
0100
0000
,
0001
0000
0000
0000
,
1001
0000
0000
0000
,
1000
0000
0001
0000
,
1000
0000
0000
0000
,
0010
0000
0000
0000
,
0100
0000
0000
0000
,
0001
0000
0100
0000
,
0001
0000
1000
0000
,
0100
0000
0000
0000
,
1001
0000
0000
0000
,
0001
0000
0000
0000
,
0100
0000
0000
0000
,
0010
0000
0000
0000
,
1000
0000
0000
0000
,
0001
0000
0000
0000
,
1000
0000
0000
0000
,
0000
0000
0000
0000
,
1001
0000
0001
0000
,
0100
0000
0010
0000
,
1000
0000
0100
0000
,
0010
0000
0100
0100
,
0100
0000
0010
0000
,
0001
0000
1000
0000
,
0001
0000
0001
0000
,
1000
0000
0010
0010
,
0010
0000
0100
0000
,
0001
0000
1000
1000
,
1000
0000
0100
0000
,
1000
0000
0001
0001
,
0001
0000
0010
0000
,
0100
0000
0010
0010
,
0010
0000
0001
0000
,
0100
0100
0100
0100
,
0100
0000
0000
0000
;
