#VERSION:0.83;
#TITLE:Astrogation;
#SUBTITLE:;
#ARTIST:Nana Mizuki;
#TITLETRANSLIT:;
#SUBTITLETRANSLIT:;
#ARTISTTRANSLIT:;
#GENRE:;
#ORIGIN:;
#CREDIT:;
#BANNER:Astrogation.png;
#BACKGROUND:Astrogation-bg.png;
#PREVIEWVID:;
#JACKET:;
#CDIMAGE:;
#DISCIMAGE:;
#LYRICSPATH:;
#CDTITLE:;
#MUSIC:Astrogation.mp3;
#OFFSET:-5.060000;
#SAMPLESTART:70.500000;
#SAMPLELENGTH:13.420000;
#SELECTABLE:YES;
#BPMS:0.000=143.000;
#STOPS:;
#DELAYS:;
#WARPS:;
#TIMESIGNATURES:0.000=4=4;
#TICKCOUNTS:0.000=4;
#COMBOS:0.000=1;
#SPEEDS:0.000=1.000=0.000=0;
#SCROLLS:0.000=1.000;
#FAKES:;
#LABELS:0.000=Song Start;
#BGCHANGES:;
#KEYSOUNDS:;
#ATTACKS:
;

//---------------dance-single - Oni-91----------------
#NOTEDATA:;
#CHARTNAME:;
#STEPSTYPE:dance-single;
#DESCRIPTION:Oni-91;
#CHARTSTYLE:;
#DIFFICULTY:Hard;
#METER:8;
#RADARVALUES:0.492314,0.505415,0.269978,0.301741,0.246157,434.000000,400.000000,34.000000,38.000000,0.000000,0.000000,0.000000,0.000000,0.000000,0.492314,0.505415,0.269978,0.301741,0.246157,434.000000,400.000000,34.000000,38.000000,0.000000,0.000000,0.000000,0.000000,0.000000;
#CREDIT:Oni-91;
#NOTES:
// measure 0
0000
0000
0000
0000
0000
0000
0000
0000
0000
0000
0000
0000
1000
0001
1000
0001
,  // measure 1
2000
0010
0001
0100
,  // measure 2
3002
0000
0000
0000
0010
0000
0003
0010
0001
0000
0010
0000
0001
0000
1000
0000
,  // measure 3
0100
0000
0000
0100
2000
0000
0000
0000
0010
0000
0000
0000
0001
0000
0000
0000
,  // measure 4
3010
0000
1000
0000
0100
0010
0001
0100
,  // measure 5
1020
0100
0001
0100
,  // measure 6
1000
0000
0130
0001
0000
0001
1000
0100
,  // measure 7
0010
0000
0000
0001
0010
0000
0000
0000
0002
0000
0000
0000
1003
0000
0000
0000
,  // measure 8
1000
0001
1000
0001
0000
1000
0000
0001
0000
2000
0002
0000
3003
0000
0000
0000
,  // measure 9
2001
0000
0000
0001
0000
0000
0001
0000
0000
0000
3001
0000
1000
0000
0100
0000
,  // measure 10
0020
0000
0000
0001
0000
0000
0001
0000
0002
0000
0000
0000
0033
0000
0001
0000
,  // measure 11
2000
0000
0000
0010
0000
0001
3001
1000
,  // measure 12
0200
0000
0000
0010
0000
0000
0010
0000
0310
0000
0000
0000
0010
0100
0010
0100
,  // measure 13
0010
0000
0011
0000
0001
0100
1000
0100
,  // measure 14
0001
1000
0100
0000
0010
0100
1000
0100
,  // measure 15
0010
0000
0000
0000
0100
0000
0000
0000
1000
0000
0000
0000
0001
0000
1000
0100
,  // measure 16
1000
0000
0000
0001
0000
0000
1000
0000
0001
0000
0100
0000
0010
0000
0100
0010
,  // measure 17
0100
0000
0000
0010
0000
0000
0100
0000
0001
0000
1000
0000
0100
0000
0000
0000
,  // measure 18
0010
0000
0000
0100
0000
0000
0010
0000
0001
0000
1000
0000
0010
0000
0000
0000
,  // measure 19
0100
0001
0010
0100
1000
0100
0001
0100
,  // measure 20
1000
0000
0000
0100
0000
0000
0010
0000
0001
0000
0000
0000
1001
0000
0000
0000
,  // measure 21
0110
0000
0010
1000
0100
0001
0100
0010
,  // measure 22
0001
0000
0000
1000
0000
0000
0001
0000
0100
0000
0000
0000
0110
0000
0000
0000
,  // measure 23
1001
0000
1000
0100
0010
1000
0010
0001
,  // measure 24
1000
0000
0001
0000
0010
0100
0010
0100
,  // measure 25
0110
0000
0000
0110
0000
0000
0010
0000
0011
0000
0000
0011
0000
0000
0001
0000
,  // measure 26
2002
0000
0000
3003
,  // measure 27
1002
0000
0010
0000
0103
0001
0010
0100
,  // measure 28
0020
0000
0130
1000
0001
0000
1001
0000
,  // measure 29
1010
0101
0011
1100
,  // measure 30
2002
0000
3003
0000
0010
1000
0100
0000
,  // measure 31
0010
0100
1000
0200
0000
1300
0001
0100
,  // measure 32
1000
0100
0010
2000
0000
3001
0010
0001
,  // measure 33
1001
0000
0000
1000
0100
0000
0010
0000
0001
0000
0000
0001
0100
0000
0010
0000
,  // measure 34
1000
0100
0001
2000
0000
3010
0001
0100
,  // measure 35
0010
0000
0000
1000
0000
0000
0010
0000
0100
0000
0000
0001
0000
0000
0100
0000
,  // measure 36
0001
1000
0001
1000
0001
1000
0100
0010
0001
0100
0010
2000
,  // measure 37
0002
0000
0000
0000
,  // measure 38
0000
0000
0000
3003
,  // measure 39
1001
0000
0000
0001
0000
0000
1000
0000
0100
0000
0010
0000
0100
0000
1000
0000
,  // measure 40
0001
0000
0000
0100
0000
0000
0001
0000
0100
0000
0001
0000
1000
0000
0100
0000
,  // measure 41
0010
0000
0000
0100
1000
0000
0001
0000
0100
0000
1000
0000
0100
0000
0001
0000
,  // measure 42
1000
0000
0000
0001
0000
0000
1000
0000
0100
0000
0010
0000
0110
0000
0000
0000
,  // measure 43
1001
0000
0000
1000
0000
0000
0001
0000
0100
0000
1000
0000
0100
0000
0010
0000
,  // measure 44
1000
0000
0000
0001
0000
0000
0010
0000
0001
0000
0100
0000
0010
0000
1000
0000
,  // measure 45
0001
0000
0000
0001
1000
0000
0100
0000
1000
0000
0000
0100
0000
0000
0010
0000
,  // measure 46
0001
0000
0000
1000
0000
0000
2002
0000
0000
0000
0000
0000
3003
0000
0000
0000
,  // measure 47
1001
0000
0000
0000
0001
0000
0100
0001
0000
0000
0101
0000
0000
0000
0001
1000
,  // measure 48
0001
0000
0000
0000
1000
0000
0100
1000
0000
0000
1100
0000
0000
0000
1000
0001
,  // measure 49
1000
0100
0001
0100
1000
0010
0001
0010
,  // measure 50
1000
0000
0000
0001
0000
0000
1000
0000
0002
0000
0000
0000
0103
0000
0000
0000
,  // measure 51
0110
0000
0000
0010
0000
0000
0200
0000
0000
0000
0310
0000
0010
0000
1000
0000
,  // measure 52
0001
0000
0000
1000
0000
0000
0002
0000
0000
0000
0013
0000
0010
0000
0001
0000
,  // measure 53
1000
0000
0000
0001
0100
0000
0010
0000
1000
0000
0100
0000
0001
0000
0100
0000
,  // measure 54
1000
0000
0000
0001
0000
0000
1000
0000
0100
0000
0000
0000
0010
0000
0100
0010
,  // measure 55
0100
0000
0000
0010
0000
0000
0001
0000
1000
0000
0000
0000
1001
0000
0000
0000
,  // measure 56
0001
0000
0000
0100
0000
0000
0010
0000
1000
0000
0000
0000
1001
0000
0000
0000
,  // measure 57
1000
0000
0000
0001
0010
0000
0001
0000
0100
0000
0000
0010
0000
0000
0100
0000
,  // measure 58
0001
1000
0100
0020
0000
0100
0130
0000
,  // measure 59
0010
0001
1000
0100
1000
0001
0100
1000
,  // measure 60
0200
0000
0320
0000
2030
0000
3001
0010
,  // measure 61
0001
1000
0100
0010
0001
0100
1000
0200
,  // measure 62
0000
0000
0010
0000
0310
0000
0000
0000
0100
0000
0010
0000
1000
0000
0001
1000
,  // measure 63
0001
0000
1000
0100
0000
0100
1000
0001
,  // measure 64
0200
0000
0320
0000
2030
0000
0100
3100
,  // measure 65
1100
0000
0000
1000
0000
0000
0001
0000
0101
0000
0000
0001
0000
0000
1000
0000
,  // measure 66
2002
0000
0000
3003
,  // measure 67
0110
0000
0000
0000
;

//---------------dance-single - Oni-91----------------
#NOTEDATA:;
#CHARTNAME:;
#STEPSTYPE:dance-single;
#DESCRIPTION:Oni-91;
#CHARTSTYLE:;
#DIFFICULTY:Medium;
#METER:6;
#RADARVALUES:0.338040,0.372411,0.206454,0.381146,0.067495,298.000000,272.000000,26.000000,48.000000,0.000000,0.000000,0.000000,0.000000,0.000000,0.338040,0.372411,0.206454,0.381146,0.067495,298.000000,272.000000,26.000000,48.000000,0.000000,0.000000,0.000000,0.000000,0.000000;
#CREDIT:Oni-91;
#NOTES:
0000
0000
0000
0000
0000
0000
1000
0001
,
1000
0010
0100
0001
,
1000
0000
0100
0010
0100
0010
0100
0000
,
0010
0000
0001
0000
0100
0000
0010
1000
,
0010
0000
0100
0000
0001
1000
0001
1000
,
0001
1000
0100
0001
,
0100
0000
1000
0000
0001
0100
0001
0100
,
0001
1000
0100
0010
,
0220
0000
0000
0330
,
2002
0000
3000
0000
,
0200
0000
0000
0000
0003
0000
0000
0010
,
0020
0000
0300
0000
,
2000
0000
0000
3030
,
1001
0000
0001
0000
1000
0000
0100
1000
,
0100
0000
0010
0000
0001
0000
0100
0010
,
0100
0000
0010
0000
1000
0000
0001
1000
,
0001
1000
0100
0000
,
0110
0000
0001
0100
0001
0100
0001
0000
,
1000
0010
0100
0000
,
0001
0000
1000
0100
1000
0100
1000
0000
,
0001
0000
0010
0100
0010
0000
0000
0000
,
1001
0000
1000
0001
1000
0001
0100
0000
,
0010
0100
0001
1001
,
2002
0000
3003
0000
1000
0001
2000
0002
,
0000
0000
0000
3003
0000
0100
0010
0100
,
0001
0000
0000
0001
0000
0000
0001
0000
1000
0000
0000
1000
0000
0000
1000
0000
,
2002
0000
0000
3003
,
1200
0000
0010
0000
0001
0000
0310
0100
,
0020
0001
1000
0031
,
1001
1001
0110
0110
,
2002
0000
3003
0000
1000
0001
1000
0000
,
0001
0000
0100
0001
0000
0001
1000
0000
,
0001
0000
0010
0001
0000
0001
1000
0000
,
1002
0000
0000
0100
0203
0000
0000
0010
,
0310
0100
0010
1000
0000
1000
0001
1000
,
0100
0000
0000
0100
0000
0000
0000
0000
0010
0000
0000
0010
0000
0000
0000
0000
,
0001
0000
0010
0000
0001
0000
1000
0000
0100
0000
1000
0000
,
2002
0000
0000
0000
,
0000
0000
0000
3003
,
1000
0000
0000
1000
0000
0000
2000
0000
0000
0000
0000
0000
3001
0000
0000
0000
,
0001
0000
0000
0001
0000
0000
0002
0000
0000
0000
0000
0000
0103
0000
0000
0000
,
0001
0000
1000
0100
1000
0000
0001
0010
,
0001
1000
0200
0300
,
0010
0000
0000
0001
0000
0000
0020
0000
0000
0000
0000
0000
0130
0000
0000
0000
,
0100
0000
0000
1000
0000
0000
0200
0000
0000
0000
0000
0000
0310
0000
0000
0000
,
0100
0000
1000
0001
1000
0000
0001
0000
,
0100
0000
0000
0002
0000
0000
2000
0000
0000
0000
0000
0000
3003
0000
0000
0000
,
2002
0000
0000
0000
3003
0000
0000
0110
0000
0000
0110
0000
0000
0000
0000
0000
,
0220
0000
0000
0000
0330
0000
0000
1001
0000
0000
1001
0000
0000
0000
0000
0000
,
1000
0100
1000
0000
0001
0010
0001
0000
,
1000
0000
0000
0001
0000
0000
1000
0000
0200
0000
0000
0000
0300
0000
0000
0000
,
0010
0000
0001
0010
0001
0000
0100
0000
,
0010
0000
1000
0100
1000
0000
0010
0000
,
0200
0000
0000
0001
0301
0000
1000
0000
,
0100
0000
0000
1000
0000
0000
0100
0000
2000
0000
0000
0000
3000
0000
0000
0000
,
0001
0000
0100
0001
0100
0000
0010
0000
,
1000
0000
0100
1000
0100
0000
0010
0001
,
0100
0001
1000
0001
,
1000
0100
0010
0002
0000
0000
0003
0000
,
1001
0000
1000
0000
0100
0000
0010
0100
,
0020
0032
0203
0320
,
1030
0000
0100
0000
0010
0000
0001
1000
,
0000
1000
0001
0000
0100
0001
1000
0000
,
1001
0000
0001
0200
0000
0000
0310
0000
,
2000
0000
3200
0000
0320
0000
0001
0031
,
0000
0002
2000
0000
0000
0000
3003
0000
,
0220
0000
0000
0330
,
1001
0000
0000
0000
;

//---------------dance-single - Oni-91----------------
#NOTEDATA:;
#CHARTNAME:;
#STEPSTYPE:dance-single;
#DESCRIPTION:Oni-91;
#CHARTSTYLE:;
#DIFFICULTY:Easy;
#METER:3;
#RADARVALUES:0.220066,0.266008,0.190573,0.254097,0.000000,194.000000,170.000000,24.000000,32.000000,0.000000,0.000000,0.000000,0.000000,0.000000,0.220066,0.266008,0.190573,0.254097,0.000000,194.000000,170.000000,24.000000,32.000000,0.000000,0.000000,0.000000,0.000000,0.000000;
#CREDIT:Oni-91;
#NOTES:
0000
0000
0000
1000
,
2002
0000
3000
0000
,
0203
0000
0320
0000
,
2030
0000
0000
0000
,
0002
0000
3003
1000
,
2002
0000
3000
0000
,
2003
0000
3100
1000
,
0001
0100
0010
1000
,
2002
0000
0000
3003
,
0220
0000
0030
0000
,
0002
0000
0300
0000
,
2000
0000
0003
0000
,
0200
0000
0000
3300
,
1001
0000
0001
0000
,
0100
0001
1000
0100
,
0010
0000
0100
0000
,
0010
0100
0010
0000
,
1001
0000
1000
0001
,
1000
0001
0100
0000
,
0010
0000
0100
0010
,
0100
0001
1000
0000
,
1001
0000
0001
1000
,
0100
0010
0001
1000
,
2000
3000
0000
0001
,
0002
0003
0100
0001
,
1001
0000
0110
0000
,
2002
0000
0000
3003
,
1001
0000
1000
0000
,
0100
1000
0100
0000
,
0010
0001
0100
0001
,
1000
0000
0010
0100
,
0001
0000
1000
0000
,
0001
1000
0001
1000
,
0100
0000
0010
0000
,
0001
1000
0001
0000
,
1001
0000
1001
0000
,
0220
0000
0000
0330
,
2002
0000
0000
0000
,
0000
0000
0000
3003
,
1001
0001
0100
0000
,
0001
1000
0100
0000
,
0010
0100
0010
0001
,
1000
0010
0100
0000
,
0010
0100
0001
0000
,
0010
0100
1000
0000
,
0001
1000
0001
1000
,
0100
0010
0100
0000
,
0220
0000
0330
0000
,
2002
0000
3003
0000
,
1000
0100
0010
0001
,
2002
0000
0000
3003
,
1001
0001
1000
0000
,
0001
1000
0001
0000
,
1000
0100
0010
0100
,
1000
0001
0100
0010
,
0100
0001
0100
0000
,
0001
1000
0100
0000
,
0010
0001
0100
1000
,
0100
0001
1000
0001
,
1001
0000
1000
0100
,
1000
0001
0010
0100
,
0010
0000
0100
0010
,
0001
1000
0001
0000
,
1001
0000
1000
0001
,
1000
0010
0100
0001
,
1000
0000
0001
0000
,
2002
0000
0000
3003
,
0110
0000
0000
0000
;

//---------------dance-single - Oni-91----------------
#NOTEDATA:;
#CHARTNAME:;
#STEPSTYPE:dance-single;
#DESCRIPTION:Oni-91;
#CHARTSTYLE:;
#DIFFICULTY:Beginner;
#METER:1;
#RADARVALUES:0.140661,0.212807,0.182632,0.015881,0.000000,124.000000,101.000000,23.000000,2.000000,0.000000,0.000000,0.000000,0.000000,0.000000,0.140661,0.212807,0.182632,0.015881,0.000000,124.000000,101.000000,23.000000,2.000000,0.000000,0.000000,0.000000,0.000000,0.000000;
#CREDIT:Oni-91;
#NOTES:
0000
0000
0000
0000
,
1001
0000
0000
0000
,
0001
0000
0100
0000
,
0001
0000
0000
0000
,
1000
0000
0000
0000
,
1001
0000
0000
0000
,
0010
0000
0100
0000
,
0010
0000
1000
0000
,
0000
0000
0000
0000
,
0110
0000
0000
0000
,
0000
0000
0000
0000
,
1001
0000
0000
0000
,
0000
0000
0000
0000
,
1001
0000
0001
0000
,
1000
0000
0001
0000
,
0100
0000
0000
0000
,
0010
0000
0100
0000
,
0001
0000
0001
0000
,
1000
0000
0000
0000
,
0001
0000
1000
0000
,
0100
0000
0000
0000
,
0010
0000
0100
0000
,
0010
0000
0001
0001
,
0001
0000
0000
1000
,
1000
0000
0000
0001
,
0001
0000
1000
0000
,
1001
0000
0000
0000
,
0110
0000
0010
0000
,
1000
0000
0001
0000
,
1000
0000
0100
0000
,
0010
0000
0000
0000
,
0100
0000
0100
0000
,
0010
0000
0010
0000
,
0001
0000
0001
0000
,
1000
0000
1000
0000
,
1001
0000
1001
0000
,
1001
0000
0000
0000
,
0220
0000
0000
0000
,
0000
0000
0000
0330
,
0110
0000
0000
0000
,
0010
0000
1000
0000
,
0001
0000
1000
0000
,
0100
0000
0000
0000
,
0110
0000
0000
0000
,
0010
0000
0001
0000
,
1000
0000
0001
0000
,
0100
0000
0001
0000
,
1001
0000
0000
0000
,
1001
0000
0000
0000
,
1000
0000
0001
0000
,
1000
1000
1000
0000
,
1001
0000
0000
0000
,
1001
0000
0000
0000
,
0001
0000
0010
0000
,
0001
0000
0010
0000
,
0110
0000
0000
0000
,
0110
0000
0000
0000
,
0100
0000
0010
0000
,
0100
0000
1000
0000
,
1001
0000
0000
0000
,
0001
0000
0010
0000
,
0001
0000
0100
0000
,
0010
0000
0000
0000
,
0110
0000
0100
0000
,
0001
0000
1000
0000
,
0100
0000
0000
0000
,
0110
0000
0000
0000
,
1001
0000
0000
0000
;
