#VERSION:0.83;
#TITLE:Aquarythm;
#SUBTITLE:;
#ARTIST:AX;
#TITLETRANSLIT:;
#SUBTITLETRANSLIT:;
#ARTISTTRANSLIT:;
#GENRE:;
#ORIGIN:;
#CREDIT:;
#BANNER:Aquarythm.png;
#BACKGROUND:Aquarythm-bg.png;
#PREVIEWVID:;
#JACKET:;
#CDIMAGE:;
#DISCIMAGE:;
#LYRICSPATH:;
#CDTITLE:;
#MUSIC:Aquarythm.mp3;
#OFFSET:-6.270000;
#SAMPLESTART:25.049999;
#SAMPLELENGTH:12.520000;
#SELECTABLE:YES;
#DISPLAYBPM:77.000000:153.000000;
#BPMS:0.000=153.333,
96.000=76.666,
112.000=153.333;
#STOPS:;
#DELAYS:;
#WARPS:;
#TIMESIGNATURES:0.000=4=4;
#TICKCOUNTS:0.000=4;
#COMBOS:0.000=1;
#SPEEDS:0.000=1.000=0.000=0;
#SCROLLS:0.000=1.000;
#FAKES:;
#LABELS:0.000=Song Start;
#BGCHANGES:;
#KEYSOUNDS:;
#ATTACKS:
;

//---------------dance-single - Oni-91----------------
#NOTEDATA:;
#CHARTNAME:;
#STEPSTYPE:dance-single;
#DESCRIPTION:Oni-91;
#CHARTSTYLE:;
#DIFFICULTY:Hard;
#METER:9;
#RADARVALUES:0.600837,0.605486,0.291947,0.191590,0.926019,461.000000,429.000000,32.000000,21.000000,0.000000,0.000000,0.000000,0.000000,0.000000,0.600837,0.605486,0.291947,0.191590,0.926019,461.000000,429.000000,32.000000,21.000000,0.000000,0.000000,0.000000,0.000000,0.000000;
#CREDIT:Oni-91;
#DISPLAYBPM:77.000000:153.000000;
#NOTES:
2000
0000
3002
0000
,
1003
0000
0001
0000
1000
0000
0220
0000
0000
0330
0000
0000
,
0020
0000
0000
0000
0000
0000
0130
0000
0010
0000
0100
0000
,
0001
0000
1000
0000
0001
0000
1000
0000
1000
0001
0010
0001
,
1000
0000
0000
0101
0000
0000
0010
0000
1000
0100
0000
0010
,
0001
0000
0000
1010
0000
0000
0100
0000
0010
0100
0001
0100
,
0010
0000
0000
1001
0000
0000
0100
0000
1000
0100
0000
1000
,
0010
0000
0100
0000
0010
0000
1000
0010
1000
0001
0010
0100
,
0010
0000
0000
0110
0000
0000
0010
0000
1000
0010
0000
0001
,
1000
0000
0000
1001
0000
0000
1000
0000
0010
1000
0000
0010
,
0100
0000
0100
0001
0000
0001
1000
0000
1000
0100
0000
0100
,
0010
0000
0002
0103
0000
0200
1300
0000
1000
0100
0001
1000
,
0001
0000
0000
1010
0000
0000
0100
0000
0010
1000
0000
0001
,
0020
0000
0000
0100
0000
0000
0001
0000
0000
0130
1000
0001
,
1000
0000
0000
0010
0000
0000
0100
0000
0000
0001
0000
1000
,
0200
0000
0000
0010
0000
0000
1300
0000
1000
0100
0010
0001
,
1000
0000
0000
0001
0000
0000
0100
0000
0010
0100
0000
0001
,
1000
0000
0000
0100
0000
0000
0010
0000
0001
0010
0100
0010
,
0001
1000
0101
1000
,
0110
0000
0000
0001
0000
0000
1100
0000
0000
0010
0001
1000
,
0100
0000
1000
0001
0000
0100
0001
0000
0010
0001
1000
0100
,
0010
0000
0100
0010
0000
0001
1000
0000
0010
1000
0100
0010
,
0100
0000
0000
0010
0000
0000
0001
0000
0000
1000
0000
0001
,
0100
0000
0000
0010
1000
0010
0100
0001
1000
0100
0010
0001
,
2000
0000
0000
0001
3002
0000
1000
0000
0000
0100
0203
0000
,
0001
0000
0000
0000
0000
0010
0000
0000
0320
0000
0000
0000
0100
0000
0000
0000
0000
0000
1000
0000
2030
0000
0000
0000
,
0010
0000
0000
0000
0000
0001
0000
0000
3002
0000
0000
0000
1000
0000
0000
0000
0000
0000
0010
0000
0023
0000
0000
0000
,
0100
0000
0000
0000
0000
0001
0000
0000
0032
0000
0000
0000
2000
0000
0000
0000
0000
0000
3003
0000
0000
0000
0000
0000
,
0210
0010
0010
0010
,
0001
0000
0000
0001
0000
0000
0301
0000
0000
0001
1000
0001
,
2000
0100
0100
0100
,
0001
0000
0000
0001
0000
0000
3001
0000
0001
1000
0001
1000
,
0001
0000
0000
0001
0100
0010
1000
0000
0000
0001
0000
1000
,
0100
0000
0000
1000
0100
0010
0001
0000
1010
0000
0101
0000
,
0110
0000
0000
0010
1000
0100
0010
0000
0100
0010
0001
0100
,
0010
0000
0000
1000
0010
0100
0001
0000
1000
0100
0010
0001
,
1000
0000
0001
0100
0000
0001
0010
0100
0010
0001
0000
1000
,
0100
0000
1000
0010
0000
0100
0010
0100
0010
0100
0001
1000
,
0100
0000
0010
0100
0000
0010
0001
1000
0010
0100
0000
0010
,
0100
0000
0001
1000
0000
0100
0010
0001
0100
0010
1000
0001
,
1000
0000
0000
0011
0000
0000
0010
0000
0001
0010
0001
1000
,
0001
0000
0000
1010
0000
0000
1000
0010
1000
0001
0100
0001
,
1000
0000
0000
1001
0000
0000
0001
0000
0010
0001
0100
0010
,
1000
0000
0000
0110
0000
0000
0001
0100
0010
0100
0000
0001
,
1000
0000
0000
0011
0000
0000
0010
0000
0001
0100
0000
0010
,
1000
0000
0000
0101
0000
0000
1000
0100
0001
0100
1000
0001
,
1000
0000
0000
1001
0000
0000
0001
0000
0100
0010
0000
1000
,
0001
0000
0000
1100
0000
0000
0010
0001
1000
0100
0001
0100
,
1000
0000
0000
1001
0000
0000
0001
0000
0100
0001
0100
0010
,
1000
0000
0000
1001
0000
1000
0001
0000
1000
0100
0010
0001
,
0100
0000
0000
1010
0000
0000
1000
0000
0001
1000
0100
0010
,
0100
0000
0000
0011
0000
0010
0001
1000
0100
0010
0100
1000
,
0001
0000
0000
1001
0000
0000
1000
0010
0100
0001
0010
0100
,
0010
0000
0000
1001
0000
1000
0010
0001
0010
1000
0100
0010
,
0001
0000
0000
1001
0000
0000
1000
0100
0001
0100
1000
0001
,
0100
0000
0000
0101
0000
0001
0100
1000
0100
0010
1000
0100
,
0010
0000
0010
0001
0000
0001
1000
0001
0100
0010
1000
0100
,
0010
0000
0010
0100
0000
0100
1000
0010
0001
0010
1000
0100
,
0010
0000
0100
0010
0000
0001
1000
0001
0100
0010
1000
0100
,
0001
0000
0101
0000
1100
0000
1000
0010
0100
0001
0010
0200
,
0000
0000
0000
0000
0300
0000
0000
0000
0000
0000
0000
0000
;

//---------------dance-single - Oni-91----------------
#NOTEDATA:;
#CHARTNAME:;
#STEPSTYPE:dance-single;
#DESCRIPTION:Oni-91;
#CHARTSTYLE:;
#DIFFICULTY:Medium;
#METER:6;
#RADARVALUES:0.402730,0.495397,0.063863,0.209837,0.364934,309.000000,302.000000,7.000000,23.000000,0.000000,0.000000,0.000000,0.000000,0.000000,0.402730,0.495397,0.063863,0.209837,0.364934,309.000000,302.000000,7.000000,23.000000,0.000000,0.000000,0.000000,0.000000,0.000000;
#CREDIT:Oni-91;
#DISPLAYBPM:77.000000:153.000000;
#NOTES:
2000
0000
3002
0000
,
0103
0000
0010
0000
0100
0000
0020
0000
0000
0000
0000
0000
,
2030
0000
3200
0000
,
0310
0000
0100
0000
0010
0000
0200
0000
0000
0000
0000
0000
,
0310
1010
1000
0001
,
0010
0000
0000
0001
0000
0000
1000
0000
0001
1000
0000
0000
,
0001
0000
0000
0100
0000
0000
0010
0000
0000
1000
0000
0001
,
1000
0000
0000
0001
0000
0000
1000
0000
0100
1000
0000
0000
,
0001
0000
0000
0010
0000
0000
0001
0000
0000
1000
0000
0010
,
1000
0000
0000
0001
0000
0000
0100
0000
0000
0001
0000
0010
,
0001
0000
1000
0001
0000
0000
1000
0000
0010
1000
0000
0000
,
0002
0010
2000
3003
,
0110
0000
0000
0010
0000
0000
1000
0000
0000
0100
0000
1000
,
0100
0010
0100
1000
,
0001
0000
0000
0100
0000
0000
0010
0000
0000
1000
0000
0001
,
0010
0000
0000
0001
0000
0000
0100
0000
0000
0001
0000
1000
,
0010
0000
0000
0100
0000
0000
0010
0000
0000
1000
0000
0001
,
0010
0100
0001
0100
,
1000
0000
0000
0001
0000
0000
1000
0000
0000
0010
0000
0100
,
0010
0000
0000
0100
0000
0000
0001
0000
0000
1000
0000
0010
,
0100
0000
0000
0010
0000
0000
1000
0000
0000
0001
1000
0001
,
1000
0001
0010
0100
,
0010
0000
0000
0001
0000
0000
1000
0000
0000
0001
0000
1000
,
0001
1000
0010
0100
,
0220
0030
0002
0300
,
2000
0003
0020
3000
,
0200
0030
0002
0300
,
2000
0003
0020
3030
,
1000
0001
1000
0001
,
1000
0000
0000
0001
0000
0000
1000
0000
0000
0001
1000
0001
,
1000
0010
1000
0010
,
1000
0000
0000
0010
0000
0000
1000
0000
0001
0010
0000
0100
,
1000
0000
0000
0001
0010
0001
0010
0000
0000
0001
0000
0000
,
0100
0000
0000
0010
0100
0010
0100
0000
0000
0010
0000
0000
,
1000
0000
0000
0001
0100
0001
0100
0000
0000
0010
0000
0000
,
1000
0000
0000
0100
1000
0100
1000
0000
0000
0001
0000
0000
,
1001
0000
0000
1000
0000
0000
0001
0000
0000
0100
0000
0010
,
0100
0000
0000
0010
0000
0000
1000
0000
0001
1000
0000
0001
,
1000
0000
0000
0100
0000
0000
0010
0000
0000
0100
0000
0010
,
0001
0000
0000
1000
0000
0000
0001
0000
0100
0001
0000
0001
,
1000
0000
0000
0010
0000
0000
0100
0000
0000
0010
0000
1000
,
0100
0000
0000
0010
0000
0000
0001
0000
1000
0001
0000
0100
,
0020
0100
2030
0010
,
3002
0010
0203
0310
,
1001
0000
0000
0011
0000
0000
1000
0000
0100
1000
0000
1000
,
0100
0000
0000
1000
0000
0000
0001
0000
0000
0100
0000
0010
,
0100
0000
0000
0001
0000
0000
1000
0000
0001
1000
0000
1000
,
0010
0000
0000
0100
0000
0000
0001
0000
0000
1000
0001
1000
,
0001
0000
0000
1000
0000
0000
0100
0000
0000
0010
0000
0100
,
0010
0000
0000
0001
0000
0000
1000
0000
0000
0001
0000
1000
,
0001
0000
0000
1000
0000
0000
0010
0000
1000
0010
0000
0100
,
0001
0000
0000
1000
0000
0000
0100
0000
0000
0010
0000
0001
,
1000
0000
0001
0100
0000
0000
0010
0000
1000
0100
0000
0000
,
0010
0000
0010
0001
0000
0001
0100
0000
0100
0010
0000
0010
,
1000
0000
0100
1000
0000
0000
0001
0000
0010
0001
0000
0000
,
1000
0000
1000
0010
0000
0010
0100
0000
0100
0001
0000
0001
,
1000
0000
0001
0100
0000
0000
0001
0000
1000
0100
0000
0000
,
1000
0000
1000
0100
0000
0100
0010
0000
0010
0001
0000
0001
,
0100
0000
0010
0100
0000
0001
1000
0000
0100
0010
0000
0001
,
1000
0000
0001
0000
1000
0000
0010
0100
0001
1000
0000
2002
,
0000
0000
0000
0000
3003
0000
0000
0000
0000
0000
0000
0000
;

//---------------dance-single - Oni-91----------------
#NOTEDATA:;
#CHARTNAME:;
#STEPSTYPE:dance-single;
#DESCRIPTION:Oni-91;
#CHARTSTYLE:;
#DIFFICULTY:Easy;
#METER:4;
#RADARVALUES:0.282824,0.385309,0.209837,0.173343,0.000000,217.000000,194.000000,23.000000,19.000000,0.000000,0.000000,0.000000,0.000000,0.000000,0.282824,0.385309,0.209837,0.173343,0.000000,217.000000,194.000000,23.000000,19.000000,0.000000,0.000000,0.000000,0.000000,0.000000;
#CREDIT:Oni-91;
#DISPLAYBPM:77.000000:153.000000;
#NOTES:
// measure 0
1000
0000
0001
0000
,  // measure 1
1000
0001
0100
0000
,  // measure 2
0001
0000
1000
0000
,  // measure 3
0001
1000
0100
0010
,  // measure 4
0220
0330
0010
0001
,  // measure 5
1000
0001
0100
0010
,  // measure 6
1000
0000
0001
1000
,  // measure 7
0100
0010
0001
0100
,  // measure 8
0010
0000
0100
0010
,  // measure 9
1000
0010
1000
0001
,  // measure 10
1000
0000
0001
1000
,  // measure 11
0100
0001
0100
1000
,  // measure 12
2002
3003
0001
0010
,  // measure 13
0100
0000
0001
0000
,  // measure 14
0100
0000
0010
0001
,  // measure 15
1000
0000
0001
0000
,  // measure 16
0100
0000
0010
0100
,  // measure 17
0001
0000
1000
0000
,  // measure 18
0010
1000
0100
0010
,  // measure 19
0100
1000
0001
1000
,  // measure 20
0002
0000
0010
0000
,  // measure 21
1000
1000
0100
0100
,  // measure 22
1003
0000
0010
0100
,  // measure 23
0001
0000
1000
0001
,  // measure 24
2002
0000
0000
3000
,  // measure 25
0200
0000
0000
0003
,  // measure 26
0020
0000
0000
0300
,  // measure 27
2000
0000
0000
3030
,  // measure 28
1000
0000
0001
0000
,  // measure 29
1000
0100
0010
0000
,  // measure 30
0001
0000
1000
0000
,  // measure 31
0001
0100
0010
0000
,  // measure 32
1000
0010
1000
0010
,  // measure 33
0100
0001
0100
0000
,  // measure 34
0001
0010
0001
0010
,  // measure 35
0100
1000
0100
0000
,  // measure 36
1000
0001
0100
0010
,  // measure 37
1000
0010
0100
0100
,  // measure 38
0100
0010
1000
0100
,  // measure 39
0001
0100
0010
0010
,  // measure 40
0010
0001
1000
0001
,  // measure 41
0100
0010
1000
1000
,  // measure 42
1000
0010
1000
0100
,  // measure 43
0010
0001
1000
0001
,  // measure 44
2002
3003
0010
1000
,  // measure 45
0100
0010
0001
1000
,  // measure 46
2002
3003
0001
0100
,  // measure 47
1000
0100
0001
1000
,  // measure 48
0220
0330
0010
0001
,  // measure 49
0100
0010
1000
0100
,  // measure 50
0220
0330
0010
0001
,  // measure 51
1000
0001
0100
0010
,  // measure 52
1001
1001
1001
1001
,  // measure 53
0001
0100
0010
1000
,  // measure 54
0110
0110
0110
0110
,  // measure 55
0010
1000
0100
0010
,  // measure 56
1001
1001
1001
1001
,  // measure 57
0001
0100
0010
1000
,  // measure 58
0110
0110
0110
0110
,  // measure 59
0010
1000
0001
2000
,  // measure 60
0000
0000
0000
0000
3000
0000
0000
0000
0000
0000
0000
0000
;

//---------------dance-single - Oni-91----------------
#NOTEDATA:;
#CHARTNAME:;
#STEPSTYPE:dance-single;
#DESCRIPTION:Oni-91;
#CHARTSTYLE:;
#DIFFICULTY:Beginner;
#METER:2;
#RADARVALUES:0.166827,0.192388,0.045617,0.009123,0.000000,128.000000,123.000000,5.000000,1.000000,0.000000,0.000000,0.000000,0.000000,0.000000,0.166827,0.192388,0.045617,0.009123,0.000000,128.000000,123.000000,5.000000,1.000000,0.000000,0.000000,0.000000,0.000000,0.000000;
#CREDIT:Oni-91;
#DISPLAYBPM:77.000000:153.000000;
#NOTES:
1000
0000
0001
0000
,
0100
0000
0000
0000
,
0001
0000
1000
0000
,
0100
0000
0000
0000
,
1001
0000
0000
0000
,
1000
0000
0001
0000
,
0100
0000
0000
0000
,
0010
0000
0100
0000
,
0001
0000
0000
0000
,
1000
0000
0100
0000
,
1000
0000
0000
0000
,
0001
0000
1000
0000
,
1001
0000
0000
0000
,
0001
0000
0001
0000
,
1000
0000
0000
0000
,
1000
0000
1000
0000
,
0100
0000
0000
0000
,
0100
0000
0100
0000
,
0010
0000
0000
0000
,
0010
0000
0010
0000
,
0001
0000
1000
0000
,
0001
0000
0100
0000
,
0010
0000
1000
0000
,
0001
0000
1000
0000
,
1001
0000
0000
0000
,
1000
0000
0000
0000
,
0100
0000
0000
0000
,
0010
0000
0000
0000
,
0110
0000
0010
0000
,
0001
0000
1000
0000
,
0001
0000
0100
0000
,
0010
0010
0010
0000
,
0100
0000
0010
0000
,
1000
0000
0001
0000
,
1000
0000
0100
0000
,
1000
1000
1000
0000
,
1001
0000
0001
0000
,
0100
0000
0001
0000
,
1000
0000
0100
0000
,
0010
0000
0100
0100
,
0100
0000
0010
0000
,
0001
0000
1000
0000
,
0001
0000
0100
0000
,
0010
0000
1000
1000
,
1000
0000
0010
0000
,
1000
1000
1000
0000
,
0001
0000
1000
0000
,
0001
0001
0001
0000
,
0010
0000
0100
0000
,
0010
0010
0010
0000
,
0001
0000
1000
0000
,
0010
0010
0010
0010
,
0100
0000
0010
0000
,
1000
1000
1000
1000
,
1000
0000
0001
0000
,
0010
0010
0010
0010
,
0010
0000
0100
0000
,
1000
1000
1000
1000
,
1000
0000
0001
0000
,
0100
0100
0100
0200
,
0000
0300
0000
0000
;
