#VERSION:0.83;
#TITLE:All the People in the World;
#SUBTITLE:;
#ARTIST:Safri Duo feat. Clark Anderson;
#TITLETRANSLIT:;
#SUBTITLETRANSLIT:;
#ARTISTTRANSLIT:;
#GENRE:;
#ORIGIN:;
#CREDIT:;
#BANNER:All the People in the World.png;
#BACKGROUND:All the People in the World-bg.png;
#PREVIEWVID:;
#JACKET:;
#CDIMAGE:;
#DISCIMAGE:;
#LYRICSPATH:;
#CDTITLE:;
#MUSIC:All the People in the World.mp3;
#OFFSET:-2.520000;
#SAMPLESTART:52.560001;
#SAMPLELENGTH:12.500000;
#SELECTABLE:YES;
#BPMS:0.000=96.000,
32.000=192.000,
168.000=96.000,
184.000=192.000;
#STOPS:;
#DELAYS:;
#WARPS:;
#TIMESIGNATURES:0.000=4=4;
#TICKCOUNTS:0.000=4;
#COMBOS:0.000=1;
#SPEEDS:0.000=1.000=0.000=0;
#SCROLLS:0.000=1.000;
#FAKES:;
#LABELS:0.000=Song Start;
#BGCHANGES:;
#KEYSOUNDS:;
#ATTACKS:
;

//---------------dance-single - Oni-91----------------
#NOTEDATA:;
#CHARTNAME:;
#STEPSTYPE:dance-single;
#DESCRIPTION:Oni-91;
#CHARTSTYLE:;
#DIFFICULTY:Hard;
#METER:9;
#RADARVALUES:0.586979,0.870899,0.289236,0.161632,0.195660,483.000000,449.000000,34.000000,19.000000,0.000000,0.000000,0.000000,0.000000,0.000000,0.586979,0.870899,0.289236,0.161632,0.195660,483.000000,449.000000,34.000000,19.000000,0.000000,0.000000,0.000000,0.000000,0.000000;
#CREDIT:Oni-91;
#NOTES:
// measure 0
1000
0000
0000
0000
1001
0000
0001
1000
0001
0000
0100
0000
0010
0000
0100
0000
,  // measure 1
0001
0000
0000
0000
1001
0000
1000
0100
0010
0000
0100
0000
1000
0000
0010
0000
,  // measure 2
0100
0000
0000
0000
0110
0000
0100
0001
0100
0000
0001
0000
1000
0000
0100
0000
,  // measure 3
0010
0000
0000
0000
0110
0000
0100
0010
0001
0000
1000
0001
0000
1000
0001
1000
,  // measure 4
0001
0000
0001
0000
1001
0000
0000
0000
0001
0000
0100
0000
0010
0000
1000
0100
,  // measure 5
1000
0000
0100
0000
0110
0000
0000
0000
0010
0000
0001
1000
0000
0001
1000
0001
,  // measure 6
0100
0000
0010
0000
0110
0000
0000
0000
0100
0000
0010
0000
1000
0000
1000
0001
,  // measure 7
1000
0000
0100
0000
0011
0000
0000
0000
0001
1000
0001
1000
0000
0010
0100
0000
,  // measure 8
0110
1001
0220
0000
,  // measure 9
0000
0000
0000
0000
,  // measure 10
0000
0000
0000
0000
,  // measure 11
0000
0000
0000
0000
0330
0010
1000
0001
,  // measure 12
1001
0110
2002
0000
,  // measure 13
0000
0000
0000
0000
,  // measure 14
0000
0000
0000
0000
,  // measure 15
0000
0000
0000
0000
3003
0001
1000
0010
,  // measure 16
0210
0010
0010
0010
,  // measure 17
0010
0010
0010
0010
,  // measure 18
0001
0001
0001
0001
,  // measure 19
0001
0001
0001
0001
,  // measure 20
0301
0100
0001
0100
0010
1000
0010
1000
,  // measure 21
0001
0010
0100
1000
0001
0100
0010
1000
,  // measure 22
0001
0010
1000
0010
0001
0010
1000
0010
,  // measure 23
0001
1000
0001
1000
2002
0000
3003
0000
,  // measure 24
0001
0100
0010
0000
0100
0010
1000
0000
,  // measure 25
0001
1000
0100
0001
0000
0100
1000
0001
,  // measure 26
1000
0010
0100
0002
0000
0010
0000
1000
,  // measure 27
0000
0100
0000
1000
0000
1000
1003
0000
,  // measure 28
0001
0010
0100
0000
0010
0001
0100
0000
,  // measure 29
0010
1000
0100
0001
0000
0100
1000
0001
,  // measure 30
0100
0010
1000
0020
0000
0001
0000
1000
,  // measure 31
0000
0100
0000
0001
0000
0130
0010
1000
,  // measure 32
2002
3003
0001
0100
,  // measure 33
0010
0000
1000
0100
0000
0010
0001
0100
,  // measure 34
0010
0100
0001
1000
,  // measure 35
0100
0000
0010
0100
0000
0010
0100
1000
,  // measure 36
0001
0100
1000
0100
,  // measure 37
0001
0000
1000
0001
0000
1000
0100
0010
,  // measure 38
0100
0010
0001
0010
,  // measure 39
0100
1000
0001
0100
0000
0010
0100
0001
,  // measure 40
1000
0001
1000
0001
1000
0000
0001
0000
1000
0001
1000
0001
1000
0000
0001
0000
,  // measure 41
0000
0001
0010
0010
1000
0010
0010
0000
,  // measure 42
0011
0000
1100
0000
1001
0000
0000
0000
0001
0100
1000
0100
0000
1000
0100
0001
,  // measure 43
1000
0000
0001
0000
1001
0000
0000
0000
0001
0010
0100
1000
0000
0100
0001
0100
,  // measure 44
1000
0000
0001
0000
0101
0000
0000
0000
0001
0010
0001
0100
0000
0010
1000
0100
,  // measure 45
0010
0000
0000
0000
0001
0000
0000
0000
1000
0000
0001
1000
0001
0000
0100
0000
0010
0000
1000
0000
0100
0000
0010
0000
0000
0000
0100
0000
1000
0000
0001
0000
,  // measure 46
0100
0010
1000
0000
0001
0010
0100
0000
,  // measure 47
0010
0001
1000
0001
0000
1000
0001
0000
,  // measure 48
0010
0100
0010
0100
0010
0000
0000
0000
0000
0000
1000
0000
0010
0000
0100
0000
,  // measure 49
0001
1000
0001
1000
0001
0000
0000
0000
0000
0000
1000
0000
0100
0000
0010
0000
,  // measure 50
0100
1000
0010
0000
0100
0001
0010
0000
,  // measure 51
0001
0010
0100
1000
0000
1000
0001
0000
,  // measure 52
1000
0010
1000
0010
1000
0000
0000
0000
0000
0000
0001
0000
1000
0000
0001
0000
,  // measure 53
0010
0001
0010
0001
0010
0000
0000
0000
0000
0000
0001
0000
1000
0000
0100
0000
,  // measure 54
0220
0000
0330
0000
0010
0001
0100
0000
,  // measure 55
0010
0000
1000
0100
0000
0100
0001
0100
,  // measure 56
1000
0001
0100
0000
0001
1000
0100
0000
,  // measure 57
0010
0001
0100
0010
0000
0100
0001
1000
,  // measure 58
0100
1000
0100
0010
0001
0000
0100
0010
,  // measure 59
0000
0100
0000
0110
0000
1001
0000
1000
,  // measure 60
0100
0010
0001
0000
1000
0010
0100
0001
,  // measure 61
0000
1001
0000
1000
0100
0010
0001
0000
,  // measure 62
1001
0000
0001
0000
1000
0010
0100
0001
,  // measure 63
0000
0010
0001
0100
0000
0010
0100
0001
,  // measure 64
1000
0000
0100
1000
0010
0100
0001
0010
,  // measure 65
0100
0000
0010
0001
0000
1000
0001
0000
,  // measure 66
1000
0000
0010
0100
0010
1000
0100
0010
,  // measure 67
0000
0110
0000
1001
0000
0110
0000
1001
,  // measure 68
0000
1000
0100
0010
0001
0100
0010
0100
,  // measure 69
0000
0010
0000
0100
0010
0000
1001
0000
,  // measure 70
0210
0000
0000
0000
0001
0001
0000
0001
,  // measure 71
0000
0001
0000
0001
0000
0001
0000
0302
,  // measure 72
0000
0000
0000
0000
1000
1000
0000
1000
,  // measure 73
0000
1000
0000
1000
0000
1000
0000
2003
,  // measure 74
0000
0000
0000
0000
0100
0100
0000
0100
,  // measure 75
0000
0100
0000
0100
0000
0100
0000
3200
,  // measure 76
0000
0000
0000
0000
0000
0000
0000
0010
,  // measure 77
0000
0010
0000
0010
0000
0310
0000
2002
,  // measure 78
0000
0000
0000
3003
;

//---------------dance-single - Oni-91----------------
#NOTEDATA:;
#CHARTNAME:;
#STEPSTYPE:dance-single;
#DESCRIPTION:Oni-91;
#CHARTSTYLE:;
#DIFFICULTY:Medium;
#METER:7;
#RADARVALUES:0.379167,0.497656,0.161632,0.127604,0.000000,312.000000,293.000000,19.000000,15.000000,0.000000,0.000000,0.000000,0.000000,0.000000,0.379167,0.497656,0.161632,0.127604,0.000000,312.000000,293.000000,19.000000,15.000000,0.000000,0.000000,0.000000,0.000000,0.000000;
#CREDIT:Oni-91;
#NOTES:
// measure 0
1001
0000
0001
0000
1000
0100
1000
0000
,  // measure 1
0001
0000
0100
0000
0010
0100
0010
0000
,  // measure 2
0100
0000
0001
0000
1000
0100
0010
0001
,  // measure 3
0100
0000
0010
0000
0100
0001
1000
0100
,  // measure 4
0010
0000
0010
0000
0010
0001
0010
0000
,  // measure 5
0001
0000
0001
0000
0001
1000
0001
0000
,  // measure 6
1000
0000
0010
0000
0100
0001
0100
0000
,  // measure 7
0001
0000
0010
0000
0100
1000
0001
0000
,  // measure 8
1001
1001
2002
0000
,  // measure 9
0000
0000
0000
0000
,  // measure 10
0000
0000
0000
0000
,  // measure 11
0000
0000
0000
0000
3003
0001
1000
0000
,  // measure 12
0110
0110
0220
0000
,  // measure 13
0000
0000
0000
0000
,  // measure 14
0000
0000
0000
0000
,  // measure 15
0000
0000
0000
0000
0330
0010
0100
0000
,  // measure 16
2002
0000
0000
0000
,  // measure 17
0000
0000
0000
0000
,  // measure 18
0000
0000
0000
0000
,  // measure 19
0000
0000
0000
3003
,  // measure 20
1000
0100
0010
0001
,  // measure 21
1000
0010
0100
0001
,  // measure 22
1000
0001
1000
0001
1000
0001
1000
0001
,  // measure 23
1000
0001
1000
0001
2000
0000
3000
0000
,  // measure 24
1001
0000
0110
0000
,  // measure 25
0001
0000
1000
0100
0000
0010
0001
0000
,  // measure 26
1000
0010
0100
0001
,  // measure 27
0010
0000
0100
0010
0000
0010
0100
0000
,  // measure 28
1000
0000
0001
1000
,  // measure 29
0010
0000
0100
0001
0000
1000
0010
0000
,  // measure 30
1000
0100
1000
0010
,  // measure 31
0100
0000
0001
1000
0000
0001
1000
0000
,  // measure 32
1001
0000
0001
0100
,  // measure 33
0001
0000
1000
0100
0000
1000
0100
0000
,  // measure 34
0010
0100
1000
0001
,  // measure 35
0100
0000
0001
0100
0000
0001
0100
0000
,  // measure 36
0010
0100
0001
1000
,  // measure 37
0100
0000
0010
0100
0000
0010
0100
0000
,  // measure 38
0010
0001
1000
0001
,  // measure 39
0100
0010
1000
0001
,  // measure 40
1000
0001
1000
0000
0001
1000
0001
1000
,  // measure 41
0000
0010
0100
0010
0100
0010
0100
0000
,  // measure 42
0001
0000
1001
0000
1000
0000
0001
0010
,  // measure 43
0100
0000
0010
0000
0001
1000
0010
0100
,  // measure 44
0010
0000
1001
0000
0001
1000
0100
0000
,  // measure 45
0010
0000
0100
1000
0100
0010
0001
0000
,  // measure 46
1000
0100
1000
0001
,  // measure 47
0100
0000
0001
0100
0000
0001
1000
0001
,  // measure 48
2000
0000
3100
0000
0000
0100
0000
0010
,  // measure 49
0002
0000
1003
0000
0000
0010
0000
0100
,  // measure 50
0001
0100
0010
1000
,  // measure 51
0100
0000
0010
0100
0000
0010
0001
1000
,  // measure 52
0002
0000
1003
0000
0000
0001
0000
0001
,  // measure 53
2000
0000
3001
0000
0000
1000
0010
0100
,  // measure 54
0020
0000
0030
0000
1000
0001
0000
1000
,  // measure 55
0000
0001
0000
1000
0000
0001
0000
1000
,  // measure 56
0100
1000
0100
0010
,  // measure 57
0100
0000
1000
0100
0000
0010
0001
0000
,  // measure 58
1000
0000
0001
0000
0100
0010
0000
1000
,  // measure 59
0000
0001
0000
0010
0000
0100
0000
0010
,  // measure 60
0001
0000
0100
0000
1000
0000
0100
0001
,  // measure 61
0000
1001
0000
1000
0100
0000
0110
0000
,  // measure 62
1001
0000
1000
0000
0001
0100
0001
0100
,  // measure 63
0000
0000
0001
1000
0000
0001
0000
1000
,  // measure 64
0010
0000
0100
0000
0001
1000
0001
1000
,  // measure 65
0001
1000
0100
0010
,  // measure 66
0100
0000
0000
0000
1000
0000
0100
1000
,  // measure 67
0000
0001
0000
1000
0000
0001
0000
0100
,  // measure 68
0001
0000
0100
0000
0010
0000
1000
0010
,  // measure 69
0000
0110
0000
0100
0001
0000
1001
0000
,  // measure 70
0210
0000
0000
0000
,  // measure 71
0001
0000
0000
0000
,  // measure 72
0010
0000
0000
0000
,  // measure 73
0001
0000
0000
0000
,  // measure 74
0320
0000
0000
0000
,  // measure 75
1000
0000
0000
0000
,  // measure 76
0100
0000
0000
0000
,  // measure 77
2000
0000
0000
0000
,  // measure 78
3030
0000
0000
0000
;

//---------------dance-single - Oni-91----------------
#NOTEDATA:;
#CHARTNAME:;
#STEPSTYPE:dance-single;
#DESCRIPTION:Oni-91;
#CHARTSTYLE:;
#DIFFICULTY:Easy;
#METER:3;
#RADARVALUES:0.205382,0.298594,0.093576,0.102083,0.000000,169.000000,158.000000,11.000000,12.000000,0.000000,0.000000,0.000000,0.000000,0.000000,0.205382,0.298594,0.093576,0.102083,0.000000,169.000000,158.000000,11.000000,12.000000,0.000000,0.000000,0.000000,0.000000,0.000000;
#CREDIT:Oni-91;
#NOTES:
// measure 0
0010
1000
0001
0000
,  // measure 1
1000
0001
0010
0000
,  // measure 2
0100
0010
0001
0000
,  // measure 3
0100
0000
0010
1000
,  // measure 4
1001
0001
0010
0000
,  // measure 5
0001
1000
0010
0000
,  // measure 6
0100
0010
1000
0100
,  // measure 7
0010
0100
1000
0001
,  // measure 8
1000
1000
2000
0000
,  // measure 9
0000
0000
0000
0000
,  // measure 10
0000
0000
0000
0000
,  // measure 11
0000
0000
0000
3000
,  // measure 12
0001
0001
0002
0000
,  // measure 13
0000
0000
0000
0000
,  // measure 14
0000
0000
0000
0000
,  // measure 15
0000
0000
0000
0003
,  // measure 16
2002
0000
0000
0000
,  // measure 17
0000
0000
0000
0000
,  // measure 18
0000
0000
0000
0000
,  // measure 19
0000
0000
0000
3003
,  // measure 20
0220
0000
0000
0000
,  // measure 21
0000
0000
0000
0000
,  // measure 22
0000
0000
0000
0000
,  // measure 23
0000
0000
0330
0000
,  // measure 24
1001
0000
0001
0000
,  // measure 25
1000
0100
1000
0000
,  // measure 26
0001
0000
0100
0010
,  // measure 27
0100
0001
0100
0000
,  // measure 28
0001
0000
1000
0000
,  // measure 29
0001
1000
0001
0000
,  // measure 30
1000
0000
0001
0010
,  // measure 31
0100
1000
0100
0000
,  // measure 32
0110
0000
0001
0000
,  // measure 33
1000
0001
1000
0001
,  // measure 34
1000
0000
0001
0000
,  // measure 35
0100
0001
0100
0001
,  // measure 36
0100
0000
0010
0000
,  // measure 37
0100
0010
1000
0001
,  // measure 38
1000
0000
0001
0000
,  // measure 39
0010
0001
1000
0001
,  // measure 40
1001
0000
1001
0000
,  // measure 41
0000
0010
0100
0010
,  // measure 42
2002
3003
0001
0100
,  // measure 43
0001
0000
1000
0100
,  // measure 44
0010
0000
0100
1000
,  // measure 45
0001
0000
1000
0010
,  // measure 46
0100
0000
0100
0000
,  // measure 47
0100
0000
0100
0000
,  // measure 48
0010
0100
0001
0000
,  // measure 49
0010
0001
0100
0000
,  // measure 50
0001
0000
0001
0000
,  // measure 51
0001
0000
0001
0000
,  // measure 52
1000
0001
0100
0000
,  // measure 53
0010
1000
0001
1000
,  // measure 54
1001
0000
0000
0000
,  // measure 55
1000
0001
1000
0100
,  // measure 56
0010
0000
0100
0000
,  // measure 57
0010
0000
0001
0000
,  // measure 58
1000
0000
0000
0000
,  // measure 59
0001
1000
0001
0100
,  // measure 60
0010
0000
0100
0000
,  // measure 61
0001
0000
1000
0000
,  // measure 62
0100
0000
0000
0000
,  // measure 63
0010
0001
1000
0100
,  // measure 64
1000
0000
0001
0000
,  // measure 65
0100
0000
0010
0000
,  // measure 66
0100
0000
0000
0000
,  // measure 67
0001
0100
0010
1000
,  // measure 68
0100
0000
0010
0000
,  // measure 69
0100
1000
0001
1000
,  // measure 70
2002
0000
0000
0000
,  // measure 71
0000
0000
0000
0000
,  // measure 72
0000
0000
0000
0000
,  // measure 73
0000
0000
3003
0000
,  // measure 74
0220
0000
0000
0000
,  // measure 75
0000
0000
0000
0000
,  // measure 76
0000
0000
0000
0000
,  // measure 77
0000
0000
0000
0000
,  // measure 78
0330
0000
0000
0000
;

//---------------dance-single - Oni-91----------------
#NOTEDATA:;
#CHARTNAME:;
#STEPSTYPE:dance-single;
#DESCRIPTION:Oni-91;
#CHARTSTYLE:;
#DIFFICULTY:Beginner;
#METER:2;
#RADARVALUES:0.132465,0.232240,0.085069,0.034028,0.000000,109.000000,99.000000,10.000000,4.000000,0.000000,0.000000,0.000000,0.000000,0.000000,0.132465,0.232240,0.085069,0.034028,0.000000,109.000000,99.000000,10.000000,4.000000,0.000000,0.000000,0.000000,0.000000,0.000000;
#CREDIT:Oni-91;
#NOTES:
// measure 0
1001
0000
0001
0000
,  // measure 1
0100
0000
0010
0000
,  // measure 2
0100
0000
0001
0000
,  // measure 3
1000
0000
0000
0000
,  // measure 4
1001
0000
0001
0000
,  // measure 5
0010
0000
0100
0000
,  // measure 6
1000
0000
0100
0000
,  // measure 7
0010
0000
0000
0000
,  // measure 8
1001
0000
0000
0000
,  // measure 9
0000
0000
0000
0000
,  // measure 10
0000
0000
0000
0000
,  // measure 11
0000
0000
0000
0000
,  // measure 12
0100
0100
0100
0000
,  // measure 13
0000
0000
0000
0000
,  // measure 14
0000
0000
0000
0000
,  // measure 15
0000
0000
0000
0000
,  // measure 16
1001
0000
0000
0000
,  // measure 17
0000
0000
0000
0000
,  // measure 18
0000
0000
0000
0000
,  // measure 19
0000
0000
0000
0000
,  // measure 20
0110
0000
0000
0000
,  // measure 21
0000
0000
0000
0000
,  // measure 22
0000
0000
0000
0000
,  // measure 23
0000
0000
0000
0000
,  // measure 24
1001
0000
0000
0000
,  // measure 25
0001
0000
0100
0000
,  // measure 26
0001
0000
0000
0000
,  // measure 27
1000
0000
0100
0000
,  // measure 28
0010
0000
0000
0000
,  // measure 29
0100
0000
0010
0000
,  // measure 30
0100
0000
1000
0000
,  // measure 31
0001
0000
1000
0000
,  // measure 32
0001
0000
0000
0000
,  // measure 33
1000
0000
1000
0000
,  // measure 34
1000
0000
0000
0000
,  // measure 35
0001
0000
0001
0000
,  // measure 36
0001
0000
0000
0000
,  // measure 37
0100
0000
0010
0000
,  // measure 38
0100
0000
0001
0000
,  // measure 39
1000
0000
0001
0000
,  // measure 40
1000
0000
0000
0000
,  // measure 41
0000
0000
0000
0000
,  // measure 42
1001
0000
0001
0000
,  // measure 43
1000
0000
0100
0100
,  // measure 44
0100
0000
0010
0000
,  // measure 45
0100
0000
1000
1000
,  // measure 46
1000
0000
0001
0000
,  // measure 47
1000
0000
0001
0000
,  // measure 48
0100
0000
0000
0000
,  // measure 49
0010
0000
0000
0000
,  // measure 50
0100
0000
0010
0000
,  // measure 51
0100
0000
0010
0000
,  // measure 52
1000
0000
0000
0000
,  // measure 53
0001
0000
0000
0000
,  // measure 54
1001
0000
0000
0000
,  // measure 55
0001
0000
0100
0000
,  // measure 56
0001
0000
0001
0000
,  // measure 57
0001
0000
0001
0000
,  // measure 58
0001
0000
0000
0000
,  // measure 59
1000
0000
0100
0000
,  // measure 60
1000
0000
1000
0000
,  // measure 61
1000
0000
1000
0000
,  // measure 62
1000
0000
0000
0000
,  // measure 63
0001
0000
0100
0000
,  // measure 64
0010
0000
0100
0000
,  // measure 65
0010
0000
0100
0000
,  // measure 66
0010
0000
0000
0000
,  // measure 67
0100
0000
0001
0000
,  // measure 68
1000
0000
0001
0000
,  // measure 69
1000
0000
0001
0000
,  // measure 70
0220
0000
0000
0000
,  // measure 71
0000
0000
0000
0000
,  // measure 72
0000
0000
0000
0000
,  // measure 73
0330
0000
0000
0000
,  // measure 74
0220
0000
0000
0000
,  // measure 75
0000
0000
0000
0000
,  // measure 76
0000
0000
0000
0000
,  // measure 77
0000
0000
0000
0000
,  // measure 78
0330
0000
0000
0000
;
