#TITLE:All The Wrong Places;
#SUBTITLE:;
#ARTIST:Example;
#TITLETRANSLIT:;
#SUBTITLETRANSLIT:;
#ARTISTTRANSLIT:;
#GENRE:;
#CREDIT:;
#BANNER:All The Wrong Places.png;
#BACKGROUND:All The Wrong Places-bg.PNG;
#LYRICSPATH:;
#CDTITLE:;
#MUSIC:All The Wrong Places.mp3;
#OFFSET:-7.130000;
#SAMPLESTART:92.460007;
#SAMPLELENGTH:14.220000;
#SELECTABLE:YES;
#BPMS:0.000000=135.000000
;
#STOPS:
;
#BGCHANGES:;
#KEYSOUNDS:;
#ATTACKS:;

//---------------dance-single - Oni-91----------------
#NOTES:
     dance-single:
     :
     Hard:
     7:
     0.417032,0.439905,0.113211,0.226422,0.153643,361.000000,347.000000,14.000000,28.000000,0.000000,0.000000,0.417032,0.439905,0.113211,0.226422,0.153643,361.000000,347.000000,14.000000,28.000000,0.000000,0.000000:
// measure 0
0100
0000
0000
0010
0000
0000
0200
0000
0000
0000
0000
0000
0001
0000
0002
0000
,  // measure 1
0000
0000
0000
0000
0303
0000
0001
1000
,  // measure 2
0100
0000
0000
0200
0000
0000
0000
0000
0000
0000
0000
0000
0310
0000
0100
0000
,  // measure 3
1000
0000
0001
2000
0000
3001
0100
0010
,  // measure 4
1000
0000
0000
0001
0000
0000
2000
0000
0000
0000
0000
0000
0100
0000
0200
0000
,  // measure 5
0000
0000
0000
0000
3300
0000
1000
0001
,  // measure 6
0010
0000
0000
0020
0000
0000
0000
0000
0000
0000
0000
0000
0031
0000
0010
0000
,  // measure 7
0100
0000
0020
0200
0000
0000
0330
0000
,  // measure 8
2002
3000
0200
0003
,  // measure 9
0020
0000
0000
0330
,  // measure 10
2000
0100
0002
3000
,  // measure 11
0020
0000
0000
0033
,  // measure 12
0020
0000
0200
0030
,  // measure 13
2000
0000
0000
3300
,  // measure 14
2002
0000
0003
0000
,  // measure 15
3000
0000
0000
0000
0000
0000
0010
0100
,  // measure 16
0110
0010
1000
0001
,  // measure 17
1000
0100
0001
0100
0010
0000
0001
1000
,  // measure 18
0001
0100
1000
0100
0010
0000
1000
0000
,  // measure 19
0001
1000
0001
1000
0100
0000
0010
0000
,  // measure 20
0001
0100
0100
0010
0010
1000
1000
0010
,  // measure 21
0100
1000
0100
0010
0100
0001
0100
0010
,  // measure 22
1000
0010
0100
0001
0010
0100
1000
0100
,  // measure 23
0020
0000
0000
0000
0000
0000
0000
0000
0030
0000
0000
0000
0001
1000
0001
1000
,  // measure 24
0001
0000
0100
0000
0000
0000
0100
0000
0001
0000
0000
1000
0000
0000
0001
0000
,  // measure 25
1000
0000
0100
0000
0000
0010
0000
0000
0100
0000
0000
1000
0000
0000
0001
0000
,  // measure 26
0100
0000
1000
0000
0000
0000
0100
0000
0010
0000
0000
0100
0000
0000
0002
0000
,  // measure 27
0000
0010
0010
0000
1000
0000
0103
0000
,  // measure 28
1000
0000
0100
0000
0000
0000
1000
0000
0001
0000
0000
0010
0000
0000
0001
0000
,  // measure 29
1000
0000
0100
0000
0000
0010
0000
0000
0100
0000
0000
0010
0000
0000
0001
0000
,  // measure 30
0010
0000
0100
0000
0000
0000
0100
0000
0001
0000
0000
0100
0000
0000
1000
0000
,  // measure 31
0001
0000
0100
0000
0010
0000
1000
0000
0001
1000
0000
0001
0000
1000
0001
0000
,  // measure 32
0100
0000
0001
0000
0100
0000
0000
0000
0010
0000
0000
1000
0000
0000
0100
0000
,  // measure 33
1000
0100
0010
0001
1000
0000
0110
0000
,  // measure 34
0010
1000
0100
0010
0001
0100
0010
1000
,  // measure 35
0001
1000
0100
0000
0011
0000
1100
0000
,  // measure 36
1000
0000
0001
0000
0100
0000
0000
0000
0010
0000
0000
0100
0000
0000
0010
0000
,  // measure 37
0100
0001
1000
0001
0100
0000
1001
0000
,  // measure 38
0001
0010
0100
0001
0100
1000
0010
2000
,  // measure 39
0000
0000
0000
3000
,  // measure 40
1001
0000
0001
0010
0100
0000
1100
0000
,  // measure 41
1000
0000
0000
0010
0000
0000
0100
0000
0000
0001
0000
0000
0010
0000
0001
0000
,  // measure 42
0100
0000
0001
1000
0100
0000
0110
0000
,  // measure 43
0001
0000
0000
1000
0000
0000
0001
0000
0000
0100
0000
0100
0010
0000
0100
0000
,  // measure 44
0001
0000
0010
0001
1000
0000
0010
1000
,  // measure 45
0001
0000
0000
1000
0000
0000
0001
0000
0000
1000
0000
0000
0100
0000
0010
0000
,  // measure 46
0100
1000
0100
0010
0001
0100
0010
1000
,  // measure 47
0010
0000
0000
0100
0000
0000
0010
0000
0000
1000
0000
1000
0001
0000
1000
0000
,  // measure 48
0001
0010
0100
1000
0100
0000
1001
0000
,  // measure 49
1000
0010
0100
0001
0100
0000
1001
0000
,  // measure 50
1000
0100
0001
0100
0010
0001
0100
0000
,  // measure 51
0001
0100
1000
0100
0010
1000
0001
0000
,  // measure 52
1000
0000
0000
0001
0000
0000
1000
0000
0001
0000
0000
0010
0000
0000
0001
0000
,  // measure 53
1000
0000
0000
0100
0000
0000
1000
0000
0010
0000
0000
0100
0000
0000
0010
0000
,  // measure 54
1000
0001
0100
0020
0000
0000
1000
2030
,  // measure 55
0000
0001
3002
0000
1000
1000
1003
0000
,  // measure 56
0001
0000
0010
0000
0001
0000
0000
0001
1000
0000
0010
0000
1000
0000
0000
0000
,  // measure 57
0010
1000
0100
0001
0100
0000
1100
0000
,  // measure 58
1000
0010
0100
1000
0100
0001
0010
0100
,  // measure 59
0010
0001
1000
0000
0001
0100
0001
0000
,  // measure 60
1000
0000
0100
0000
1000
0000
0000
1000
0001
0000
0100
0000
0001
0000
1000
0000
,  // measure 61
0100
0010
0001
0100
0010
0000
1001
0000
,  // measure 62
0001
0010
0100
0001
0100
1000
0001
0200
,  // measure 63
0000
0000
0310
0000
0100
0000
0010
0000
1000
0001
0000
1000
0000
0001
1000
0000
,  // measure 64
0100
0000
0000
0000
;

//---------------dance-single - Oni-91----------------
#NOTES:
     dance-single:
     :
     Beginner:
     1:
     0.127073,0.155261,0.113211,0.000000,0.000000,110.000000,96.000000,14.000000,0.000000,0.000000,0.000000,0.127073,0.155261,0.113211,0.000000,0.000000,110.000000,96.000000,14.000000,0.000000,0.000000,0.000000:
// measure 0
1001
0000
0000
0000
,  // measure 1
0000
0000
0000
0000
,  // measure 2
0100
0000
0000
0000
,  // measure 3
0010
0000
0000
0000
,  // measure 4
0100
0000
0000
0000
,  // measure 5
0000
0000
0000
0000
,  // measure 6
0010
0000
0000
0000
,  // measure 7
0100
0000
0000
0000
,  // measure 8
1001
0000
1000
0000
,  // measure 9
0001
0000
0000
0000
,  // measure 10
0100
0000
0010
0000
,  // measure 11
0100
0000
0000
0000
,  // measure 12
0010
0000
1000
0000
,  // measure 13
0001
0000
0000
0000
,  // measure 14
0010
0000
0001
0000
,  // measure 15
1000
0000
0000
0000
,  // measure 16
1001
0000
0000
0000
,  // measure 17
1000
0000
0001
0000
,  // measure 18
0100
0000
0000
0000
,  // measure 19
0010
0000
0010
0000
,  // measure 20
0100
0000
0100
0000
,  // measure 21
0010
0000
0010
0000
,  // measure 22
1000
0000
1000
0000
,  // measure 23
1001
0000
0000
0000
,  // measure 24
1001
0000
0001
0000
,  // measure 25
0100
0000
0010
0000
,  // measure 26
0100
0000
0001
0000
,  // measure 27
1000
0000
0000
0000
,  // measure 28
0001
0000
0010
0000
,  // measure 29
0001
0000
1000
0000
,  // measure 30
0001
0000
0100
0000
,  // measure 31
0010
0000
0000
0000
,  // measure 32
1001
0000
0000
0000
,  // measure 33
0110
0000
0000
0000
,  // measure 34
0100
0000
0010
0000
,  // measure 35
1000
0000
0100
0000
,  // measure 36
0110
0000
0000
0000
,  // measure 37
1001
0000
0000
0000
,  // measure 38
0001
0000
1000
0000
,  // measure 39
0110
0000
0000
0000
,  // measure 40
1001
0000
0001
0000
,  // measure 41
0100
0000
0000
0000
,  // measure 42
0010
0000
1000
0000
,  // measure 43
0001
0000
0000
0000
,  // measure 44
1000
0000
0100
0000
,  // measure 45
0010
0000
0000
0000
,  // measure 46
0100
0000
1000
0000
,  // measure 47
0001
0000
0000
0000
,  // measure 48
1000
0000
0001
0000
,  // measure 49
1000
0000
0001
0000
,  // measure 50
0100
0000
0010
0000
,  // measure 51
0100
0000
0010
0000
,  // measure 52
1000
0000
0100
0000
,  // measure 53
0010
0000
0001
0000
,  // measure 54
1001
0000
0000
0000
,  // measure 55
0000
0000
0000
0000
,  // measure 56
1001
0000
1000
0000
,  // measure 57
0001
0000
0100
0000
,  // measure 58
0010
0000
0010
0000
,  // measure 59
0010
0000
0000
0000
,  // measure 60
0100
0000
0001
0000
,  // measure 61
1000
0000
0100
0000
,  // measure 62
0010
0000
0010
0000
,  // measure 63
0010
0000
0000
0000
,  // measure 64
1001
0000
0000
0000
;

//---------------dance-single - Oni-91----------------
#NOTES:
     dance-single:
     :
     Easy:
     3:
     0.194076,0.232891,0.064692,0.137470,0.000000,168.000000,160.000000,8.000000,17.000000,0.000000,0.000000,0.194076,0.232891,0.064692,0.137470,0.000000,168.000000,160.000000,8.000000,17.000000,0.000000,0.000000:
// measure 0
1000
0000
0000
0000
,  // measure 1
0001
0000
0000
0000
,  // measure 2
0200
0000
0000
0000
,  // measure 3
0020
0000
0330
0000
,  // measure 4
0010
0000
1000
0000
,  // measure 5
0001
0000
0000
0000
,  // measure 6
2000
0000
0000
0000
,  // measure 7
0002
0000
3003
0000
,  // measure 8
1001
0000
0001
0000
,  // measure 9
0200
0000
0000
0000
,  // measure 10
0310
0000
0100
0000
,  // measure 11
0020
0000
0000
0000
,  // measure 12
1030
0000
0001
0000
,  // measure 13
2000
0000
0000
0000
,  // measure 14
3001
0000
0010
0000
,  // measure 15
0002
0000
0003
0000
,  // measure 16
1001
0000
1000
0000
,  // measure 17
0001
0000
0100
0000
,  // measure 18
0010
0000
0100
0000
,  // measure 19
0010
0100
0010
0100
,  // measure 20
0001
0000
1000
0000
,  // measure 21
0100
0000
0010
0000
,  // measure 22
0100
1000
0001
1000
,  // measure 23
0220
0000
0000
0330
,  // measure 24
1001
0001
0100
0000
,  // measure 25
0010
0100
0001
0000
,  // measure 26
1000
0100
0010
0000
,  // measure 27
0100
0000
1000
0001
,  // measure 28
0100
0010
1000
0000
,  // measure 29
0010
0100
0001
0000
,  // measure 30
0010
0001
1000
0000
,  // measure 31
0002
0000
0003
0000
,  // measure 32
1001
0000
1000
0100
,  // measure 33
1000
0000
0001
0000
,  // measure 34
1000
0000
0000
0001
0000
0000
1000
0000
,  // measure 35
0000
0001
1000
0010
,  // measure 36
0100
0000
0010
1000
,  // measure 37
0001
0000
0010
0001
,  // measure 38
0100
0000
0000
0010
0000
0000
0200
0000
,  // measure 39
0300
0000
0000
0000
,  // measure 40
1001
0001
0100
0010
,  // measure 41
2000
0000
0010
0000
,  // measure 42
3001
0010
0100
1000
,  // measure 43
0200
0000
0010
0000
,  // measure 44
1300
0001
0010
0001
,  // measure 45
2000
0000
0010
0000
,  // measure 46
3001
0010
0100
0010
,  // measure 47
0002
0000
0010
0000
,  // measure 48
0013
0001
0100
0000
,  // measure 49
0010
1000
0001
0000
,  // measure 50
1000
0100
0010
0001
,  // measure 51
0100
0010
1000
0001
,  // measure 52
1000
1000
0001
0001
,  // measure 53
0100
0100
0010
0010
,  // measure 54
1000
0001
1000
0100
,  // measure 55
0020
0000
0000
0030
,  // measure 56
0110
0010
0001
0000
,  // measure 57
0010
0001
0100
0000
,  // measure 58
0010
0000
0000
1000
0000
0000
0001
0000
,  // measure 59
1000
0100
0010
0001
,  // measure 60
0100
0010
1000
0000
,  // measure 61
0001
0100
0010
0000
,  // measure 62
1000
0000
0000
0001
0000
0000
1000
0000
,  // measure 63
0001
0010
0100
1000
,  // measure 64
1001
0000
0000
0000
;

//---------------dance-single - Oni-91----------------
#NOTES:
     dance-single:
     :
     Medium:
     5:
     0.315373,0.362275,0.113211,0.234508,0.008086,273.000000,259.000000,14.000000,29.000000,0.000000,0.000000,0.315373,0.362275,0.113211,0.234508,0.008086,273.000000,259.000000,14.000000,29.000000,0.000000,0.000000:
// measure 0
0002
0000
0000
0010
0000
0000
1000
2000
,  // measure 1
0000
0000
3003
1000
,  // measure 2
0020
0000
0030
0000
,  // measure 3
0200
0000
0300
0000
,  // measure 4
0020
0000
0000
1000
0000
0000
0100
0200
,  // measure 5
0000
0000
0330
0100
,  // measure 6
0002
0000
0003
1000
,  // measure 7
2002
0000
0000
3003
,  // measure 8
0210
0000
0302
0000
,  // measure 9
2000
0000
3003
0000
,  // measure 10
0002
0000
0023
0000
,  // measure 11
0200
0000
0330
0000
,  // measure 12
0200
0000
2300
0000
,  // measure 13
0002
0000
3003
0000
,  // measure 14
0002
0000
0203
0000
,  // measure 15
0020
0000
0000
0330
,  // measure 16
1001
0001
0010
0001
,  // measure 17
1000
0010
0000
0100
0001
0000
0100
0000
,  // measure 18
0001
1000
0100
0001
,  // measure 19
0100
0010
0100
1000
,  // measure 20
0001
0001
0100
0100
,  // measure 21
0010
0010
1000
1000
,  // measure 22
0001
1000
0001
1000
0000
0000
0020
0200
,  // measure 23
0000
0000
0000
0330
,  // measure 24
0010
1001
1000
0001
,  // measure 25
0010
0000
0100
0000
0010
0001
1000
0000
,  // measure 26
0010
0101
0100
0010
,  // measure 27
1000
0010
0100
0000
0001
0010
0100
0000
,  // measure 28
0110
0000
1001
0000
1000
0010
1000
0000
,  // measure 29
0001
0000
0100
0000
0010
1000
0100
0000
,  // measure 30
0010
0000
0100
0000
0010
0001
1000
0000
,  // measure 31
0001
0100
0001
1000
0100
0000
1001
0000
,  // measure 32
0001
0100
0000
0100
0001
0000
1000
0000
,  // measure 33
0001
0010
0000
0010
0001
0000
1000
0000
,  // measure 34
0010
0100
0000
0100
0001
0000
0001
1000
,  // measure 35
0100
0000
0010
0000
0100
0010
0001
0000
,  // measure 36
1000
0010
0000
1000
0010
0000
0100
0000
,  // measure 37
0001
0010
0000
0100
1000
0000
0001
0000
,  // measure 38
1000
0010
0000
0100
0001
0000
2000
0002
,  // measure 39
0000
0000
0000
3003
,  // measure 40
0110
0000
0010
1000
0100
0000
0010
0001
,  // measure 41
0200
0010
1000
0310
,  // measure 42
0100
0000
0001
1000
0100
0000
0010
0100
,  // measure 43
0020
0001
0100
0031
,  // measure 44
1000
0000
0001
1000
0010
0000
1000
0001
,  // measure 45
2000
0010
0001
3100
,  // measure 46
0001
0000
0010
0100
1000
0000
0010
0100
,  // measure 47
0002
0010
1000
0103
,  // measure 48
0001
0100
0001
0000
1000
0000
0100
0000
,  // measure 49
0010
0100
0000
0010
0100
0000
0010
0000
,  // measure 50
0001
0000
0100
0010
1000
0000
0100
0000
,  // measure 51
1000
0100
0010
0001
1000
0000
1001
0000
,  // measure 52
0001
0000
0100
0001
0100
0000
0010
0000
,  // measure 53
1000
0000
0100
1000
0100
0000
1000
0000
,  // measure 54
0010
0100
0010
0100
0000
0000
0001
1000
,  // measure 55
0000
0001
1000
0000
0110
0000
1001
0000
,  // measure 56
0001
0000
0000
0000
0010
0000
0000
0000
0001
0000
0000
1000
0000
0000
0001
0000
,  // measure 57
1000
0001
0100
0110
,  // measure 58
0010
1000
0000
0001
0100
0000
0001
0010
,  // measure 59
0000
0100
1000
0000
0001
1000
0001
0000
,  // measure 60
1000
0000
0000
0000
0100
0000
0000
0000
0010
0000
0000
0001
0000
0000
0010
0000
,  // measure 61
0001
0000
1000
0010
1000
0000
1001
0000
,  // measure 62
0001
1000
0000
0001
1000
0000
0010
0100
,  // measure 63
0010
0000
0100
0000
0001
0010
0100
1000
,  // measure 64
0100
0000
0000
0000
;
