#TITLE:Aegis;
#SUBTITLE:;
#ARTIST:IT medalion;
#TITLETRANSLIT:;
#SUBTITLETRANSLIT:;
#ARTISTTRANSLIT:;
#GENRE:;
#CREDIT:;
#BANNER:Aegis.png;
#BACKGROUND:Aegis-bg.png;
#LYRICSPATH:;
#CDTITLE:;
#MUSIC:Aegis.mp3;
#OFFSET:-5.950000;
#SAMPLESTART:53.709999;
#SAMPLELENGTH:11.850000;
#SELECTABLE:YES;
#BPMS:0.000000=162.000000
;
#STOPS:192.750000=0.370000
;
#BGCHANGES:;
#KEYSOUNDS:;
#ATTACKS:;

//---------------dance-single - Oni-91----------------
#NOTES:
     dance-single:
     :
     Hard:
     8:
     0.566015,0.581638,0.247038,0.228035,0.156774,417.000000,391.000000,26.000000,24.000000,0.000000,0.000000,0.566015,0.581638,0.247038,0.228035,0.156774,417.000000,391.000000,26.000000,24.000000,0.000000,0.000000:
// measure 0
1000
0100
1000
0001
0100
0001
1000
0001
,  // measure 1
1000
0000
0000
0001
0000
0000
1000
0000
0010
0000
0000
0010
0000
0000
0010
0000
,  // measure 2
1000
0100
0010
0100
0000
0100
0010
0001
,  // measure 3
1000
0000
0000
0010
0000
0000
1000
0000
0002
0000
0000
2000
0000
0000
3003
0000
,  // measure 4
1000
0100
0010
0001
0010
0100
1000
0001
,  // measure 5
0100
0000
0000
0010
0000
0000
0100
0000
0001
0000
0000
0001
0000
0000
0001
0000
,  // measure 6
1001
0000
0001
1000
1100
0000
0100
0010
,  // measure 7
0100
1000
0001
0100
0220
0000
0330
0000
,  // measure 8
0010
0100
0010
0100
0001
0100
0001
0100
,  // measure 9
0010
0000
1000
0100
0010
0001
0100
0100
,  // measure 10
0001
1000
0001
1000
0100
1000
0100
0010
,  // measure 11
0001
0000
0000
0000
1000
0000
0100
0000
0110
0000
0000
1001
0000
0000
0000
0000
,  // measure 12
1000
0100
0001
0100
1000
0001
1000
0001
,  // measure 13
1000
0010
0001
0010
1000
0000
1001
0000
,  // measure 14
1000
0100
0010
0001
1000
0010
0100
0001
,  // measure 15
1000
0000
1100
0000
0100
0010
0001
0010
,  // measure 16
0011
0000
0001
0000
0010
0000
0100
0100
,  // measure 17
1000
0001
1000
0001
,  // measure 18
1000
0000
0010
0000
0100
0000
0001
0001
,  // measure 19
1000
0000
0100
0000
0010
0000
0100
0010
,  // measure 20
1001
0000
1000
0000
0010
0000
0100
0001
,  // measure 21
0100
0000
0001
0000
0010
0000
0100
1000
,  // measure 22
1001
0001
0010
0002
,  // measure 23
1003
0100
0010
0001
0100
0010
0220
0000
,  // measure 24
0330
0000
1001
0000
1000
0010
0100
0001
,  // measure 25
0010
0000
0001
1000
0100
1000
0020
0000
,  // measure 26
0030
1000
1001
0000
0001
0010
0100
0010
,  // measure 27
0001
0000
1000
0000
0001
0000
0000
0000
1000
0000
0010
0000
0210
0000
0000
0310
,  // measure 28
0000
0000
1010
0000
1000
0100
0010
0100
,  // measure 29
1000
0000
0000
0000
0001
0000
0000
0000
0100
0000
0010
0000
1000
0000
0000
0001
,  // measure 30
0000
1000
0100
0010
0001
0000
0100
0010
,  // measure 31
1000
0000
0000
0000
0001
0000
0100
0000
0001
0000
1000
0000
0100
1000
0100
1000
,  // measure 32
0100
0000
0000
0000
1001
0000
0000
0001
0000
0000
0200
0000
0000
0000
0310
0000
,  // measure 33
0100
0000
0001
0000
1000
0000
0000
0100
0000
0000
1000
0000
0001
0000
0000
0100
,  // measure 34
0000
0000
0001
0000
1000
0000
0000
0010
0000
0000
0200
0000
0000
0000
0301
0000
,  // measure 35
0100
0000
0001
0000
1000
0000
0000
0100
0000
0000
0010
0000
0011
0000
0000
2002
,  // measure 36
0000
0000
3003
0000
1000
0000
0000
0100
0000
0000
1000
0000
0001
0000
0010
0000
,  // measure 37
0100
0000
0010
0000
0001
0000
0000
1000
0000
0000
0001
0000
0010
0000
0000
0100
,  // measure 38
0000
0010
0011
0000
0001
1000
1010
0000
,  // measure 39
0010
0000
0100
0000
0001
0000
1000
0000
0001
0000
1000
0000
0001
1000
0001
1000
,  // measure 40
0002
0203
0000
0000
,  // measure 41
0000
0320
0000
0000
,  // measure 42
0000
2030
0000
0000
,  // measure 43
0000
3002
0000
0000
,  // measure 44
0003
1002
0100
0010
,  // measure 45
0100
2003
0100
0010
,  // measure 46
0100
3020
0100
0001
,  // measure 47
1000
0000
0000
0000
0130
0000
0010
0000
0100
0000
0010
0000
0100
0010
0100
0010
,  // measure 48
0100
0010
0100
0020
0030
0000
0000
0000
1000
0000
0001
0000
1000
0000
0100
0000
,  // measure 49
0010
0001
0010
0000
0001
0100
0010
1000
,  // measure 50
0001
0000
0000
1000
0000
0000
0001
0000
1000
0000
0010
0000
0100
0000
0001
0000
,  // measure 51
1000
0001
1000
0000
0001
0010
0100
0010
,  // measure 52
0001
0001
1000
1000
0010
0000
0100
0010
,  // measure 53
0100
0001
1000
0000
0001
0000
1000
0100
,  // measure 54
0010
0000
0000
0001
0000
0000
1000
0000
0100
0000
0000
0000
0010
0000
0001
0000
,  // measure 55
0100
0010
1000
0010
0100
0001
1000
0100
,  // measure 56
0110
0000
0000
1001
0000
0000
0000
0000
1000
0000
0100
0000
1000
0000
0001
0000
,  // measure 57
0100
0001
1000
0100
0010
0001
0100
0010
,  // measure 58
0100
0000
0000
0110
0000
0000
0000
0000
0010
0000
0100
0000
0001
0000
1000
0000
,  // measure 59
0100
0010
0001
1000
0001
0100
0010
1000
,  // measure 60
1001
2002
0000
3003
1000
0100
0010
0001
,  // measure 61
1000
0001
0100
0000
0001
0100
0010
1000
,  // measure 62
0100
0000
0000
1000
0000
0000
0001
0000
1000
0000
0100
0000
0010
0000
0001
0000
,  // measure 63
1000
0010
0100
0001
1000
0100
0001
0100
,  // measure 64
1000
0000
0001
0000
1000
0001
1000
0001
0000
0000
0000
0000
0000
0000
0000
0000
;

//---------------dance-single - Oni-91----------------
#NOTES:
     dance-single:
     :
     Medium:
     6:
     0.442497,0.458742,0.218534,0.313548,0.023754,326.000000,303.000000,23.000000,33.000000,0.000000,0.000000,0.442497,0.458742,0.218534,0.313548,0.023754,326.000000,303.000000,23.000000,33.000000,0.000000,0.000000:
1000
0100
0010
0000
0100
0010
0001
0000
,
1000
0001
1000
0100
,
0010
0001
0100
0000
0010
0100
0001
0000
,
1000
0001
0220
0330
,
0010
1000
0010
0000
0100
0001
0100
0000
,
0001
1000
0100
0010
,
0220
0330
2002
3003
,
1000
0100
0010
0002
2000
0000
3003
0000
,
1000
0100
0010
0100
1000
0000
0001
0000
,
0100
0001
0100
0000
0010
0000
1000
0000
,
0001
0010
0100
0010
0001
0000
1000
0000
,
0001
1000
0010
0000
0220
0000
0330
0000
,
0010
1000
0100
0010
0100
0000
0010
0000
,
0001
0000
1000
0001
1000
0000
0001
0000
,
0100
0010
0100
0001
1000
0000
0001
0000
,
1001
0000
1000
0000
0100
0010
0001
0000
,
1001
0000
1000
0000
0001
0000
1000
1000
,
1000
0001
0010
0100
,
0010
0000
0001
0000
0100
0000
0010
0010
,
0010
0000
0100
0000
0001
0000
1000
1000
,
1001
0000
0001
0000
0010
0000
0100
0100
,
0100
0000
1000
0000
0100
0000
0010
0010
,
0010
0001
1000
0001
,
0100
0010
0100
0010
0100
0000
2002
0000
,
3003
1001
1000
0100
,
0010
0000
0001
0000
1000
0001
0200
0000
,
0300
0110
0010
1000
,
0001
0000
1000
0000
0100
0010
0200
0000
,
0300
0000
0010
0001
1000
0000
0001
1000
,
0010
0000
0100
0000
0010
1000
0002
0000
,
0003
0000
1000
0100
1000
0000
0001
0010
,
0001
0000
1000
0001
1000
0001
0200
0000
,
0310
0000
0000
0000
1002
0000
0000
1000
0000
0000
1000
0000
0000
0000
1003
0000
,
0000
0001
0100
0000
0010
0000
0100
0000
,
0001
0000
0000
0000
0012
0000
0000
0010
0000
0000
0010
0000
0000
0000
0013
0000
,
0000
0001
1000
0000
0010
0100
0020
0000
,
0030
0000
0000
0000
0120
0000
0000
0100
0000
0000
0100
0000
0000
0000
0130
0000
,
0000
0010
1000
0000
0001
1000
0200
0000
,
0300
0000
0110
0000
0010
0001
0100
0000
,
0010
1000
0001
1000
0001
0000
2002
0000
,
3003
0120
0000
0000
,
0000
2030
0000
0000
,
0000
3002
0000
0000
,
0000
2003
0000
0000
,
3000
1001
0001
0010
,
0001
1000
0010
1000
,
0001
0100
0001
0000
0100
0000
0001
0000
,
0010
0000
0100
0000
1000
0000
0001
1000
,
0001
1000
0000
0000
1001
0000
0001
0100
,
0001
0000
1000
0100
0000
0000
0010
0001
,
1000
0000
0001
0000
0101
0000
0100
0010
,
1000
0000
0010
1000
0000
0000
0100
0010
,
0001
0010
0100
0000
0110
0000
0100
1000
,
0001
0000
1000
0001
0000
0000
1000
0000
,
0001
0100
0001
0000
1000
0000
0010
0100
,
0010
0000
1000
0001
1000
0000
0001
0000
,
0022
0000
0033
0000
0001
1000
0100
0000
,
1000
0001
0100
0000
0001
0000
0010
0100
,
0020
0000
0000
0130
0000
0000
0000
0000
0010
0000
0001
0000
0100
0000
0000
0000
,
0010
1000
0100
0000
1000
0000
0001
2000
,
0001
0002
0000
3003
1000
0100
1000
0000
,
0001
0100
0001
0000
1000
0100
0010
0001
,
0200
0000
0000
0010
0000
0000
0310
0000
0110
0000
0000
0000
0010
0000
0000
0000
,
1010
0000
1000
0000
0001
0010
0001
0010
,
0100
1000
0100
1000
0000
0000
0000
0000
;

//---------------dance-single - Oni-91----------------
#NOTES:
     dance-single:
     :
     Easy:
     4:
     0.305404,0.305234,0.209032,0.171026,0.000000,225.000000,203.000000,22.000000,18.000000,0.000000,0.000000,0.305404,0.305234,0.209032,0.171026,0.000000,225.000000,203.000000,22.000000,18.000000,0.000000,0.000000:
1000
0001
0100
0001
,
1000
0000
0001
0000
,
1000
0001
0010
0001
,
1000
0000
2002
3003
,
0110
0000
0010
1000
,
0100
1000
0001
1000
,
1001
0000
0110
0000
,
0100
0010
2002
3003
,
1000
0100
1000
0000
,
0001
0100
0001
0000
,
1000
0100
0010
0001
,
0100
0000
0110
0000
,
0010
1000
0001
1000
,
0100
0000
0110
0000
,
1001
0000
1001
0000
,
0100
0010
0100
0001
,
1002
1000
1000
1000
,
0100
0100
0100
0203
,
0010
0010
0010
0010
,
0001
0001
0001
0301
,
0001
1000
0100
1000
,
0001
1000
0010
1000
,
0100
0010
0001
0100
,
0010
1000
0001
0200
,
0300
0001
1000
0001
,
1000
0100
0010
0001
,
0000
1000
0001
1000
,
0010
0100
0001
0010
,
0000
0001
1000
0001
,
0000
1000
0010
0100
,
0000
0010
0100
0001
,
0010
0100
0010
0220
,
0330
1001
0000
1001
,
0000
1000
0010
0100
,
0001
0010
0000
0110
,
0000
0100
0010
0001
,
0000
1000
0001
1000
,
0001
0100
0010
0100
,
0000
0110
0000
1001
,
0000
1000
0001
0200
,
0300
0210
0000
0000
,
0000
0302
0000
0000
,
0000
2003
0000
0000
,
0000
3200
0000
0000
,
0300
0110
0010
0001
,
0010
0100
1000
0100
,
1000
0001
1000
0010
,
0100
0010
1000
0001
,
1000
0000
1001
0000
,
0001
0100
0001
0000
,
1000
0000
0001
0000
,
1000
0100
1000
0000
,
0001
0000
0010
0100
,
0010
0001
1000
0000
,
0001
0000
1000
0010
,
0100
0001
1000
0001
,
2002
3003
1000
0010
,
0001
0010
0100
0010
,
2002
3003
0001
0010
,
0100
0010
1000
0010
,
0110
0000
0100
0010
,
0001
1000
0001
1000
,
0001
0100
1000
0100
,
0010
1000
0001
1000
,
0100
0010
0000
0000
;

//---------------dance-single - Oni-91----------------
#NOTES:
     dance-single:
     :
     Beginner:
     1:
     0.161525,0.213664,0.114018,0.000000,0.000000,119.000000,107.000000,12.000000,0.000000,0.000000,0.000000,0.161525,0.213664,0.114018,0.000000,0.000000,119.000000,107.000000,12.000000,0.000000,0.000000,0.000000:
0100
0000
0001
0000
,
0100
0000
0000
0000
,
0010
0000
1000
0000
,
0010
0000
0100
0000
,
0001
0000
0001
0000
,
1000
0000
1000
0000
,
0100
0000
0010
0000
,
0110
0000
0000
0000
,
1000
0000
0100
0000
,
0010
0000
0001
0000
,
0100
0000
0010
0000
,
0100
0000
0000
0000
,
0010
0000
1000
0000
,
0001
0000
1000
0000
,
0100
0000
0010
0000
,
0001
0000
1000
0000
,
1001
0000
0000
0000
,
0001
0000
0000
0000
,
0100
0000
0000
0000
,
0010
0000
0000
0000
,
1000
0000
0100
0000
,
1000
0000
0100
0000
,
0010
0000
0001
0000
,
0010
0000
0001
0001
,
0000
1001
0000
1000
,
0000
0010
0000
0000
,
0000
0100
0000
0010
,
0000
1000
0000
0001
,
0000
1000
0000
0100
,
0000
0010
0000
0000
,
0000
0100
0000
0010
,
0000
0001
0000
1000
,
0000
1001
0000
0000
,
0000
1000
0000
0001
,
0000
0100
0000
0000
,
0000
0010
0000
0110
,
0000
1001
0000
0000
,
0000
1000
0000
0100
,
0000
0010
0000
0100
,
0000
0010
0000
0001
,
0000
1001
0000
0000
,
0000
1000
0000
0000
,
0000
0100
0000
0000
,
0000
0010
0000
0000
,
0000
0001
0000
0000
,
0000
0100
0000
0000
,
0000
0010
0000
0000
,
0000
1000
0000
0000
,
0000
0000
1001
0000
,
0000
0000
1000
0000
,
0100
0000
1000
0000
,
0001
0000
0100
0000
,
0010
0000
0110
0000
,
0000
0000
0100
0000
,
0001
0000
1000
0000
,
0000
0000
0001
0000
,
1001
0000
1001
0000
,
0001
0000
1000
0000
,
0100
0000
1000
0000
,
0100
0000
0010
0000
,
0001
0000
1001
0000
,
1000
0000
0100
0000
,
0010
0000
0001
0000
,
1000
0000
0001
0000
,
0100
0100
0000
0000
;
