#TITLE:24th Century BOY;
#SUBTITLE:;
#ARTIST:Tatsh;
#TITLETRANSLIT:;
#SUBTITLETRANSLIT:;
#ARTISTTRANSLIT:;
#GENRE:;
#CREDIT:;
#BANNER:24th Century BOY.png;
#BACKGROUND:24th Century BOY-bg.png;
#LYRICSPATH:;
#CDTITLE:;
#MUSIC:24th Century BOY.mp3;
#OFFSET:-5.740000;
#SAMPLESTART:48.570000;
#SAMPLELENGTH:11.420000;
#SELECTABLE:YES;
#BPMS:0.000000=168.000000
;
#STOPS:183.500000=0.357000
;
#BGCHANGES:;
#KEYSOUNDS:;
#ATTACKS:;

//---------------dance-single - Oni-91----------------
#NOTES:
     dance-single:
     :
     Challenge:
     9:
     0.698287,0.691602,0.349819,0.170182,0.382910,517.000000,480.000000,37.000000,18.000000,0.000000,0.000000,0.698287,0.691602,0.349819,0.170182,0.382910,517.000000,480.000000,37.000000,18.000000,0.000000,0.000000:
// measure 0
1001
0000
0000
0000
0101
0000
0000
0000
0001
0000
0000
1000
0000
0000
0001
0000
,  // measure 1
0000
0000
1000
0000
0100
0000
0010
0000
0001
0000
0000
1000
0000
0000
0001
0000
,  // measure 2
1000
0000
0010
0000
0100
0000
0010
0000
1000
0000
0000
0001
0000
0000
0010
0000
,  // measure 3
0110
0000
0000
0000
1001
0000
0000
0000
0011
0000
0000
1100
0000
0000
1001
0000
,  // measure 4
0001
0000
0100
0000
0001
0000
0000
0000
1000
0000
0100
0000
1000
0100
1000
0000
,  // measure 5
0100
0000
0010
0000
0100
0000
1000
0000
0000
0010
0000
0100
0000
0000
0001
0000
,  // measure 6
0100
0000
0000
0001
0000
0000
1000
0000
0100
0000
0010
0000
0001
1000
0001
0000
,  // measure 7
1000
0100
0001
0100
0010
0001
1000
0001
,  // measure 8
1000
0000
0010
0000
0100
0000
0001
0000
0100
0000
0100
0000
0010
1000
0010
0000
,  // measure 9
1000
0100
0000
0100
0010
0000
0010
0001
0000
0001
1000
0000
0001
1000
0001
0000
,  // measure 10
1000
0000
2000
0000
0000
0000
3001
0010
0001
0000
0002
0000
0000
0000
0103
0000
,  // measure 11
0001
0100
1000
0100
0002
0010
1003
0000
,  // measure 12
1000
0100
0010
0001
1000
0100
0010
0001
,  // measure 13
1000
0010
0100
0001
1000
0010
0100
0001
,  // measure 14
1000
0001
1001
1000
0100
0010
0001
0100
,  // measure 15
0010
0100
0001
1000
1100
0000
0011
0000
,  // measure 16
1001
1000
0010
1000
0001
0100
0010
0100
,  // measure 17
0001
0010
0100
1000
0100
0010
0100
1000
,  // measure 18
0001
0100
0101
0000
0010
1000
1100
0000
,  // measure 19
1000
0100
0010
0001
1000
0010
0100
0001
,  // measure 20
2002
0000
0000
0000
,  // measure 21
3000
0100
0100
0200
0000
0000
0000
0000
,  // measure 22
0000
0000
0000
0000
,  // measure 23
0000
0000
0000
0303
,  // measure 24
0001
1000
0100
0020
0000
0100
0000
0031
,  // measure 25
0100
0000
0010
0000
1000
0000
0002
0000
0000
0000
0013
0000
0001
0000
1000
0100
,  // measure 26
1000
0010
0100
0020
0000
0001
0000
0130
,  // measure 27
0010
1000
0000
1000
0001
0000
1000
0000
0100
1000
0100
0000
0010
0001
0010
0000
,  // measure 28
2002
0000
0000
0000
,  // measure 29
0000
0000
0000
3003
,  // measure 30
1000
0010
0100
0010
1000
0000
0001
0010
,  // measure 31
0000
0000
0010
0000
0001
0000
1000
0000
0001
0000
0100
0010
0100
0000
0001
0000
,  // measure 32
1000
0100
0010
0001
0100
0000
0010
1000
,  // measure 33
0000
0000
1000
0000
0100
0000
0001
0000
0100
0000
0010
0100
0010
0000
0100
0000
,  // measure 34
1000
0100
0010
0001
0100
0010
1000
0001
,  // measure 35
0000
0000
1001
0000
0000
0000
1100
0000
0000
0000
1000
0000
0100
0000
0010
0001
,  // measure 36
0010
0000
1100
0000
0001
0010
0001
0100
,  // measure 37
1000
0100
0010
2000
0000
0100
3100
0000
,  // measure 38
1000
0100
0000
1000
0100
0000
0010
0001
0000
0010
0001
0000
1000
0001
1000
0000
,  // measure 39
0001
0000
0000
0100
0000
0000
0001
0000
1000
0000
0010
0000
0100
0000
0001
0000
,  // measure 40
1000
0100
0000
0100
0001
0000
0001
0100
0000
0100
0010
0000
0010
0001
0010
0000
,  // measure 41
0001
1000
0000
1000
0001
0000
0001
1000
0000
1000
0001
0000
1000
0000
0100
0000
,  // measure 42
0010
0001
0000
1000
0010
0000
0100
0001
0000
1000
0100
0000
0010
0001
0010
0000
,  // measure 43
0001
1000
0000
1000
0001
0000
1000
0100
0000
0100
1000
0000
0001
0000
0010
0000
,  // measure 44
0001
0100
1000
0100
0001
0010
1000
0010
,  // measure 45
0011
0000
0000
1100
0000
0000
1010
0000
0000
1001
0000
0000
2002
0000
3003
0000
,  // measure 46
1000
0100
1000
0100
1000
0000
0000
0000
0001
0000
0010
0000
0001
0000
0100
0000
,  // measure 47
0001
0100
0001
0100
0001
0000
0000
0000
1000
0000
0100
0000
0010
0000
0001
0000
,  // measure 48
0100
0010
0100
0010
0100
0000
0000
0000
0010
0000
1000
0000
0001
0000
0100
0000
,  // measure 49
0001
0010
0100
1000
0100
0001
0100
1000
,  // measure 50
0001
0010
0001
0010
0100
0000
0010
0000
0001
0000
0100
0000
0010
0000
1000
0000
,  // measure 51
0010
1000
0010
1000
0001
0000
0010
0000
0001
0000
0100
0000
0010
0000
1000
0000
,  // measure 52
0100
1000
0100
1000
0001
0000
0010
0000
0100
0000
0010
0000
0001
0000
0100
0000
,  // measure 53
0010
1000
0100
0010
0220
0000
0000
0330
,  // measure 54
0010
0001
0100
0010
1000
0100
0010
0001
,  // measure 55
0100
0000
0010
0000
1000
0000
0100
0000
0010
0000
0001
0000
0001
0100
0001
0000
,  // measure 56
1000
0000
1000
0100
0000
0100
0010
0000
0010
0001
0000
0001
1000
0001
0000
0000
,  // measure 57
1000
0000
0010
1000
0000
1000
0010
0000
0100
0000
0001
1000
0001
0000
0000
0000
,  // measure 58
1000
0100
0001
1000
0010
0001
1000
0100
,  // measure 59
0001
0100
1000
0010
0100
0001
0100
0010
,  // measure 60
1000
0010
0000
0010
1000
0000
1000
0010
0000
0010
1000
0000
1001
0000
0000
0000
,  // measure 61
0001
0010
0000
0010
0001
0000
0001
0010
0000
0010
0001
0000
1001
0000
0000
0000
,  // measure 62
0110
0000
0000
0000
1001
0000
0000
1100
0000
0000
0011
0000
0011
0000
0000
0000
,  // measure 63
1001
0000
0000
0000
0101
0000
0000
1010
0000
0000
0101
0000
0101
0000
0000
0000
,  // measure 64
0010
1000
0100
0001
0100
1000
0100
0010
,  // measure 65
0001
0100
1000
0100
0010
1000
0001
1000
,  // measure 66
2002
0000
3003
0000
;

//---------------dance-single - Oni-91----------------
#NOTES:
     dance-single:
     :
     Hard:
     8:
     0.595638,0.660165,0.416001,0.132364,0.137091,441.000000,397.000000,44.000000,14.000000,0.000000,0.000000,0.595638,0.660165,0.416001,0.132364,0.137091,441.000000,397.000000,44.000000,14.000000,0.000000,0.000000:
1000
0010
1000
0001
0100
0000
0101
0000
,
0001
0000
0010
0000
0001
0000
1000
0000
0100
0000
0000
1000
0000
0000
0100
0000
,
0010
0001
0100
0000
0010
0000
1001
0000
,
1000
0000
0001
0000
2000
0000
0000
0000
0001
0000
0000
0001
0000
0000
3001
0000
,
1001
0000
1000
0000
0100
0010
0100
0000
,
0010
0001
0100
0010
1000
0010
0100
0000
,
0001
0000
0000
1000
0000
0000
0001
0000
0010
0000
0100
0000
0010
0000
0000
0000
,
0001
0010
0100
1000
0100
0010
0001
0100
,
0010
0000
0000
0010
0000
0000
0010
0000
1000
0000
0100
0000
0010
0000
0100
0000
,
0010
0001
1000
0100
1000
0010
0100
0001
,
1000
2000
0000
0001
3001
0002
0000
0100
,
0103
0001
1000
0100
0010
0100
0110
0000
,
0010
0001
0010
0001
1000
0100
1000
0000
,
0010
1000
0010
1000
0001
0100
0001
0000
,
1000
0100
0010
0000
0100
0010
0001
0000
,
1000
0010
0001
0010
1000
0100
0010
0000
,
0110
0000
1000
0100
1000
0010
0100
0000
,
0001
0100
0010
1000
0001
0010
0100
0010
,
0001
1000
1100
0000
1000
0001
0101
0000
,
0001
0100
0010
1000
0100
0010
0110
0000
,
2002
0000
0000
0000
,
0003
0100
0100
0200
0000
0000
0000
0000
,
0000
0000
0000
0000
,
0000
0000
0000
3300
,
1000
0010
0100
0001
0000
0001
0100
0000
,
0001
0010
0100
1000
0000
1000
0100
0000
,
0010
0001
0100
0000
0010
1000
0100
0000
,
1000
0100
0010
0001
0100
0010
1000
0000
,
2002
0000
0000
0000
,
0000
0000
0000
3003
,
1001
0000
1100
0000
0011
0000
0001
0010
,
0000
0100
1000
0100
1000
0001
0100
0000
,
0101
0000
1010
0000
0101
0000
0001
1000
,
0000
0001
1000
0100
0010
0100
1000
0010
,
0110
0000
1001
0000
0110
0000
0010
0100
,
0000
0100
0010
1000
0100
0010
0001
1000
,
1100
0000
1001
0000
0101
0000
0001
1000
,
0100
0010
0000
0110
0000
1001
1001
0000
,
1000
0000
0000
0100
0000
0000
0010
0000
0000
0001
0000
0000
1000
0010
0000
0000
,
0100
0000
0000
0001
0000
0000
0100
0000
1000
0000
0100
0000
0001
0000
1000
0000
,
0001
0000
0000
0010
0000
0000
0100
0000
0000
1000
0000
0000
0100
1000
0100
0000
,
1000
0000
0000
1000
0100
0000
0010
0000
0000
0001
0100
0000
0010
0000
1000
0000
,
1001
0000
0000
1000
0000
0000
0100
0000
0000
1000
0000
0000
0001
0000
1000
0000
,
0001
0000
0000
0100
0001
0000
0100
0000
0000
0010
1000
0000
0010
0000
0010
0000
,
1000
0100
0010
0001
0100
0010
1000
0000
,
1001
0000
0000
0110
0000
0000
1001
0000
0000
0110
0000
0000
2002
0000
3003
0000
,
1000
0010
1000
0000
0001
0100
0010
0100
,
0001
0010
0100
0000
0010
0001
1000
0100
,
0010
0100
1000
0000
1000
0100
0010
0001
,
1000
0010
1000
0010
0100
0001
0100
0001
,
1000
0100
0010
0000
0100
0010
0100
1000
,
0001
0100
0010
0000
0100
0010
0100
0001
,
1000
0100
0010
0000
0100
1000
0001
0100
,
0010
0100
0010
0100
2002
0000
3003
0000
,
1000
0100
1000
0100
0010
0001
0010
0000
,
0001
0100
0010
1000
0001
1000
0001
0000
,
1000
0000
0000
0100
0000
0000
0010
0000
0000
0001
0000
0000
1000
0001
0000
0000
,
0001
0000
0000
0100
0000
0000
0010
0000
1000
0000
0001
0000
1001
0000
0000
0000
,
1000
0100
0010
0100
0010
0001
1000
0000
,
0001
0100
0010
0100
0010
1000
0001
0000
,
1000
0000
0000
0000
0001
0000
1000
0001
0000
0001
1000
0000
0001
0000
0000
0000
,
0010
0000
0000
0000
0100
0000
0010
0100
0000
0100
0010
0000
0100
0000
0000
0000
,
0011
0000
0000
0000
1100
0000
0000
1001
0000
0000
0101
0000
0101
0000
0000
0000
,
1001
0000
0000
0000
0110
0000
0000
1010
0000
0000
0101
0000
0101
0000
0000
0000
,
0001
0100
0001
0100
0010
1000
0010
1000
,
0001
0010
0100
1000
0001
0010
0100
1000
,
2002
0000
3003
0000
;

//---------------dance-single - Oni-91----------------
#NOTES:
     dance-single:
     :
     Medium:
     6:
     0.426806,0.440110,0.208000,0.179637,0.037818,316.000000,294.000000,22.000000,19.000000,0.000000,0.000000,0.426806,0.440110,0.208000,0.179637,0.037818,316.000000,294.000000,22.000000,19.000000,0.000000,0.000000:
1000
0100
0010
0000
0100
0000
0010
0000
,
0001
0010
0100
0000
0010
0000
0001
0000
,
1000
0010
1000
0001
0100
0000
0001
0000
,
1000
0000
1001
0000
0220
0000
0000
0330
,
0110
0000
1010
0000
1000
0100
0010
0000
,
0100
0000
1000
0000
0001
0100
0001
0000
,
0100
0000
0001
0000
1000
0100
1000
0000
,
0001
0010
0100
0000
1000
0010
0100
0000
,
1001
0000
0001
0000
1000
0010
0100
0000
,
0001
0000
1000
0000
0001
1000
0001
0000
,
1100
0000
0000
1000
0001
0000
0000
0001
,
0100
0010
0110
1001
,
1000
0100
1000
0100
,
0010
0000
0001
0000
1000
0001
1000
0001
,
0100
0010
0100
0010
,
1000
0010
1000
0000
0001
0100
0001
0000
,
1000
0100
0010
0001
,
1000
0000
0100
0000
0010
0001
1000
0100
,
0010
0010
0010
0000
0100
0100
0100
0000
,
0010
0001
0100
0000
0001
0000
1010
0000
,
2002
0000
0000
0000
,
0000
0000
0000
0000
,
0000
0000
0000
0000
,
0000
0000
0000
3003
,
1000
0100
1000
0001
,
0100
0001
0100
0010
,
1000
0001
1000
0100
,
0010
0001
0100
0000
0010
1000
0100
0000
,
2002
0000
0000
0000
,
0000
0000
0000
3003
,
1001
0000
0001
0000
0100
0000
0001
0100
,
0000
0001
0000
1000
0000
0100
1000
0000
,
0010
0000
0100
0000
0001
0000
0010
0100
,
0000
0010
0000
0001
0000
1000
0010
0000
,
0100
0000
0001
0000
1000
0000
0100
1000
,
0000
0001
0000
0010
0000
0001
1000
0001
,
1000
0000
0100
0000
0010
0000
0001
0020
,
0000
0100
0000
0100
0000
0100
0130
0000
,
0010
0000
0001
0000
1000
0001
1000
0000
,
0001
0100
0001
0000
1000
0010
1000
0000
,
0010
0000
1000
0000
0100
1000
0001
0000
,
0010
0001
0100
0000
0010
0100
0001
0000
,
0010
0000
0001
0000
1000
0100
0001
0000
,
0001
0100
1000
0000
0001
1000
0001
0000
,
1000
0100
0010
0001
,
1000
0000
0000
0001
0000
0000
1000
0000
0000
0001
0000
0000
2002
0000
3003
0000
,
1001
0000
1000
0000
0100
1000
0100
1000
,
0100
0000
0010
0000
0001
1000
0001
1000
,
0001
0000
0100
0000
0010
0100
0010
0100
,
0010
0000
1000
0000
0001
1000
0001
0000
,
1000
0000
0100
0000
0010
0001
0010
0001
,
0010
0000
0001
0000
0100
0001
0100
0001
,
0100
0000
0010
0000
1000
0010
1000
0000
,
0001
1000
0001
0000
2002
0000
3003
0000
,
0110
0000
0100
0010
1000
0000
0010
1000
,
0010
1000
0100
0010
,
0001
0000
0010
0001
0100
0000
0010
0100
,
0001
1000
0100
0010
,
0001
0000
1000
0010
1000
0000
0010
1000
,
0010
0100
0001
1000
,
1002
0000
0000
1000
0000
0000
1000
0000
0000
1000
0000
0000
1003
0000
0000
0000
,
0210
0000
0000
0010
0000
0000
0010
0000
0000
0010
0000
0000
0310
0000
0000
0000
,
2001
0000
0000
0000
0001
0000
0000
0001
0000
0000
0001
0000
3001
0000
0000
0000
,
0120
0000
0000
0000
0100
0000
0000
0100
0000
0000
0100
0000
0130
0000
0000
0000
,
2002
0000
0000
0000
,
0000
0000
0000
3003
,
0220
0000
0330
0000
;

//---------------dance-single - Oni-91----------------
#NOTES:
     dance-single:
     :
     Easy:
     4:
     0.297144,0.345801,0.151273,0.208000,0.000000,220.000000,204.000000,16.000000,22.000000,0.000000,0.000000,0.297144,0.345801,0.151273,0.208000,0.000000,220.000000,204.000000,16.000000,22.000000,0.000000,0.000000:
1000
0001
1000
0000
,
0001
0100
0001
0000
,
1000
0010
0100
0001
,
2002
3003
0220
0330
,
1001
0000
1000
0000
,
0001
0010
0001
1000
,
0100
0000
0010
0000
,
0100
0010
0100
1000
,
0001
0000
1000
0000
,
0001
1000
0010
0100
,
0010
0000
1000
0000
,
0001
1000
2002
3003
,
0001
0100
0001
0100
,
0010
1000
0010
1000
,
0001
0010
0100
1000
,
0100
0001
0100
1000
,
0010
0100
0010
0100
,
0001
1000
0001
1000
,
0001
0010
0100
0010
,
0001
1000
0010
0100
,
2002
0000
0000
0000
,
0000
0000
0000
0000
,
0000
0000
0000
0000
,
0000
0000
0000
3003
,
1001
0001
0100
0010
,
0100
0010
1000
0100
,
0010
0100
1000
0001
,
1000
0100
0010
0001
,
2002
0000
0000
0000
,
0000
0000
0000
3003
,
1001
0000
1000
0000
,
0001
0100
0001
0000
,
1000
0000
0001
0000
,
0010
0001
1000
0010
,
0100
0000
0010
0000
,
0100
0010
0100
0001
,
1000
0001
1000
0100
,
0010
0100
1000
0000
,
0001
0100
0001
0100
,
0010
1000
0010
1000
,
0001
1000
0100
0010
,
0100
1000
0001
0000
,
1000
0010
0100
0001
,
0010
0100
0010
0001
,
1000
0010
0100
0001
,
1000
0000
0100
0000
0010
0000
0220
0330
,
0110
0010
0001
1000
,
0001
0100
0010
0100
,
0010
1000
0100
0010
,
0100
1000
0001
0000
,
1001
1000
0010
0100
,
0001
0010
0100
0010
,
0001
1000
0010
0100
,
1000
0100
0220
0330
,
0001
0100
1000
0001
,
0010
1000
0001
0000
,
1000
0100
0001
1000
,
0010
0001
1000
0000
,
0010
1000
0100
0010
,
0001
0100
0010
1000
,
0100
0010
0100
0010
,
0001
0010
0001
0010
,
2002
0000
0000
3003
,
0220
0000
0000
0330
,
2002
0000
0000
0000
,
0000
0000
0000
3003
,
0220
0000
0330
0000
;

//---------------dance-single - Oni-91----------------
#NOTES:
     dance-single:
     :
     Beginner:
     2:
     0.160728,0.220055,0.141818,0.056727,0.000000,119.000000,104.000000,15.000000,6.000000,0.000000,0.000000,0.160728,0.220055,0.141818,0.056727,0.000000,119.000000,104.000000,15.000000,6.000000,0.000000,0.000000:
0001
0000
0000
0000
,
1000
0000
0000
0000
,
0001
0000
1000
0000
,
0100
0000
0010
0000
,
1001
0000
0000
0000
,
1000
0000
0010
0000
,
1000
0000
0001
0000
,
0100
0000
0001
0000
,
0010
0000
0000
0000
,
0001
0000
0010
0000
,
0100
0000
0100
0000
,
0100
0000
0010
0000
,
1001
0000
0000
0000
,
1000
0000
0000
0000
,
0001
0000
0010
0000
,
0001
0000
1000
0000
,
0100
0000
0000
0000
,
0010
0000
0000
0000
,
0001
0000
0100
0000
,
0001
0000
1000
0000
,
2002
0000
0000
0000
,
0000
0000
0000
0000
,
0000
0000
0000
0000
,
0000
0000
0000
3003
,
1001
0000
1000
0000
,
0001
0000
1000
0000
,
0010
0000
0100
0000
,
0010
0000
1000
0000
,
2002
0000
0000
0000
,
0000
0000
0000
3003
,
1000
0000
0100
0000
,
1000
0000
0001
0000
,
0100
0000
0001
0000
,
0100
0000
0010
0000
,
0100
0000
0100
0000
,
0010
0000
0010
0000
,
1000
0000
1000
0000
,
0001
0000
0000
0000
,
1001
0000
0000
0000
,
1000
0000
0100
0000
,
1000
0000
0000
0000
,
0001
0000
0100
0000
,
0001
0000
0000
0000
,
1000
0000
0010
0000
,
0100
0000
0001
0000
,
0010
0000
0100
0100
,
1001
0000
0000
0000
,
1001
0000
0000
0000
,
1000
0000
0001
0000
,
1000
0000
0010
0000
,
0100
0000
0000
0000
,
0110
0000
0000
0000
,
0010
0000
0100
0000
,
0001
0000
1000
0000
,
1001
0000
1000
0000
,
0100
0000
1000
0000
,
0100
0000
0010
0000
,
0001
0000
0010
0000
,
0100
0000
0100
0000
,
0010
0000
0010
0000
,
0001
0000
1000
0000
,
0001
0000
0100
0000
,
0110
0000
0000
0000
,
0110
0000
0000
0000
,
1001
0000
0000
0000
,
1001
0000
0000
0000
,
0220
0000
0330
0000
;
