#VERSION:0.83;
#TITLE:19/2000;
#SUBTITLE:(Soulchild Remix);
#ARTIST:Gorillaz;
#TITLETRANSLIT:;
#SUBTITLETRANSLIT:;
#ARTISTTRANSLIT:;
#GENRE:;
#ORIGIN:;
#CREDIT:;
#BANNER:19-2000 (Soulchild Remix).png;
#BACKGROUND:19-2000 (Soulchild Remix)-bg.png;
#PREVIEWVID:;
#JACKET:;
#CDIMAGE:;
#DISCIMAGE:;
#LYRICSPATH:;
#CDTITLE:;
#MUSIC:19-2000 (Soulchild Remix).mp3;
#OFFSET:-2.380000;
#SAMPLESTART:48.720001;
#SAMPLELENGTH:9.660000;
#SELECTABLE:YES;
#DISPLAYBPM:102.000000;
#BPMS:0.000=102.005;
#STOPS:;
#DELAYS:;
#WARPS:;
#TIMESIGNATURES:0.000=4=4;
#TICKCOUNTS:0.000=4;
#COMBOS:0.000=1;
#SPEEDS:0.000=1.000=0.000=0;
#SCROLLS:0.000=1.000;
#FAKES:;
#LABELS:0.000=Song Start;
#BGCHANGES:;
#KEYSOUNDS:;
#ATTACKS:
;

//---------------dance-single - Oni-91----------------
#NOTEDATA:;
#CHARTNAME:;
#STEPSTYPE:dance-single;
#DESCRIPTION:Oni-91;
#CHARTSTYLE:;
#DIFFICULTY:Hard;
#METER:7;
#RADARVALUES:0.360375,0.362357,0.164708,0.182045,0.338084,291.000000,272.000000,19.000000,21.000000,0.000000,0.000000,0.000000,0.000000,0.000000,0.360375,0.362357,0.164708,0.182045,0.338084,291.000000,272.000000,19.000000,21.000000,0.000000,0.000000,0.000000,0.000000,0.000000;
#CREDIT:Oni-91;
#DISPLAYBPM:102.000000;
#NOTES:
0000
0000
0000
0000
,
0000
0000
0000
0000
,
0000
0000
0000
0000
,
0000
0000
0000
0000
0000
0000
0000
0000
1000
0000
0000
1000
0100
0000
0010
0000
,
0001
0000
0101
0000
0100
0010
1000
0000
,
0001
1000
0100
0001
0100
0000
0010
0000
,
0001
1000
0001
0000
1000
0010
1000
0000
,
0001
0010
0100
0010
0001
1000
1000
1000
,
0010
0000
0100
0000
0001
0100
0010
1000
,
0100
0000
0001
0000
0100
0000
0010
0001
,
1000
0100
0010
0001
0100
1000
0100
0010
,
1000
0100
1000
0000
0010
0000
2000
0002
0000
0000
0000
0000
3003
0000
0000
0000
,
1010
0000
0000
0000
0100
0000
0001
0100
0000
0000
0001
0000
1000
0000
0100
0000
,
0010
0000
0000
0000
0001
0000
1000
0001
0000
0000
1000
0000
0010
0000
0100
0000
,
0010
0000
0000
0000
0100
0000
0010
1000
0000
0000
1000
0000
0100
0000
0010
0000
,
0100
0000
0000
0000
0010
0000
0010
0001
0000
0000
1000
0001
1000
0000
0010
0000
,
0100
0000
0001
0000
1000
0000
0100
0020
0000
0000
0000
0000
0031
0000
0010
0000
,
0001
0000
1000
0000
0010
0000
0100
0002
0000
0000
0000
0000
1003
0000
0100
0000
,
0010
0000
0100
0000
1000
0000
0010
2000
0000
0000
0000
0000
3010
0000
0100
0000
,
0220
0000
0000
0000
0000
0000
0000
0000
0330
0000
0000
0100
0000
0010
0100
0000
,
1001
0000
0000
1000
0100
0000
0010
0000
0001
0000
0100
0000
0010
0000
1000
0000
,
0100
0000
0000
0010
0100
0000
0010
0000
1000
0000
0010
0000
0001
0000
0000
0000
,
0010
0000
0000
0001
1000
0000
0010
0000
0001
0000
1000
0000
0100
0000
0010
0000
,
1000
0000
0000
1000
0001
0000
0010
0000
0100
0000
0010
0000
0001
0000
0000
0000
,
1001
0000
0000
1000
0001
0000
1000
0000
0010
0000
0100
0010
0000
0010
1000
0000
,
0010
0000
0000
0100
0010
0000
1000
0000
0001
0000
1000
0000
0001
0000
0010
0000
,
0100
0000
0000
0010
0001
0000
1000
0000
0001
0000
0100
0001
0000
0001
0100
0000
,
0001
0000
0000
1000
0100
1000
0000
0001
0000
1000
0000
1001
0000
0000
0000
0000
,
1010
0000
0000
0000
0001
0000
0000
0202
0000
0000
0000
0000
0303
0000
0000
0000
,
0011
0000
0000
0000
0100
0000
0000
2200
0000
0000
0000
0000
3300
0000
0000
0000
,
1001
0000
0000
0000
0010
0000
0000
0220
0000
0000
0000
0000
0330
0000
0000
0000
,
1010
0000
0000
0000
0001
0000
0000
2002
0000
0000
0003
0000
3001
0000
1000
0000
,
0010
0000
0100
0000
0001
0000
0000
2002
0000
0000
0000
0000
3003
0000
0000
0000
,
1000
0000
0100
0000
0010
0000
0000
0220
0000
0000
0000
0000
0330
0000
0010
0000
,
0001
0000
1000
0000
0010
0000
0000
0220
0000
0000
0000
0000
0330
0000
0000
0000
,
0010
0000
1000
0000
0001
0000
1000
0000
0001
1000
0000
1000
0001
0000
0100
0000
,
0110
0000
0000
0000
1000
0010
0000
0100
0000
0001
0000
0010
0000
0001
1000
0000
,
0100
0000
0000
0000
0010
0001
0000
1000
0000
0100
0000
0010
0000
0000
0001
0000
,
0100
0000
0000
0000
0010
1000
0000
0001
0000
0100
0000
0010
0000
1000
0001
0000
,
0010
0000
0000
0000
0100
0010
0000
0001
0000
1000
0000
0001
0000
0000
1000
0000
,
0010
0000
0000
0100
0001
0100
0000
0010
0000
1000
0000
0001
0000
0100
0001
0000
,
1000
0000
0000
0001
0010
0001
0000
1000
0000
0100
0000
0010
0000
0000
0100
0000
,
1000
0000
0000
1000
0001
0100
0000
0010
0000
0100
0000
0001
0000
1000
0100
0000
,
0010
0000
0000
0100
0010
0001
0000
0010
0000
0001
0000
1000
0000
0000
0001
0000
,
1001
0000
0000
0000
;

//---------------dance-single - Oni-91----------------
#NOTEDATA:;
#CHARTNAME:;
#STEPSTYPE:dance-single;
#DESCRIPTION:Oni-91;
#CHARTSTYLE:;
#DIFFICULTY:Medium;
#METER:5;
#RADARVALUES:0.266257,0.286071,0.156039,0.208052,0.034675,215.000000,197.000000,18.000000,24.000000,0.000000,0.000000,0.000000,0.000000,0.000000,0.266257,0.286071,0.156039,0.208052,0.034675,215.000000,197.000000,18.000000,24.000000,0.000000,0.000000,0.000000,0.000000,0.000000;
#CREDIT:Oni-91;
#DISPLAYBPM:102.000000;
#NOTES:
// measure 0
0000
0000
0000
0000
,  // measure 1
0000
0000
0000
0000
,  // measure 2
0000
0000
0000
0000
,  // measure 3
0000
0000
0000
0000
1000
0000
0001
1000
,  // measure 4
0010
0000
0100
0000
0001
0100
0001
0000
,  // measure 5
1000
0000
0100
0010
0100
0000
0010
0000
,  // measure 6
0001
0000
1000
0000
0001
1000
0010
0100
,  // measure 7
0001
0000
1000
0100
1000
0000
0000
0000
,  // measure 8
0001
0100
1000
0100
0001
0000
1000
0000
,  // measure 9
0001
0010
0001
0000
2200
0000
3300
0000
,  // measure 10
1000
0010
0100
0000
0010
0100
0001
0000
,  // measure 11
1000
0001
1000
0001
0100
0000
0010
0000
,  // measure 12
0110
0000
0100
0000
0001
0100
0001
1000
,  // measure 13
0100
0000
0010
0000
0100
0010
0001
0010
,  // measure 14
0001
0000
1000
0000
0010
1000
0100
1000
,  // measure 15
0001
0000
0100
0000
0010
0100
0001
0000
,  // measure 16
1001
0000
1000
0001
0100
0000
0010
0000
,  // measure 17
0100
0000
0010
0100
0001
0000
1000
0000
,  // measure 18
0100
0000
0010
0100
1000
0000
0010
0000
,  // measure 19
0220
0000
0000
0330
,  // measure 20
1001
0000
1000
0100
0010
0001
0100
0000
,  // measure 21
0010
0000
0100
0010
1000
0000
0001
0000
,  // measure 22
1000
0000
0001
0010
0100
0010
0001
0000
,  // measure 23
1000
0000
0010
0100
0010
0000
1000
0000
,  // measure 24
1002
0000
0010
0000
0100
0100
0103
0000
,  // measure 25
0200
0000
1000
0000
0010
0010
0310
0000
,  // measure 26
0020
0000
1000
0000
0100
0100
0130
0000
,  // measure 27
2000
0000
0010
0000
0001
0001
3001
0000
,  // measure 28
0210
0000
0000
0000
0010
0000
0000
0020
0000
0000
0000
0000
0330
0000
0000
0000
,  // measure 29
1020
0000
0000
0000
1000
0000
0000
2000
0000
0000
0000
0000
3030
0000
0000
0000
,  // measure 30
2001
0000
0000
0000
0001
0000
0000
0002
0000
0000
0000
0000
3003
0000
0000
0000
,  // measure 31
0012
0000
0000
0000
0010
0000
0000
0020
0000
0000
0000
0000
0033
0000
0000
0000
,  // measure 32
2000
0000
0000
0000
0010
0000
0000
0200
0000
0000
0000
0000
3300
0000
0000
0000
,  // measure 33
0200
0000
0000
0000
0001
0000
0000
0020
0000
0000
0000
0000
0330
0000
0000
0000
,  // measure 34
0020
0000
0000
0000
0001
0000
0000
0200
0000
0000
0000
0000
0330
0000
0000
0000
,  // measure 35
0011
0000
0000
0000
1001
0000
0000
2002
0000
0000
0000
0000
3003
0000
0000
0000
,  // measure 36
0001
0000
0101
0000
0100
0010
1000
0000
,  // measure 37
0001
0000
1001
0000
1000
0100
0010
0000
,  // measure 38
0100
0000
0110
0000
0010
0001
1000
0000
,  // measure 39
0001
0000
0101
0000
0100
0010
1000
0000
,  // measure 40
0001
1000
0100
0000
0010
0100
0010
0100
,  // measure 41
0010
0001
0010
0000
0001
1000
0001
0000
,  // measure 42
1000
0010
1000
0000
0010
0100
0010
0100
,  // measure 43
0001
0100
0001
0000
1000
0001
1000
0000
,  // measure 44
1001
0000
0000
0000
;

//---------------dance-single - Oni-91----------------
#NOTEDATA:;
#CHARTNAME:;
#STEPSTYPE:dance-single;
#DESCRIPTION:Oni-91;
#CHARTSTYLE:;
#DIFFICULTY:Easy;
#METER:2;
#RADARVALUES:0.107741,0.152571,0.052013,0.086688,0.000000,87.000000,81.000000,6.000000,10.000000,0.000000,0.000000,0.000000,0.000000,0.000000,0.107741,0.152571,0.052013,0.086688,0.000000,87.000000,81.000000,6.000000,10.000000,0.000000,0.000000,0.000000,0.000000,0.000000;
#CREDIT:Oni-91;
#DISPLAYBPM:102.000000;
#NOTES:
// measure 0
0000
0000
0000
0000
,  // measure 1
0000
0000
0000
0000
,  // measure 2
0000
0000
0000
0000
,  // measure 3
0000
0000
0000
0000
,  // measure 4
1000
0001
1000
0000
,  // measure 5
0010
0000
0100
0000
,  // measure 6
0010
0100
0010
0000
,  // measure 7
1000
0000
0001
0000
,  // measure 8
1000
0001
1000
0000
,  // measure 9
0001
0000
0010
0000
,  // measure 10
0100
0010
0100
0000
,  // measure 11
0010
0000
0001
0000
,  // measure 12
1001
0000
0000
0000
,  // measure 13
1000
0000
0010
0000
,  // measure 14
0100
0000
0000
0000
,  // measure 15
0010
0000
0100
0000
,  // measure 16
0001
0000
0000
0000
,  // measure 17
1000
0000
0001
0000
,  // measure 18
1000
0000
0000
0000
,  // measure 19
2002
0000
0000
3003
,  // measure 20
1001
0000
0001
0100
,  // measure 21
0001
0000
1000
0000
,  // measure 22
0010
0000
0100
0010
,  // measure 23
0100
0000
0010
0000
,  // measure 24
1000
0000
0001
0010
,  // measure 25
0001
0000
1000
0000
,  // measure 26
0100
0000
0010
0100
,  // measure 27
0010
0000
0001
0000
,  // measure 28
1002
0000
0000
0000
,  // measure 29
0203
0000
0000
0000
,  // measure 30
0320
0000
0000
0000
,  // measure 31
2030
0000
0000
0000
,  // measure 32
3200
0000
0000
0000
,  // measure 33
0320
0000
0000
0000
,  // measure 34
0032
0000
0000
0000
,  // measure 35
2003
0000
0000
3000
,  // measure 36
1001
0000
0001
1000
,  // measure 37
0001
0000
1000
0000
,  // measure 38
0100
0000
0010
0100
,  // measure 39
0010
0000
0001
0000
,  // measure 40
1000
0000
0001
1000
,  // measure 41
0001
0000
1000
0000
,  // measure 42
0010
0000
0100
0001
,  // measure 43
0100
0000
0001
1000
,  // measure 44
1001
0000
0000
0000
;

//---------------dance-single - Oni-91----------------
#NOTEDATA:;
#CHARTNAME:;
#STEPSTYPE:dance-single;
#DESCRIPTION:Oni-91;
#CHARTSTYLE:;
#DIFFICULTY:Beginner;
#METER:1;
#RADARVALUES:0.089165,0.133500,0.052013,0.000000,0.000000,72.000000,66.000000,6.000000,0.000000,0.000000,0.000000,0.000000,0.000000,0.000000,0.089165,0.133500,0.052013,0.000000,0.000000,72.000000,66.000000,6.000000,0.000000,0.000000,0.000000,0.000000,0.000000,0.000000;
#CREDIT:Oni-91;
#DISPLAYBPM:102.000000;
#NOTES:
// measure 0
0000
0000
0000
0000
,  // measure 1
0000
0000
0000
0000
,  // measure 2
0000
0000
0000
0000
,  // measure 3
0000
0000
0000
0000
,  // measure 4
1000
0000
0001
0000
,  // measure 5
0010
0000
0100
0000
,  // measure 6
0010
0000
0001
0000
,  // measure 7
1000
0000
1000
0000
,  // measure 8
0001
0000
0100
0000
,  // measure 9
0010
0000
0010
0000
,  // measure 10
0100
0000
0001
0000
,  // measure 11
1000
1000
1000
0000
,  // measure 12
1001
0000
0000
0000
,  // measure 13
1000
0000
0100
0000
,  // measure 14
1000
0000
0000
0000
,  // measure 15
0001
0000
0100
0000
,  // measure 16
0001
0000
0000
0000
,  // measure 17
1000
0000
0001
0000
,  // measure 18
0010
0000
0000
0000
,  // measure 19
0110
0000
0000
0000
,  // measure 20
1001
0000
0001
0000
,  // measure 21
0100
0000
0010
0000
,  // measure 22
0100
0000
0001
0000
,  // measure 23
1000
0000
0100
0000
,  // measure 24
0010
0000
0010
0000
,  // measure 25
0010
0000
0001
0000
,  // measure 26
1000
0000
1000
0000
,  // measure 27
1000
0000
0001
0000
,  // measure 28
1001
0000
0000
0000
,  // measure 29
1000
0000
0000
0000
,  // measure 30
0001
0000
0000
0000
,  // measure 31
0100
0000
0000
0000
,  // measure 32
0010
0000
0000
0000
,  // measure 33
0100
0000
0000
0000
,  // measure 34
0001
0000
0000
0000
,  // measure 35
1000
0000
0000
0000
,  // measure 36
1001
0000
0001
0000
,  // measure 37
0010
0000
0000
0000
,  // measure 38
0001
0000
1000
0000
,  // measure 39
0100
0000
0000
0000
,  // measure 40
0010
0000
0100
0000
,  // measure 41
0010
0000
0000
0000
,  // measure 42
0001
0000
1000
0000
,  // measure 43
0001
0000
0100
0000
,  // measure 44
0110
0000
0000
0000
;
