#TITLE:'84;
#SUBTITLE:(Juneoney Remix);
#ARTIST:Glen Check;
#TITLETRANSLIT:;
#SUBTITLETRANSLIT:;
#ARTISTTRANSLIT:;
#GENRE:;
#CREDIT:;
#BANNER:'84 (Juneoney Remix).png;
#BACKGROUND:'84 (Juneoney Remix)-bg.png;
#LYRICSPATH:;
#CDTITLE:;
#MUSIC:'84 (Juneoney Remix).mp3;
#OFFSET:-7.890000;
#SAMPLESTART:72.809998;
#SAMPLELENGTH:15.730000;
#SELECTABLE:YES;
#DISPLAYBPM:122.000000;
#BPMS:0.000000=122.000000
,23.500000=183.000000
,25.000000=122.000000
;
#STOPS:23.500000=0.246000
;
#BGCHANGES:;
#KEYSOUNDS:;
#ATTACKS:;

//---------------dance-single - Oni-91----------------
#NOTES:
     dance-single:
     :
     Challenge:
     9:
     0.488908,0.515510,0.190635,0.236025,0.422121,377.000000,356.000000,21.000000,26.000000,0.000000,0.000000,0.488908,0.515510,0.190635,0.236025,0.422121,377.000000,356.000000,21.000000,26.000000,0.000000,0.000000:
0001
0000
0100
0000
0010
0000
0000
1000
0001
0000
0000
0000
1000
0000
0100
0000
,
0010
0000
0001
0000
0100
0000
0000
0010
1000
0001
0000
1000
0000
0001
0010
0000
,
0100
0000
1000
0000
0001
0000
0000
1000
0010
0000
0000
0000
0010
0000
0100
0000
,
0001
1000
0000
0000
0100
0010
0100
0010
0000
0100
0000
0010
0000
0001
1000
0000
,
0001
0000
0100
0000
0110
0000
0000
0001
1000
0000
0000
1000
0100
0000
0010
0000
,
0001
0000
1000
0000
1100
0000
0000
0010
0001
0100
0000
0010
0000
2000
0002
3003
,
0000
0000
0000
0000
1001
0000
0001
0000
0100
0000
0010
1000
0000
0001
0010
0000
,
0100
0000
0010
0000
0001
0000
1000
0010
1000
0000
0001
0100
0020
0000
0000
0000
,
1030
0000
0000
0101
0000
0001
1000
0000
0100
0000
0010
0100
1000
0000
0001
0000
,
0100
0000
0010
0000
1000
0001
0000
1000
0010
0000
0100
0001
1000
0001
1000
0000
,
0100
0000
0010
0000
0001
0000
0100
0010
0000
0000
0100
0000
0010
1000
0001
0000
,
1000
0000
0100
0000
0001
0000
0100
0000
1000
0000
0000
0000
0001
0010
0100
0000
,
1001
0000
0000
1000
0010
0000
0100
0000
0001
0000
0000
0000
1000
0001
0010
0100
,
1000
0000
0001
0000
0100
0000
0000
0100
0001
0000
1000
0010
0000
1000
0001
0000
,
0002
0000
0103
0010
1000
0000
0120
0000
,
0030
0001
1000
0000
0001
0000
0010
0100
0000
0000
0010
0001
1000
0000
0000
0000
,
1002
0000
0000
0000
0100
0100
0100
0000
,
2003
0000
0000
0000
0010
0010
0000
0000
,
3200
0000
0000
0000
1000
1000
1000
0000
,
0320
0000
0000
0000
0031
0010
0001
1000
,
0020
0000
0000
0000
0100
1000
0100
0000
,
2030
0000
0000
0000
0001
0010
0000
0000
,
3002
0000
2000
3000
,
0203
0000
0020
0330
,
0001
1000
0100
0010
0012
0000
0000
0000
,
0103
0000
0000
0010
2002
0000
3003
0000
,
0001
1000
0001
0000
1000
0000
0100
0000
0120
0000
0000
0000
0000
0000
0000
0000
,
0031
0000
0000
0000
0000
0000
1000
0002
0100
0000
0000
0100
0000
0000
0103
0000
,
0001
1000
0001
0000
1000
0000
0010
0000
0120
0000
0000
0000
0000
0000
0000
1000
,
1030
0000
0000
0001
0000
0000
1000
0000
2002
0000
0000
0000
3003
0000
0000
0000
,
0001
0010
0100
0000
0010
0000
0001
0000
1001
0000
0000
0000
1000
0001
1000
0001
,
0200
0000
0000
0000
,
0000
0000
0000
0310
,
0001
0010
0100
0000
0010
0000
0001
0000
1000
0010
1000
0000
0001
0000
1000
0000
,
0100
0000
0000
1000
0100
0000
0010
0000
0001
0000
0100
0000
0010
1000
0001
0000
,
1000
0001
0000
1000
0001
0000
0100
0000
0010
1000
0001
0000
1000
0000
0100
0000
,
0010
0000
0000
0001
0100
0000
0010
0000
1000
0001
0000
1000
0000
0001
1000
0000
,
0100
0010
0000
0100
0010
0000
0100
0000
1000
0001
0100
0000
0001
0000
0100
0000
,
0010
0000
0000
1000
0100
0000
1000
0000
0001
0000
0100
0000
0010
0100
0001
0000
,
1000
0100
0000
0010
0001
0000
1000
0000
0001
0100
0001
0000
1000
0000
0100
0000
,
0010
0000
0000
0000
0000
0000
0001
0000
1000
0000
0000
0000
0001
0000
0000
0000
1000
0000
0000
0100
0000
0000
1000
0000
0001
0000
0000
0100
0000
0000
0001
0000
,
1000
0000
0000
0010
1000
0000
0001
0000
0010
0100
0010
0000
0001
0000
1000
0000
,
0010
0000
0000
0100
0001
0000
1000
0000
0001
0000
1000
0000
0100
0010
0100
0000
,
0010
0001
0000
1000
0010
0000
0100
0000
0010
1000
0001
0000
1000
0000
0100
0000
,
1000
0000
0000
0001
0100
0000
0001
0000
1000
0100
0000
0010
0001
1000
0001
0000
,
1000
0010
1000
0010
0100
0000
0001
0000
1000
0001
1000
0000
0100
0000
0010
0000
,
0100
0000
0000
0010
0001
0000
1000
0000
0001
0000
0100
0000
0010
1000
0001
0000
,
1000
0000
0001
1000
0000
0001
1000
0000
0110
0000
0000
0000
1001
0000
0000
0000
,
0011
0000
0000
1000
0100
0000
1000
0000
0011
0000
0000
0000
1001
0000
0000
0000
,
1001
0110
0100
2002
0000
0000
0000
0000
,
0000
0000
0000
0000
,
0000
0000
0000
0000
0000
3003
0000
0000
;

//---------------dance-single - Oni-91----------------
#NOTES:
     dance-single:
     :
     Hard:
     7:
     0.379974,0.421781,0.226947,0.208791,0.127090,293.000000,268.000000,25.000000,23.000000,0.000000,0.000000,0.379974,0.421781,0.226947,0.208791,0.127090,293.000000,268.000000,25.000000,23.000000,0.000000,0.000000:
// measure 0
0110
0000
0000
0000
1001
0000
0000
0001
1000
0000
0000
0000
0100
0000
0000
0000
,  // measure 1
1000
0000
0000
0000
0001
0000
0000
1000
0010
0000
0100
0000
0001
0000
0000
0000
,  // measure 2
0100
0000
0001
0000
0010
0000
0000
0100
1000
0000
0000
0000
1001
0000
0000
0000
,  // measure 3
0001
0000
0100
0000
0010
0000
0000
1000
0100
0000
0010
0000
0001
0000
0100
0000
,  // measure 4
0110
0000
1001
0000
0001
0010
1000
0010
,  // measure 5
0100
0000
0000
0000
1001
0000
0000
0000
1000
0000
0010
0000
0001
0000
0020
0030
,  // measure 6
0000
0000
0000
0000
1001
0000
0001
0000
0010
0000
0000
0001
0100
0000
0010
0000
,  // measure 7
1000
0000
0000
0000
0010
0000
1000
0001
0000
0000
0000
0000
1001
0000
0000
0000
,  // measure 8
1000
0000
0000
0001
0100
0000
0001
0000
1000
0000
0000
0000
0011
0000
0000
0000
,  // measure 9
1000
0000
0001
0000
0100
0010
0000
0010
0100
0000
0000
0000
1001
0000
0000
0000
,  // measure 10
0001
0000
0100
0000
1000
0000
0100
0010
0000
0000
0000
0000
1001
0000
0000
0000
,  // measure 11
1000
0000
0001
0100
0001
0000
1000
0000
0100
0000
0000
0000
1001
0000
0000
0000
,  // measure 12
1000
0000
0000
0001
0100
0000
0001
0000
1000
0000
0100
0000
1000
0000
0000
0000
,  // measure 13
0001
0000
0010
0000
0100
0000
0000
0022
0000
0000
0033
0000
1000
0000
0001
0000
,  // measure 14
0002
0000
0103
0010
1000
0000
1002
0000
,  // measure 15
0003
0010
0001
0000
1000
0000
0010
0100
0000
0000
0001
0000
1001
0000
0000
0000
,  // measure 16
0210
0000
0000
0000
,  // measure 17
0302
0000
0000
0000
,  // measure 18
2003
0000
0000
0000
,  // measure 19
3200
0000
0000
0000
0310
0001
2000
0000
,  // measure 20
3002
0000
0000
0000
0100
0100
0100
0000
,  // measure 21
0203
0000
0000
0000
0010
0010
0000
0000
,  // measure 22
0320
0000
1000
0000
,  // measure 23
0230
0000
0002
0303
,  // measure 24
0001
0100
0010
1000
0200
0000
0000
0000
,  // measure 25
0010
0000
0000
1000
1300
0000
0000
0000
,  // measure 26
0100
0010
0001
1000
0002
0000
0000
0000
,  // measure 27
0010
0000
0000
0000
0000
0000
0100
0000
0103
0000
0000
0001
0000
0000
1000
0000
,  // measure 28
0001
0100
0010
1000
1001
0000
0001
0000
,  // measure 29
0010
0000
0000
0100
0000
0000
0010
0000
0100
0000
0000
0000
0000
0000
0000
0000
,  // measure 30
0010
0000
0001
0000
0100
0000
0010
0000
0110
0000
0000
0000
0001
0000
1000
0001
,  // measure 31
2000
0000
0000
0000
,  // measure 32
0000
0000
0000
3001
,  // measure 33
0001
0100
0010
1000
0100
0100
0010
0001
,  // measure 34
0100
0000
0010
0000
1000
0001
1000
0000
,  // measure 35
0001
0010
0100
0010
0001
0001
1000
0010
,  // measure 36
0100
0000
0001
0000
1000
0001
1000
0010
,  // measure 37
0100
0001
0010
1000
0010
0010
0001
0100
,  // measure 38
0010
0000
0000
1000
0010
0000
0100
0000
0001
0000
0000
0000
1001
0000
0000
0000
,  // measure 39
0001
1000
0010
0001
0010
0010
0100
0001
,  // measure 40
1000
0000
0000
0000
0010
0000
0000
0000
0002
0000
0000
0003
2000
0000
0000
3000
,  // measure 41
0001
0010
0001
1000
0010
0000
0101
0001
,  // measure 42
1000
0000
0000
0000
0001
0000
0000
0000
0010
0000
0001
0000
0100
0001
0100
0000
,  // measure 43
0010
1000
0100
0010
0001
0000
1100
0000
,  // measure 44
0001
0000
0010
0000
0100
0000
0010
0000
0001
1000
0001
0000
1000
0000
0000
0000
,  // measure 45
0001
0100
0000
0100
0001
0000
1000
0000
0100
0000
0010
0000
0100
0000
1000
0000
,  // measure 46
0002
0000
0010
0000
1000
1000
1003
0000
,  // measure 47
0010
0100
0000
0010
0100
0000
0010
0000
0100
0000
0000
0000
1001
0000
0000
0000
,  // measure 48
0011
0000
0000
0000
1100
0000
0000
0000
0001
1000
0000
0001
0000
1000
0001
0000
,  // measure 49
0100
0001
1000
2002
0000
0000
0000
0000
,  // measure 50
0000
0000
0000
0000
,  // measure 51
0000
0000
0000
0000
0000
3003
0000
0000
;

//---------------dance-single - Oni-91----------------
#NOTES:
     dance-single:
     :
     Medium:
     6:
     0.311241,0.328052,0.145246,0.281414,0.013617,240.000000,224.000000,16.000000,31.000000,0.000000,0.000000,0.311241,0.328052,0.145246,0.281414,0.013617,240.000000,224.000000,16.000000,31.000000,0.000000,0.000000:
1000
0000
0001
0000
0010
0001
0100
0000
,
0010
0000
0100
0000
0010
1000
0001
1000
,
0100
0000
0010
0000
0100
0010
0001
0000
,
1000
0001
0100
0000
0010
0100
0001
0000
,
1000
0010
0001
0000
0010
0000
1001
0000
,
0001
0010
1000
0000
0010
0100
1000
0002
,
0000
0000
0103
0001
0100
0000
0010
0000
,
1000
0001
0100
0001
1000
0000
1001
0000
,
0110
0000
0010
1000
0001
0000
0010
0000
,
0100
0010
0001
1000
0010
0000
1000
0001
,
0100
0000
0010
0100
0001
0000
1000
0000
,
0100
0010
0001
0100
0010
0000
1001
0000
,
0001
0000
0100
0010
1000
0000
0001
0000
,
1000
0100
0010
0000
1001
0000
0100
0010
,
2000
0000
3001
0100
0010
0000
2002
0000
,
3003
0000
0001
0000
0100
0000
0000
0100
0000
0000
0100
0000
0001
0000
0000
0000
,
2001
0000
0000
0000
,
3002
0000
0000
0000
,
0203
0000
0000
0000
,
0320
0000
0001
0100
,
2030
0000
0001
0000
,
3200
0000
1000
0000
,
0320
0000
0100
0000
,
0032
0000
2000
3003
,
0001
0100
0001
0000
2200
0000
3300
0000
,
0001
0000
0000
2000
0002
0000
3003
0000
,
1000
0100
1000
0000
0202
0000
0303
0000
,
0001
0000
0000
0020
0200
0000
0330
0000
,
0010
0001
1000
0001
0200
0000
0300
0000
,
0010
0000
0000
0010
0000
0000
0020
0000
2000
0000
0000
0000
3030
0000
0000
0000
,
1000
0001
0010
0100
0020
0000
0031
0000
,
2002
0000
0000
0000
,
0000
0000
0000
3003
,
1000
0010
0100
0000
0001
1000
0001
1000
,
0001
0010
0100
0010
,
0001
0100
0010
0000
1000
0010
0100
0000
,
0001
0000
1000
0100
0010
0000
1001
0000
,
0001
0010
0100
0000
0010
0001
1000
0001
,
0100
0000
0010
1000
0001
0000
1000
0000
,
0001
0000
0100
0000
0010
1000
0001
0000
,
1000
0100
0010
0001
2000
0000
3020
0000
,
1030
0000
0001
0010
0100
0000
0110
0000
,
0010
0001
1000
0000
0001
0100
0010
0000
,
1000
0001
0100
0010
1000
0000
0100
0000
,
0010
0100
1000
0000
0011
0000
1100
0000
,
1000
0010
0100
0001
1000
0000
0100
0000
,
0010
0001
0100
0000
0010
1000
0001
0000
,
1000
0000
0000
0010
0000
0000
0100
0000
0001
0000
0000
0000
1001
0000
0000
0000
,
0100
0000
0010
1000
0100
0000
0010
0000
,
0001
1000
0000
0220
0000
0000
0000
0000
,
0000
0000
0000
0000
,
0000
0000
0000
0000
0000
0330
0000
0000
;

//---------------dance-single - Oni-91----------------
#NOTES:
     dance-single:
     :
     Easy:
     3:
     0.191932,0.210890,0.090779,0.163402,0.000000,148.000000,138.000000,10.000000,18.000000,0.000000,0.000000,0.191932,0.210890,0.090779,0.163402,0.000000,148.000000,138.000000,10.000000,18.000000,0.000000,0.000000:
1001
0001
0100
0000
,
0010
0100
0001
0000
,
1000
0100
0010
0000
,
1000
0001
0100
0010
,
1000
0100
0010
0000
,
1000
0001
0100
0002
,
0000
1003
0001
0000
,
0001
1000
0100
0000
,
0010
0100
0010
0001
,
1000
0000
0001
0100
,
0001
1000
0010
0100
,
0001
0000
1000
0100
,
0010
0100
1000
0001
,
1000
0000
0020
0000
,
0130
0010
1000
0002
,
0000
1003
0000
0001
,
2002
0000
3003
0000
,
0002
0000
0003
0000
,
0200
0000
0300
0000
,
0020
0000
1030
1000
,
2000
0000
3000
0000
,
0200
0000
0300
0000
,
0020
0000
0030
0000
,
0002
0000
0103
0100
,
0010
1000
1001
0000
,
0001
0000
1001
0000
,
0001
0010
0110
0000
,
0100
0000
0110
0000
,
0010
0001
1001
0000
,
1000
0000
1001
0000
,
1000
0010
0100
0001
,
2000
0000
0000
0000
,
0000
0000
0000
3000
,
0001
0010
0001
0000
,
1000
0010
0100
0001
,
0100
0010
0100
0000
,
0010
1000
0001
1000
,
0100
0010
0001
0000
,
1000
0001
1000
0001
,
0100
0010
0100
0000
,
0010
2000
0001
0001
,
3001
0100
0001
0000
,
1000
0000
0100
0010
,
0100
0010
0001
0000
,
1000
0000
0001
0100
,
0010
1000
0001
0000
,
1000
0000
0001
0010
,
0220
0330
0001
1000
,
0010
0100
0010
1000
,
0001
0000
0000
2002
0000
0000
0000
0000
,
0000
0000
0000
0000
,
0000
0000
0000
0000
0000
3003
0000
0000
;

//---------------dance-single - Oni-91----------------
#NOTES:
     dance-single:
     :
     Beginner:
     1:
     0.099857,0.133445,0.027234,0.000000,0.000000,77.000000,74.000000,3.000000,0.000000,0.000000,0.000000,0.099857,0.133445,0.027234,0.000000,0.000000,77.000000,74.000000,3.000000,0.000000,0.000000,0.000000:
0001
0000
0000
0000
,
1000
0000
0000
0000
,
0100
0000
0000
0000
,
0010
0000
0100
0000
,
0010
0000
0000
0000
,
0001
0000
0000
0001
,
0000
0000
1000
0000
,
0001
0000
1000
0000
,
0001
0000
0000
0000
,
0100
0000
0000
0000
,
0010
0000
0000
0000
,
1000
0000
0001
0000
,
1000
0000
0000
0000
,
0100
0000
0000
0000
,
0010
0000
0000
0000
,
0001
0000
0010
0000
,
0001
0000
0000
0000
,
1000
0000
0000
0000
,
0010
0000
0000
0000
,
1000
0000
0000
0000
,
0001
0000
0000
0000
,
0010
0000
0000
0000
,
0100
0000
0000
0000
,
0010
0000
0000
0000
,
1001
0000
1000
0000
,
0001
0000
0000
0000
,
0010
0000
0100
0000
,
0010
0000
0000
0000
,
1000
0000
0010
0000
,
0100
0000
0000
0000
,
0001
0000
0010
0000
,
0001
0000
0000
0000
,
0000
0000
0000
0000
,
1000
0000
0001
0000
,
0100
0000
0001
0000
,
1000
0000
0100
0000
,
0010
0000
0001
0000
,
1000
0000
0001
0000
,
1000
0000
1000
0000
,
0001
0000
0100
0000
,
0010
0000
0001
0001
,
0001
0000
0100
0000
,
0010
0000
1000
0000
,
0001
0000
0010
0000
,
0100
0000
0010
0000
,
0001
0000
0100
0000
,
0010
0000
1000
0000
,
1001
0000
0000
0000
,
0001
0000
1000
0000
,
1001
0000
0000
0000
;
