#TITLE:Superstar;
#ARTIST:Jamelia;
#BANNER:Superstar.png;
#BACKGROUND:Superstar-bg.png;
#CDTITLE:./CDTitles/DANCING STAGE FUSION.png;
#MUSIC:Superstar.ogg;
#SAMPLESTART:40.636;
#SAMPLELENGTH:15;
#BPMS:0=110;

//---------------dance-single - ----------------
#NOTES:
     dance-single:
     :
     Beginner:
     1:
     :
0000
0000
0000
0000
,
0000
0000
0000
0000
,
0000
0000
0000
0000
,
0010
0000
0010
0000
,
1000
0000
0001
0000
,
0100
0000
0100
0000
,
0001
0000
1000
0000
,
0001
0000
0001
0000
,
1000
0000
1000
0000
,
1001
0000
0000
0000
,
1001
0000
0000
0000
,
0010
0000
0010
0000
,
0100
0000
0100
0000
,
1001
0000
1001
0000
,
0100
0000
0001
0000
,
1000
1000
1000
0000
,
0100
0000
1000
0000
,
0001
0001
0001
0000
,
0010
0000
0010
0000
,
0001
0000
1000
0000
,
0100
0000
0001
0000
,
0110
0000
0110
0000
,
1000
0000
0001
0000
,
1001
1001
0000
0000
,
0010
0000
0010
0000
,
0001
0000
1000
0000
,
1001
0000
0110
0000
,
1000
0000
0001
0000
,
0100
0000
0010
0000
,
0110
0000
0110
0000
,
0001
0000
0100
0000
,
1001
1001
0000
0000
,
0010
0000
0010
0000
,
1000
0000
0001
0000
,
1001
0000
1001
0000
,
0010
0000
0010
0000
,
0001
0000
1000
0000
,
0110
0000
0110
0000
,
1000
0000
0100
0000
,
1001
1001
0000
0000
,
0010
0000
0010
0000
,
0100
0000
0100
0000
,
1001
0000
0110
0000
,
1001
0000
0000
0000
;

//---------------dance-single - ----------------
#NOTES:
     dance-single:
     :
     Easy:
     4:
     :
0000
0000
0000
0000
,
0000
0000
0000
0000
,
0000
0000
0000
0000
,
0010
0000
0010
0000
,
1000
0000
0001
1001
,
0100
0000
0100
0000
,
0001
0000
1000
1001
,
0001
0000
0001
0000
,
0010
0000
0100
0000
,
1001
0000
0100
0000
,
0001
0100
1000
0100
,
0001
0001
1000
0001
,
0010
0100
0010
0100
,
0001
1001
0000
1001
,
0001
0010
1000
0100
,
0001
0001
1000
0000
,
0001
0100
0001
1001
,
1000
0010
0010
0100
,
0010
0000
0100
0000
,
1001
0000
0001
1000
,
0001
0001
0100
0010
,
0110
0000
1001
1000
,
0001
0010
0100
1000
,
0001
0000
2002
0000
0000
3003
0000
0000
,
0010
0010
0100
0010
,
1000
0001
0100
1000
,
1001
0000
0110
0000
,
1001
0000
1000
0001
,
1000
1000
0100
0010
,
0110
0000
1001
0000
,
1000
0010
0100
0001
,
1000
0000
2002
0000
0000
3003
0000
0000
,
0010
0010
0100
0010
,
0001
1000
0100
0001
,
1001
0000
0110
0000
,
1001
0000
1001
1000
,
0001
0001
0010
0100
,
0110
0000
1001
0000
,
0001
0100
0010
1000
,
0001
0000
2002
0000
0000
3003
0000
0000
,
0100
0100
0010
0100
,
1000
0001
0010
1000
,
1001
0000
0110
0000
,
1001
0000
0000
0000
;

//---------------dance-single - ----------------
#NOTES:
     dance-single:
     :
     Medium:
     5:
     :
0000
0000
0000
0000
,
0000
0000
0000
0000
,
0000
0000
0000
0000
,
0010
0000
1000
0000
0001
1000
0100
0000
,
0001
1100
0001
1100
,
0100
0000
0001
0000
1000
0001
0100
0000
,
1000
0101
1000
0101
,
0001
0000
1000
0000
0001
0010
0100
0000
,
0100
0000
0001
0000
0010
1000
0001
0000
,
1000
0100
0001
0100
,
1001
0000
0000
0000
1001
0000
0100
1000
,
0001
1000
0100
0110
,
1000
1000
0001
0010
,
1000
0110
0001
0110
,
1000
0000
0001
0000
0100
0000
1000
0001
,
1000
1100
0001
0101
,
1000
0000
0100
0000
0001
0010
0100
0000
,
0001
1100
0100
0002
,
2003
0001
3002
0103
,
0010
1000
0200
0000
0310
0000
0001
0000
,
1000
1001
0001
0110
,
0010
0001
0200
0000
0310
0000
1000
0000
,
0001
0010
1000
0100
,
0001
0000
0020
0000
0200
0000
0000
0000
0000
0330
0000
0000
0110
0000
0000
0000
,
1000
0100
1000
0000
0100
0000
0001
0000
,
1000
0101
0001
1100
,
0001
0100
0002
0000
1003
0100
1000
0000
,
0010
0001
0200
0000
0310
0000
1001
0000
,
0001
1001
1000
0110
,
0010
1000
0200
0000
0310
0000
1001
0000
,
1000
0000
0010
0000
0001
0010
0100
0000
,
1000
0000
0020
0000
0200
0000
0000
0000
0000
0330
0000
0000
0110
0000
0000
0000
,
0001
0100
0001
0000
0100
0000
1000
0000
,
0001
1100
1000
0101
,
1000
0100
2000
0000
3001
0100
0001
0000
,
0100
0001
0020
0000
0130
0000
1001
0000
,
0101
1001
1100
0110
,
0100
1000
0020
0000
0130
0000
1001
0000
,
1000
0000
0100
0000
0001
0100
0010
0000
,
1000
0000
0200
0000
0020
0000
0000
0000
0000
0330
0000
0000
0110
0000
0000
0000
,
0001
0010
0001
0000
0010
0000
1000
0000
,
1001
1010
0002
0103
,
1000
0010
0200
0000
0301
0000
0002
0000
,
2000
0000
0000
0000
0000
3003
0000
0000
;

//---------------dance-single - ----------------
#NOTES:
     dance-single:
     :
     Hard:
     7:
     :
0000
0000
0000
0000
,
0000
0000
0000
0000
,
0000
0000
0000
0000
,
0011
0001
0100
1000
1001
0100
0010
0000
,
0010
0100
0010
0001
0100
0001
0101
0000
,
1010
1000
0100
0001
1001
0100
0010
0000
,
0010
0100
0010
1000
0100
1000
1100
0000
,
0001
0010
0001
0100
0002
1000
0103
0000
,
1000
0010
1000
0100
2000
0001
3100
0000
,
0001
1000
0001
0100
1000
1000
0010
0100
,
0001
0100
1000
0100
0001
0010
0200
0000
,
1300
0000
1100
0000
0011
0010
0100
1000
,
1001
0000
0011
0000
1100
0100
0010
0001
,
1001
0000
0100
1000
1001
0010
0100
1000
,
1001
0000
0100
0000
1001
0001
1000
0100
,
0001
0100
1000
0000
1001
0000
0110
0000
,
1000
0100
0010
0100
0010
0001
1001
1000
,
0001
0010
0100
0000
0010
1000
0001
0020
,
0000
0000
0130
0200
0000
0300
0110
0000
,
0011
0010
0100
0100
1000
0100
0010
0001
,
1000
0001
0101
0100
0010
0010
0100
0001
,
1000
0100
1100
0000
1000
0100
0010
0001
,
2000
0000
3100
0010
0002
0100
1003
0001
,
1000
0001
0200
0000
0010
0010
0310
0000
,
1000
0010
0100
0001
0010
0001
1000
0100
,
0010
0001
0010
0002
0100
0100
0103
0000
,
0001
0000
0010
0100
0010
0000
0001
0000
1000
0000
0001
0000
0010
0000
0000
0000
,
1010
0010
0100
0100
0001
0100
0010
1000
,
0001
1000
1100
0100
0010
0010
0100
1000
,
0001
0100
0101
0000
0001
0100
0010
1000
,
0002
0000
0103
0010
2000
0100
3001
1000
,
0001
1000
0200
0000
0010
0010
0310
0000
,
0001
0010
0100
1000
0010
1000
0001
0100
,
0010
1000
0010
2000
0100
0100
3100
0000
,
1000
0000
0010
0100
0010
0000
1000
0000
0001
0000
1000
0000
0010
0000
0000
0000
,
0011
0020
0100
0030
1000
0100
0010
0001
,
2000
0001
3001
0010
0001
0010
0100
1000
,
1002
1000
0103
0001
1000
0100
0010
0001
,
2000
0000
3100
0010
0002
0100
1003
0000
,
1000
0001
0200
0000
0010
0310
0110
0000
,
1000
0010
0100
0001
0010
0001
1000
0100
,
0010
0001
0010
0002
0100
0100
0103
0000
,
0001
0000
0010
0100
0010
0000
0001
0000
1000
0000
0001
0000
0020
0000
0200
0000
,
0000
0000
0000
0330
;

//---------------dance-double - ----------------
#NOTES:
     dance-double:
     :
     Easy:
     3:
     :
00000000
00000000
00000000
00000000
,
00000000
00000000
00000000
00000000
,
00000000
00000000
00000000
00000000
,
00100000
00100000
00010000
01000000
,
00002000
00013000
00020000
00031000
,
00000010
00000010
00001000
00000100
,
00020000
00031000
00002000
00013000
,
00100000
01000000
00100000
00010000
,
00000100
00000010
00000100
00001000
,
00000001
00000100
00000010
00010000
,
00001000
00100000
01000000
10000000
,
00100000
11000000
00000000
00100000
,
00010000
00011000
00000000
00001010
,
00010000
00000100
00001000
01000000
,
00100000
00011000
00000000
00000010
,
00001000
00010000
00000000
00010000
,
01000000
10000000
00100000
00010000
,
00001000
00000220
00000000
00000330
,
00000000
00000000
00000000
00000001
,
00001000
00000110
00000000
00001000
,
00010000
01100000
00000000
10000000
,
00100000
01010000
00000000
00001000
,
00000010
00000001
00000100
00001000
,
00010000
00001000
00200000
00000000
00300000
00000000
00000000
00000000
,
01000000
01000000
00010000
00001000
,
00000010
00002200
00000000
00003300
,
00000000
00000000
00000000
10000000
,
00010000
01100000
00000000
00010000
,
00001000
00000110
00000000
00000001
,
00000010
00001100
00000000
00010000
,
00100000
10000000
01000000
00010000
,
00001000
00010000
00000020
00000000
00000030
00000000
00000000
00000000
,
00000100
00000100
00001000
00010000
,
00100000
02020000
00000000
03030000
,
00000000
00000000
00000000
00000010
,
00000100
00011000
00000000
00100000
,
01000000
00011000
00000000
00001000
,
00000100
00000101
00000000
00000010
,
00001000
00011000
01000000
00010000
,
00100000
00010000
02000000
00000000
03000000
00000000
00000000
00000000
,
00100000
00100000
00010000
00001000
,
00000010
00002000
00003000
00000000
,
00001000
00001000
00010000
01000000
,
10000000
00000000
00000000
00000000
;

//---------------dance-double - ----------------
#NOTES:
     dance-double:
     :
     Medium:
     6:
     :
00000000
00000000
00000000
00000000
,
00000000
00000000
00000000
00000000
,
00000000
00000000
00000000
00000000
,
10000000
00000000
10000000
01000000
00010000
00001000
00010000
00000000
,
00002000
00000000
00013000
00000000
00010000
00001000
00000100
00000000
,
00000001
00000000
00000001
00000100
00001000
00010000
00001000
00000000
,
00020000
00000000
00031000
00000000
00001000
00010000
01000000
00000000
,
10000000
00000000
00100000
00010000
00100000
00010000
00001000
00000000
,
00000100
00000101
00000100
00001100
,
00000001
00000000
00000010
00001000
00000010
00001000
00010000
00000000
,
01000000
00000000
11000000
00000000
01000000
00000000
01000000
00010000
,
00001000
00000000
00011000
00000000
00000000
00000000
00001000
00000100
,
00000001
00000000
00000011
00000000
00000000
00000000
00000100
00001000
,
00010000
01010000
10000000
01100000
,
00010000
00011000
00000000
00000100
,
00000001
00000010
00001000
00000000
00000000
00000000
00000000
00010000
,
00001000
00010000
00001000
00010000
00001000
00010000
00001000
00000100
,
00000001
00000010
00001000
00000000
00000000
00000000
00000010
00000000
,
00001000
00000000
00100000
00000000
00010000
00000000
00001000
00000010
,
00000001
00000100
00000100
00000000
00000000
00000000
00010000
00100000
,
10000000
01000000
01000000
00000000
00000000
00000000
00001000
01000000
,
00100000
00010000
00010000
00000000
00000000
00000000
00000010
00001000
,
00010000
00011000
01000000
10010000
,
00100000
01000000
00020000
00000000
00030000
00000000
00000000
10000000
,
00100000
00000000
00100000
00000000
00100000
00010000
00001000
00010000
,
00001000
00000010
00000020
00000000
00000030
00000000
00000000
00000000
,
00001000
00000000
00001000
00000000
00011000
00000000
00010000
00100000
,
10000000
01000000
01000000
00000000
00000000
00000000
00001000
00000010
,
00000001
00000100
00000100
00000000
00000000
00000000
00010000
00000100
,
00000010
00001000
00001000
00000000
00000000
00000000
00100000
00010000
,
00001000
00011000
00000100
00001001
,
00000010
00000100
00002000
00000000
00003000
00000000
00000000
00000001
,
00000100
00000000
00000100
00000000
00000100
00001000
00010000
00001000
,
00010000
01000000
02000000
00000000
03000000
00000000
00000000
00000000
,
00010000
00000000
00001000
00000000
00001010
00000000
00000001
00000100
,
00001000
00010000
00010000
00000000
00000000
00000000
10000000
01000000
,
00010000
00001000
00001000
00000000
00000000
00000000
00000001
00000010
,
00001000
00010000
00010000
00000000
00000000
00000000
10000000
00100000
,
01000000
00011000
00000100
00011000
,
00000010
00001000
00000200
00000000
00000300
00000000
00000000
00010000
,
00001000
00000000
00001000
00000000
00001000
00100000
01000000
10000000
,
00100000
01000000
02000000
00000000
03000000
00000000
00000000
00000000
,
00100000
00100000
00010000
00000000
00001000
00001000
00000100
00000000
,
00000001
00000000
00000000
00000000
;

//---------------dance-double - ----------------
#NOTES:
     dance-double:
     :
     Hard:
     7:
     :
00000000
00000000
00000000
00000000
,
00000000
00000000
00000000
00000000
,
00000000
00000000
00000000
00000000
,
10010000
00010000
01000000
00001000
00100000
00010000
01000000
00000000
,
00002000
00000000
00013000
00000010
00010000
00000100
00001000
00000000
,
00001001
00001000
00000100
00010000
00000010
00001000
00000100
00000000
,
00020000
00000000
00031000
00100000
00001000
01000000
00010000
00000000
,
10000000
00100000
01000000
00010000
00100000
00001000
00010000
00000010
,
00001000
00000101
00000011
00001100
,
00000001
00000010
00000100
00001000
00000010
00010000
00001000
00100000
,
00010000
00000000
11000000
00000000
10100000
10000000
01000000
01000000
,
11000000
00000000
01010000
00000000
00000000
00010000
00001000
00000100
,
00000101
00000000
00001100
00000000
00000000
00001000
00010000
01000000
,
01010000
00000000
00011000
00001000
00000010
00000000
00011000
00010000
,
00100000
00000000
00000000
00000000
00011000
00000000
00000000
00000000
00000000
00000000
00000100
00001000
00000100
00001000
00000100
00000010
,
00000100
00010000
00001000
00000000
00000000
00000000
00000000
00010000
,
00001000
00000100
00000001
00000010
00001000
00010000
00100000
00010000
,
00100000
10000000
21000000
00000000
30000000
00000000
00100000
00100000
,
00010000
00000000
00000010
00000010
00000100
00000101
00000100
00001000
,
00010000
00001000
00000100
00000000
00000000
00011000
00010000
01000000
,
10000000
01000000
00010000
00000000
00000000
00101000
00001000
00010000
,
00000010
00010000
00001000
00000000
00000000
00001000
00000010
00000001
,
00001100
00011000
01100000
10010000
,
00100000
00010000
00002000
00000000
00003000
00000000
00000000
10000000
,
01000000
00010000
01000000
00010000
00001000
00000100
00000001
00000100
,
00000010
00001000
00002200
00000000
00003300
00000000
00000000
00000000
,
00010000
00010000
01000000
01000000
10000000
11000000
01000000
00010000
,
00001000
00010000
01000000
00000000
00000000
00011000
00001000
00000100
,
00000001
00000100
00001000
00000000
00000000
00010010
00010000
00001000
,
00100000
00001000
00010000
00000000
00000000
00010000
00100000
10000000
,
01010000
00011000
00000110
00001001
,
00000010
00001000
00020000
00000000
00030000
00000000
00000000
00000001
,
00000010
00001000
00000010
00001000
00010000
00100000
10000000
00100000
,
01000000
00010000
22000000
00000000
33000000
00000000
00000000
00000000
,
00010000
00010000
00001000
00001000
00000010
00000011
00000100
00010000
,
00001000
00010000
01000000
00000000
00000000
10100000
00100000
00010000
,
00001000
00010000
00000100
00000000
00000000
00001010
00001000
00010000
,
00001000
00000100
00000001
00000000
00000000
00000010
00001000
00010000
,
01000000
10100000
01001000
00010100
,
00000010
00001000
00020000
00000000
00030000
00000000
00000000
00010000
,
00001000
00100000
01000000
00100000
00001000
00000100
00000010
00000100
,
00000001
00000010
00002200
00000000
00003300
00000000
00000000
00000000
,
00100000
10000000
00010000
01000000
00001000
00010000
00000010
00000100
,
00000001
00000000
00000000
00000000
;
