#TITLE:SOMEBODY LIKE YOU;
#ARTIST:Atomic Kitten;
#BANNER:SOMEBODY LIKE YOU.png;
#BACKGROUND:SOMEBODY LIKE YOU-bg.png;
#CDTITLE:./CDTitles/DANCING STAGE FUSION.png;
#MUSIC:SOMEBODY LIKE YOU.ogg;
#SAMPLESTART:46.31;
#SAMPLELENGTH:15;
#DISPLAYBPM:126;
#BPMS:0=126;

//---------------dance-single - ----------------
#NOTES:
     dance-single:
     :
     Beginner:
     1:
     :
0000
0000
0000
0000
,
0000
0000
0000
0000
,
0000
0000
0000
0000
,
0000
0000
0000
0000
,
0000
0000
0000
0000
,
0000
0001
0001
0001
,
0000
1000
0000
1000
,
0000
1000
1000
1000
,
0000
0001
0001
0001
,
0001
0000
1000
0000
,
0001
0001
0001
0000
,
1000
0000
0001
0000
,
1000
1000
1000
0000
,
1000
0000
0001
0000
,
0100
0100
0100
0000
,
0001
0000
1000
0000
,
0010
0010
0010
0000
,
1000
0000
0001
0000
,
0010
0000
0100
0000
,
0010
0000
1000
0000
,
1000
0000
1000
0000
,
0001
0000
1000
0000
,
0010
0000
0100
0000
,
0010
0000
0010
0000
,
0100
0000
0100
0000
,
0001
0001
0000
1000
,
0000
0001
0000
1000
,
1000
1000
0000
0001
,
0000
1000
0000
0001
,
0001
0000
0100
0000
,
1000
0000
0010
0000
,
0001
0000
0100
0000
,
1000
0000
0010
0000
,
1000
1000
0000
0001
,
0000
1000
0000
0001
,
0001
0001
0000
1000
,
0000
0001
0000
1000
,
1000
0000
0100
0000
,
0001
0000
0010
0000
,
1000
0000
0100
0000
,
0001
0000
0010
0000
,
0001
0001
0000
1000
,
0000
0001
0000
0100
,
0000
0001
0000
0100
,
0100
0000
0000
0000
,
1000
1000
0000
0001
,
0000
1000
0000
0100
,
0000
1000
0000
0100
,
0100
0000
0000
0000
,
0001
0001
0000
0001
,
0001
0001
0000
0100
,
0000
0001
0000
0100
,
0100
0000
0000
0000
,
1000
1000
0000
1000
;

//---------------dance-single - ----------------
#NOTES:
     dance-single:
     :
     Easy:
     4:
     :
0000
0000
0000
0000
,
0000
0000
0000
0000
,
0000
0000
0000
0000
,
0000
0000
0000
0000
,
0000
0000
0000
0000
,
0001
0100
1000
0100
,
0001
0100
1000
0000
,
0001
0001
1000
1000
,
0010
0100
1001
1001
,
0001
0100
0001
0100
,
1000
0100
1000
0000
,
0010
0001
0100
1000
,
0010
0010
1001
0000
,
0010
0100
0010
0000
,
0001
1000
0001
0000
,
1000
1001
0001
1001
,
0010
0010
0110
0000
,
2000
0000
0000
3000
,
0002
0000
0000
0003
,
0020
0000
0000
0030
,
0200
0000
0000
0300
,
2000
3000
0002
0003
,
2000
3000
0002
0003
,
0020
0030
0200
0300
,
0020
0030
1001
0110
,
1000
0100
0001
0100
,
1000
0100
0001
0000
,
1000
0010
0001
0010
,
1000
0010
0001
0000
,
1000
0010
1000
0100
,
0001
0010
0001
0100
,
0220
0000
0000
0330
,
0000
0000
1001
0110
,
1000
1000
0001
0001
,
0010
1000
0100
0001
,
0010
0010
0100
0100
,
0010
1000
0001
0000
,
0010
1000
0100
1000
,
0001
0010
0001
0100
,
0220
0000
0000
0330
,
0000
0000
0000
0000
,
1000
0100
0001
0100
,
1000
0100
0001
0000
,
0010
0100
0010
0100
,
0010
0010
1001
0000
,
0001
0010
1000
0010
,
0001
0010
1000
0000
,
0001
1000
0001
1000
,
0100
0010
0110
0000
,
1000
0100
0001
0010
,
0001
0100
1000
0000
,
0010
0010
0010
0010
,
0100
0100
0100
0100
;

//---------------dance-single - ----------------
#NOTES:
     dance-single:
     :
     Medium:
     6:
     :
0000
0000
0000
0000
,
0000
0000
0000
0000
,
0000
0000
0000
0000
,
0000
0000
0000
0000
,
0000
0000
0000
0000
,
0001
0000
0100
0000
1000
0100
1000
0000
,
0001
0000
0010
0000
0001
0100
0001
0000
,
1000
0000
0100
0000
0001
1000
0001
0000
,
0010
0100
1001
0110
,
2001
0000
3100
0000
0010
0001
0100
0000
,
1001
0000
0010
0001
0000
1000
0100
0000
,
1002
0000
0103
0000
0010
1000
0100
0000
,
0110
0000
1000
0010
0000
0100
0001
0000
,
1200
0000
0310
0000
0001
1000
0100
0000
,
0201
0000
0310
0000
1000
0001
0100
0000
,
0011
0101
1010
1100
,
0110
0000
0001
1000
0100
0010
0001
0000
,
2010
0001
0010
0001
,
0010
0100
0010
3100
,
0012
1000
0010
1000
,
0010
0100
0010
0103
,
1200
0001
1000
0001
,
1000
0010
1000
0310
,
0002
0013
2000
3010
,
0002
0103
0110
1001
,
0010
0000
0110
0000
1000
0100
0001
0000
,
0010
0000
0100
0000
0001
0100
1000
0000
,
0010
0000
0110
0000
1000
0100
0001
0000
,
0010
0000
0100
0000
0001
0100
1000
0000
,
0001
0000
0000
0001
0000
0000
0001
0000
1000
0000
0000
1000
0000
0000
1000
0000
,
0001
0000
0000
0001
0000
0000
0001
0000
0010
0000
0000
0010
0000
0000
0010
0000
,
0200
0020
0000
0330
,
0101
1100
0110
1001
,
0010
0000
0110
0000
0001
1000
0100
0000
,
0010
0000
0110
0000
1000
0001
0100
0000
,
0100
0000
0110
0000
0001
0010
1000
0000
,
0100
0000
0110
0000
1000
0010
0001
0000
,
1000
0000
0000
0010
0000
0000
1000
0000
0001
0000
0000
0010
0000
0000
0001
0000
,
1000
0000
0000
0100
0000
0000
1000
0000
0001
0000
0000
0100
0000
0000
0001
0000
,
2000
0010
0100
3010
,
0002
0010
0100
0013
,
1000
0110
0001
0110
,
1000
0110
0001
0110
,
1000
0000
0001
0000
0100
0010
0100
0000
,
0110
0000
1000
0100
0000
0001
0100
0000
,
0001
0110
1000
0110
,
0001
0110
1000
0110
,
0001
0000
0100
0000
1000
0010
1000
0000
,
0110
0000
0001
1000
0000
0010
0100
0000
,
0001
1100
0001
1100
,
1000
0101
1000
0101
,
0010
0000
0010
0000
0010
0100
0010
0000
,
0100
0000
0100
0000
0100
0010
0100
0000
;

//---------------dance-single - ----------------
#NOTES:
     dance-single:
     :
     Hard:
     7:
     :
0000
0000
0000
0000
,
0000
0000
0000
0000
,
0000
0000
0000
0000
,
0000
0000
0000
0000
,
0000
0000
0000
0000
,
0001
1000
0100
0000
0001
0100
0001
0000
,
1000
0010
0100
0000
0001
0100
0010
0000
,
1000
0100
0001
0000
0001
1000
0001
0000
,
0010
0100
1010
0011
,
1100
0000
0001
0010
0000
1000
0010
0001
,
0110
0000
0001
0100
0000
1000
0100
0010
,
1001
0000
0010
0100
0000
0001
0100
0010
,
1100
0000
0001
1000
0000
0010
0001
1000
,
0101
0000
1000
0100
0000
0001
0100
1000
,
0110
0000
1000
0010
0000
0001
0010
0100
,
1001
0000
0100
0010
0000
1000
0010
0100
,
0011
0000
1000
0001
0000
0100
1000
0000
,
0001
0010
0001
0100
0001
0010
0001
1000
,
0010
1000
0100
1000
0010
1000
0001
0000
,
0100
0001
0100
0010
0100
0001
0100
0010
,
1000
0100
0010
0100
1000
0100
0010
0000
,
0001
0100
1000
0100
0001
0100
0010
1000
,
0100
0001
0100
1000
0100
0010
0001
0000
,
1000
0010
1100
0000
0001
0010
0101
0000
,
1000
0100
0110
0000
1001
0000
0101
0000
,
1100
0000
0010
0010
0001
0100
1000
1000
,
0110
0000
0001
0001
0010
1000
0100
0100
,
1001
0000
0010
0010
1000
0001
0100
0110
,
0000
0000
1000
1000
0001
1000
0001
0000
,
1000
0100
0000
0010
0000
0000
0001
0000
0100
0010
0000
1000
0000
0000
0100
0000
,
0010
0001
0000
0100
0000
0000
0010
0000
1000
0100
0000
0010
0000
0000
0001
0000
,
0200
1000
1000
1300
,
0101
0000
0010
1000
1001
0000
1100
0000
,
0101
0000
0010
0010
1000
0100
0001
0001
,
0110
0000
1000
1000
0010
0001
0100
0100
,
1001
0000
0010
0010
0001
1000
0100
0110
,
0000
0000
0001
0001
1000
0001
1000
0000
,
0001
0100
0000
0010
0000
0000
1000
0000
0100
0010
0000
0001
0000
0000
0100
0000
,
0010
1000
0000
0100
0000
0000
0010
0000
0001
0100
0000
0010
0000
0000
1000
0000
,
0200
0001
0001
0301
,
1100
0000
0010
0001
0100
1000
0010
0000
,
1000
0100
0000
0000
0000
0000
0001
0100
0000
0000
0000
0000
1000
0100
0000
0000
,
0000
0001
0010
0001
1000
0010
1000
0100
,
0010
0001
0010
0100
1000
0010
1000
0200
,
0000
0000
0000
0300
,
0001
0100
0000
0000
0000
0000
1000
0100
0000
0000
0000
0000
0001
0100
0000
0000
,
0000
1000
0010
1000
0001
0010
0001
0100
,
0010
1000
0010
0100
0001
0010
0001
0200
,
0000
0000
0000
0300
,
1000
0100
0000
0000
0000
0000
0001
0100
0000
0000
0000
0000
1000
0100
0000
0000
,
0000
0011
0000
0011
0000
0001
0110
1000
,
0000
1100
0000
1100
0000
1000
0110
0001
,
0000
0100
0000
0100
0000
0100
0100
0000
;
