#TITLE:SEXIEST MAN IN JAMAICA;
#ARTIST:Mint Royale (feat Prince Buster);
#BANNER:SEXIEST MAN IN JAMAICA.png;
#BACKGROUND:SEXIEST MAN IN JAMAICA-bg.png;
#CDTITLE:./CDTitles/DANCING STAGE FUSION.png;
#MUSIC:SEXIEST MAN IN JAMAICA.ogg;
#SAMPLESTART:61.875;
#SAMPLELENGTH:15;
#DISPLAYBPM:128;
#BPMS:0=128;

//---------------dance-single - ----------------
#NOTES:
     dance-single:
     :
     Beginner:
     1:
     :
0000
0000
0000
0000
,
0000
0000
0000
0000
,
0000
0000
0000
0000
,
0001
0001
0001
0000
,
0010
0010
0010
0000
,
1000
1000
1000
0000
,
0001
0001
0001
0000
,
0100
0100
0100
0000
,
0010
0010
0010
0000
,
1000
1000
1000
0000
,
0001
0001
0001
0000
,
0010
0010
0010
0000
,
0100
0100
0100
0000
,
1001
0000
0001
0001
,
0001
0000
1000
1000
,
1000
0000
0010
0010
,
0010
0010
0010
0000
,
1001
0000
0000
0000
,
0010
0010
0010
0000
,
1001
0000
0000
0000
,
0100
0100
0100
0000
,
1001
0000
0000
0000
,
0001
0001
0001
0000
,
1001
0000
0000
0000
,
0100
0000
0000
0000
,
0110
0000
0000
0000
,
0010
0010
0010
0000
,
0110
0000
0000
0000
,
0100
0100
0100
0000
,
0110
0000
0000
0000
,
1000
1000
1000
0000
,
0110
0000
0000
0000
,
0010
0000
0000
0000
,
1001
0000
0000
0000
,
0010
0010
0010
0000
,
1001
0000
0000
0000
,
0100
0100
0100
0000
,
1001
0000
0000
0000
,
0001
0001
0001
0000
,
1001
0000
0000
0000
,
0110
0000
0000
0000
,
1000
1000
1000
0000
,
0100
0100
0100
0000
,
0001
0001
0001
0000
,
1000
1000
1000
0000
,
0001
0000
1000
0000
,
0100
0000
0010
0000
,
0001
0000
0100
0000
,
0100
0000
1001
0000
;

//---------------dance-single - ----------------
#NOTES:
     dance-single:
     :
     Easy:
     4:
     :
0000
0000
0000
0000
,
0000
0000
0000
0000
,
0000
0000
0000
0000
,
0001
1000
0001
0000
,
0010
0100
0010
0000
,
0001
1000
1000
0000
,
1000
0001
0001
0000
,
0010
0100
0100
0000
,
0100
0010
0010
0000
,
1001
1000
0100
0000
,
0001
0001
0100
0000
,
0010
0010
0100
0000
,
0100
0100
0010
0100
,
1001
0000
0001
0010
,
0001
0000
1000
0100
,
1000
0000
0010
0100
,
0010
0100
0001
1000
,
2002
0000
0000
3003
,
0010
0010
0100
0010
,
2002
0000
0000
3003
,
0100
0100
0010
0100
,
2002
0000
0000
3003
,
0010
0001
0010
0100
,
2002
0000
0000
3003
,
1001
0000
0000
0100
,
2002
0000
0000
3003
,
0001
1000
1000
0001
,
0220
0000
0000
0330
,
1000
0001
0001
1000
,
0220
0000
0000
0330
,
0001
1000
0001
1000
,
0220
0000
0000
0330
,
1000
0001
1000
0001
,
2002
3003
0100
0100
,
0010
1000
1000
0100
,
2002
3003
0100
0100
,
0010
0001
0100
0100
,
2002
3003
0010
0010
,
0100
0001
0001
0010
,
2002
3003
0010
0010
,
0100
1000
0010
0010
,
2002
0000
0000
3003
,
0200
0000
0000
0300
,
0002
0000
0000
0003
,
2000
0000
0000
3000
,
0001
0001
1000
1000
,
0100
0100
0010
0010
,
0001
1000
0100
0010
,
0100
0010
1001
0000
;

//---------------dance-single - ----------------
#NOTES:
     dance-single:
     :
     Medium:
     6:
     :
0000
0000
0000
0000
,
0000
0000
0000
0000
,
0000
0000
0000
0000
,
0001
0000
0001
0000
1000
0000
1000
0001
,
1000
0000
1000
0000
0001
0000
0001
1000
,
0001
0000
0001
0000
1000
0000
1000
0010
,
1000
0000
1000
0000
0100
0000
0100
0010
,
0100
0000
0100
0000
1000
0000
1000
0010
,
1000
1000
0001
0010
,
1001
0000
0010
0100
0010
0000
0100
0000
,
1000
0000
1000
0001
1000
0000
0100
0000
,
0010
0000
0001
0100
0001
0000
0010
0000
,
0100
0000
1000
0100
1000
0000
0010
0000
,
1001
0000
0010
0100
0010
0000
0100
0000
,
1000
0000
1000
0100
0010
0000
0100
0000
,
0010
0000
0010
0001
0100
0000
0010
0000
,
0100
0000
0100
0001
1000
0000
0100
0000
,
0220
0000
0330
0000
0001
0010
0100
0000
,
0100
1000
0001
0000
1000
0001
1000
0000
,
0022
0000
0033
0000
1000
0001
0100
0000
,
0010
1000
0100
0000
0010
0000
0100
0000
,
2020
0000
3030
0000
0001
1000
0100
0000
,
0010
0001
0100
0000
0010
0000
0100
0000
,
1001
0000
0001
1000
0000
1000
0100
0000
,
0202
0000
0000
0303
,
0210
0000
1300
0000
0010
0001
0100
0000
,
0210
0000
0301
0000
0010
1000
0100
0000
,
0010
0001
0010
0000
0100
1000
0100
0000
,
0010
0001
1000
0010
0100
0000
1001
0000
,
0120
0000
0031
0000
0100
1000
0010
0000
,
0120
0000
1030
0000
0100
0001
0010
0000
,
0100
1000
0100
0000
0010
0001
0010
0000
,
0100
0001
0100
0010
1000
0000
0110
0000
,
1001
0001
0001
0011
,
1100
1000
1000
0001
,
0110
0001
0001
0011
,
1100
0000
1000
0000
1000
0001
1000
0001
,
1000
1000
1000
1100
,
0011
0001
0001
1000
,
0110
1000
1000
1100
,
0011
0000
0001
0000
0001
1000
0001
0000
,
0220
0030
1000
1300
,
0220
0030
0001
0301
,
2002
0000
3003
0000
0010
0000
0100
0010
,
0100
0000
1100
0000
0001
0000
0010
0100
,
0010
0000
1100
0000
0001
0000
0100
0010
,
0100
0000
1100
0000
0001
0000
0010
0100
,
0010
0000
1100
0000
0001
0000
0100
0010
,
0100
1100
0101
0000
;

//---------------dance-single - ----------------
#NOTES:
     dance-single:
     :
     Hard:
     7:
     :
0000
0000
0000
0000
,
0000
0000
0000
0000
,
0000
0000
0000
0000
,
1001
0000
0001
0010
0001
0000
0010
0100
,
0010
0000
0100
1000
0100
0000
1000
0010
,
1000
0000
0010
0100
0010
0000
0100
0001
,
0100
0000
0001
0010
0001
0100
0010
1000
,
0101
0000
0010
1000
0100
0000
0010
0001
,
0100
0000
0010
1000
0001
0010
0100
0000
,
1001
0000
0011
0001
0001
0000
0010
0010
,
0010
0000
1100
0100
0100
0000
1000
1000
,
1000
0000
0110
0010
0010
0000
0100
0100
,
0100
0000
0011
0001
1000
1000
0010
0100
,
1001
0001
0010
0010
0100
1000
1000
1000
,
0010
0001
0001
0010
0010
0100
0100
0000
,
0110
1000
1000
0001
0010
1000
1000
0010
,
0010
0100
0100
1000
0001
0010
0100
0010
,
1002
0000
1000
0000
0000
0000
0010
0000
0000
0010
0000
0000
0013
0000
0000
0000
,
0100
0001
1000
1000
0010
0100
0001
1000
,
0120
0000
0100
0000
0000
0000
0100
0000
0000
0100
0000
0000
0130
0000
0000
0000
,
1000
0001
0010
0100
0100
0010
0001
1000
,
0210
0000
0010
0000
0000
0000
1000
0000
0000
1000
0000
0000
1300
0000
0000
0000
,
0001
0100
0010
0010
1000
0001
0010
0100
,
1200
0000
1000
0000
0000
0000
0010
0000
0000
0010
0000
0000
0310
0000
0000
0000
,
0001
1000
0010
0100
0100
0001
1000
0010
,
0202
0000
0000
0303
0000
0000
0011
0000
0000
1100
0000
0000
0110
0000
0000
0000
,
0011
0000
0011
0000
0000
0000
1100
0000
0000
0110
0000
0000
1001
0000
0010
0000
,
2002
0000
0000
3003
0000
0000
0110
0000
0000
0011
0000
0000
1010
0000
0010
0000
,
0110
0000
1001
0000
0000
0000
0011
0000
0000
1010
0000
0000
0110
0000
0001
0000
,
2200
0000
0000
3300
0000
0000
1010
0000
0000
0101
0000
0000
0110
0000
0000
0000
,
1010
0000
1010
0000
0000
0000
0101
0000
0000
0110
0000
0000
1001
0000
0010
0000
,
2002
0000
0000
3003
0000
0000
0110
0000
0000
1010
0000
0000
0011
0000
0010
0000
,
0110
0000
1001
0000
0000
0000
1010
0000
0000
0011
0000
0000
0110
0000
0100
0000
,
2001
0000
0001
0000
0000
0000
0010
0000
0000
0010
0000
0000
0010
0000
0000
0000
,
0100
3000
0001
0001
0010
0100
1000
0001
,
0120
0000
0100
0000
0000
0000
0100
0000
0000
0100
0000
0000
0130
0000
0000
0000
,
0001
1000
0010
0100
0100
0010
1000
0001
,
0210
0000
0010
0000
0000
0000
0001
0000
0000
0001
0000
0000
0001
0000
0000
0000
,
1000
0300
0010
0010
0001
1000
0010
0100
,
0201
0000
0001
0000
0000
0000
0010
0000
0000
0010
0000
0000
0310
0000
0000
0000
,
0001
0100
0010
0010
1000
0001
0010
0100
,
2001
0000
0001
0001
0001
0000
0001
0001
,
3002
0000
0010
0010
0010
0000
0010
0010
,
0020
0003
0100
0100
0100
0000
0100
0100
,
0200
0030
1000
1000
1000
0000
1000
1000
,
1300
0000
0101
0001
0010
0000
0100
1000
,
0010
0000
1001
0100
0010
0000
1000
0010
,
0100
0000
0110
1000
0001
0000
0100
0010
,
0100
0000
1001
0010
0100
0000
0000
0000
;
