#TITLE:Promises;
#ARTIST:Kylie Minogue;
#BANNER:Promises.png;
#BACKGROUND:Promises-bg.png;
#CDTITLE:./CDTitles/DANCING STAGE FUSION.png;
#MUSIC:Promises.ogg;
#SAMPLESTART:30.588;
#SAMPLELENGTH:15;
#DISPLAYBPM:102;
#BPMS:0=102;

//---------------dance-single - ----------------
#NOTES:
     dance-single:
     :
     Beginner:
     1:
     :
0000
0000
0000
0000
,
0000
0000
0000
0000
,
0000
0000
0000
0000
,
0010
0010
0010
0000
,
0100
0100
0100
0000
,
1001
0000
0001
0000
,
1000
1000
1000
0000
,
1000
0000
1000
0000
,
0010
0000
0000
0000
,
1001
0000
1000
0000
,
0001
0001
0001
0000
,
0001
0000
0001
0000
,
0010
0000
0000
0100
,
0000
0001
0000
0001
,
0000
0100
0000
0000
,
1000
0000
0100
0000
,
0001
0000
0100
0000
,
0000
1000
0000
1000
,
0000
0100
0000
0000
,
0001
0000
0100
0000
,
1000
0000
0100
0000
,
0110
0000
0000
0000
,
0001
0000
0010
0000
,
0100
0000
0000
0000
,
1000
1000
1000
0000
,
1000
0000
0000
0000
,
0010
0000
0000
0000
,
0100
0000
0000
0000
,
0000
0000
0000
0000
,
0000
0000
0000
0000
,
0000
0001
0000
0001
,
0000
0100
0000
0000
,
1000
0000
0100
0000
,
0001
0000
0100
0000
,
0000
1000
0000
0100
,
0000
0100
0000
0000
,
0001
0000
0100
0000
,
1000
0000
0100
0000
;

//---------------dance-single - ----------------
#NOTES:
     dance-single:
     :
     Easy:
     3:
     :
0000
0000
0000
0000
,
0000
0000
0000
0000
,
0000
0000
0000
0000
,
0010
0010
0010
0000
,
0100
0100
0100
0000
,
1001
0001
0001
0000
,
1000
1000
1000
0000
,
1000
0001
1000
0001
,
0010
0000
0000
0100
,
1001
0001
1000
0000
,
1000
1000
0001
0000
,
0010
0010
0100
0100
,
0100
0000
0000
0010
,
1001
0001
1000
0001
,
0010
0100
1000
0000
,
2000
0001
0200
3300
,
0002
1000
0200
0303
,
1001
1000
0001
1000
,
0010
0100
0001
0000
,
0002
1000
0200
0303
,
2000
0001
0200
3300
,
0220
0000
0000
0330
,
0001
0000
0010
0000
,
0200
0000
0000
0300
,
1000
1000
1000
0001
,
2000
0000
0000
3000
,
0020
0000
0000
0030
,
0200
0000
0000
0300
,
0001
0001
1000
2000
,
0000
0000
0000
3001
,
1001
1000
0001
1000
,
0100
0010
0001
0000
,
0002
1000
0020
0033
,
2000
0001
0020
3030
,
1001
1000
0001
1000
,
0100
0010
0001
0000
,
0002
1000
0020
0033
,
2000
0001
0020
3030
;

//---------------dance-single - ----------------
#NOTES:
     dance-single:
     :
     Medium:
     4:
     :
0000
0000
0000
0000
,
0000
0000
0000
0000
,
0000
0000
0000
0000
,
0001
0000
0000
0001
0000
0000
0001
0000
0000
0000
0000
0000
0000
0000
0000
0000
,
1000
0000
0000
1000
0000
0000
1000
0000
0000
0000
0000
0000
0110
0000
0000
0000
,
0001
0010
0001
0000
1000
0010
1000
0000
,
0001
0100
0001
0000
1000
0100
1000
0000
,
0000
0000
0001
0000
1000
0010
1000
0000
,
0010
0100
0001
1000
,
0001
0010
0001
0000
1000
0010
1000
0000
,
0001
0100
0001
0000
1000
0100
1000
0000
,
0000
0000
0001
0000
1000
0010
1000
0000
,
0010
0100
0001
1000
,
1001
0000
0100
0000
0010
0001
0100
0000
,
1002
1000
0100
1003
,
2001
0100
0200
3300
,
2001
0100
0200
3300
,
1001
0000
0100
0000
0010
1000
0100
0000
,
2001
0001
0100
3001
,
1002
0100
0200
0303
,
1002
0100
0200
0303
,
1100
0000
0100
0000
0100
0000
0100
0010
,
0001
0000
0001
0000
0001
0000
0001
0200
,
0001
0000
0001
0000
0301
0000
0001
0010
,
0000
1000
0000
0001
0000
0010
1000
0100
,
0020
0000
0000
0030
,
2000
0000
0000
3000
0000
0000
0002
0200
,
0000
0000
0000
0000
0303
0000
0100
1000
,
0000
0010
0000
0100
0000
2002
0000
0000
,
0000
3000
1003
0110
,
1001
0000
0010
0000
0100
1000
0010
0000
,
2001
0001
0010
3001
,
1002
0010
0020
0033
,
1002
0010
0020
0033
,
1001
0000
0010
0000
0100
0001
0010
0000
,
1002
1000
0010
1003
,
2001
0010
0020
3030
,
2001
0010
3010
0101
;

//---------------dance-single - ----------------
#NOTES:
     dance-single:
     :
     Hard:
     7:
     :
0000
0000
0000
0000
,
0000
0000
0000
0000
,
0000
0000
0000
0000
,
0020
0000
0000
0001
0000
0000
0130
0000
0000
0000
0000
0000
0000
0000
0000
0000
,
0020
0000
0000
1000
0000
0000
0130
0000
0000
0000
0000
0000
1001
0000
0000
0000
,
0110
0000
1000
0001
0000
0010
0100
0000
1000
0001
0000
0000
0001
0000
0001
0000
,
0010
0000
0100
0010
0000
0001
0100
0000
0010
1000
0000
0000
0100
0000
0100
0000
,
0100
1000
1000
0001
0001
0010
0100
0010
,
1000
0000
0001
0010
0100
1000
0010
0100
,
0110
0000
0001
1000
0000
0010
0100
0000
0001
1000
0000
0000
1000
0000
1000
0000
,
0010
0000
0100
0010
0000
1000
0100
0000
0010
0001
0000
0000
0100
0000
0100
0000
,
0100
0001
0001
1000
1000
0010
0100
0010
,
0001
0000
1000
0010
0100
0001
0010
0100
,
0011
0000
0000
0001
0100
0000
0010
0000
1000
0000
1000
0000
0100
0000
0010
0000
,
1001
0000
0000
0001
0010
0000
0100
0000
1000
0000
0010
0000
0001
0000
0100
0000
,
1100
0000
0000
0001
0100
0000
0010
0000
1000
0000
0100
0000
0010
0000
0100
0000
,
0101
0000
0000
0001
0010
0000
0100
0000
1000
0000
0001
0000
0100
0000
0010
0000
,
1010
0000
0000
1000
0100
0000
0010
0000
0001
0000
0001
0000
0100
0000
0010
0000
,
1001
0000
0000
1000
0010
0000
0100
0000
0001
0000
0010
0000
1000
0000
0100
0000
,
0101
0000
0000
1000
0100
0000
0010
0000
0001
0000
0100
0000
0010
0000
0100
0000
,
1100
0000
0000
1000
0010
0000
0100
0000
0001
0000
1000
0000
0100
0000
0010
0000
,
1002
0000
0013
0100
1000
1000
1000
0001
,
0010
0000
0000
0001
1000
0000
0100
0000
0020
0000
0000
0000
0130
0000
2000
0000
,
0010
0000
0010
0000
0010
0000
3010
0010
,
0000
1001
1000
0010
0100
0001
0010
0100
,
2001
0000
0000
3010
0100
0001
0010
0100
,
2000
0000
0000
0002
3000
0000
0200
0000
0000
0000
0003
0000
0320
0000
1000
0000
,
0000
0000
1000
2000
0000
0030
3100
0012
,
0000
0100
0103
0010
1000
0100
2000
0100
,
0000
0000
0000
0000
3001
0000
0110
0001
,
1001
0000
0000
1000
0010
0000
0100
0000
0001
0000
0001
0000
0010
0000
0100
0000
,
1001
0000
0000
1000
0100
0000
0010
0000
0001
0000
0100
0000
1000
0000
0010
0000
,
0011
0000
0000
1000
0010
0000
0100
0000
0001
0000
0010
0000
0100
0000
0010
0000
,
1010
0000
0000
1000
0100
0000
0010
0000
0001
0000
1000
0000
0010
0000
0100
0000
,
0101
0000
0000
0001
0010
0000
0100
0000
1000
0000
1000
0000
0010
0000
0100
0000
,
1001
0000
0000
0001
0100
0000
0010
0000
1000
0000
0100
0000
0001
0000
0010
0000
,
1010
0000
0000
0001
0010
0000
0100
0000
1000
0000
0010
0000
0100
0000
0010
0000
,
0011
0000
0000
0001
0100
0000
0010
0000
1000
0000
0001
0000
0110
0000
0000
0000
;
