#TITLE:OK;
#ARTIST:Big Brovaz;
#BANNER:OK.png;
#BACKGROUND:OK-bg.png;
#CDTITLE:./CDTitles/DANCING STAGE FUSION.png;
#MUSIC:OK.ogg;
#SAMPLESTART:41.167;
#SAMPLELENGTH:15;
#DISPLAYBPM:97;
#BPMS:0=96.92;

//---------------dance-single - ----------------
#NOTES:
     dance-single:
     :
     Beginner:
     1:
     :
0000
0000
0000
0000
,
0000
0000
0000
0000
,
0001
0001
0000
0100
,
0000
1000
0000
0100
,
0000
1000
0000
0100
,
0000
1000
1000
0000
,
0001
0001
0000
0100
,
0000
1000
0000
0100
,
0000
0001
0000
0001
,
0001
0001
0000
0100
,
0000
0001
0000
1000
,
0000
1000
0000
0001
,
0000
0100
0100
0100
,
0000
0100
0000
0000
,
1000
0000
0001
0000
,
0010
0000
0100
0000
,
0010
0000
0000
1001
,
0000
0001
0000
1000
,
1000
1000
0000
1001
,
0000
0010
0010
0000
,
0100
0000
0000
0110
,
0000
1000
0000
0001
,
0001
0001
0000
1001
,
0000
0010
0000
0100
,
0000
0010
0000
0110
,
0110
0000
0000
0000
,
1000
1000
0000
0100
,
0000
0001
0000
0100
,
0000
1000
0000
1000
,
1000
1000
0000
0001
,
0001
0001
0000
0100
,
0000
1000
0000
0100
,
0000
1000
0000
0100
,
0000
1000
1000
0000
,
0001
0001
0000
0100
,
0000
1000
0000
0100
,
0000
0001
0000
0001
,
0001
0001
0000
0100
;

//---------------dance-single - ----------------
#NOTES:
     dance-single:
     :
     Easy:
     3:
     :
0000
0000
0000
0000
,
0000
0000
0000
0000
,
0000
0000
0000
0000
,
0001
0001
0001
0001
,
1000
1000
1000
1000
,
1001
0000
0000
0100
,
0100
0000
0000
0010
,
0010
0000
0000
1000
,
1000
1000
0001
0001
,
1001
0000
0000
0100
,
0100
0000
0000
0010
,
0010
0000
0000
1000
,
1000
1000
0001
0001
,
0002
0000
0100
0103
,
2000
0000
0100
3100
,
0010
0001
0010
1000
,
0100
0100
0100
0000
,
1001
0001
0001
0001
,
0001
0001
0002
0103
,
0000
1000
1000
1000
,
0010
0010
0020
0130
,
1001
1000
1000
1000
,
1000
1000
2000
3100
,
0000
0001
0001
0001
,
0010
0010
0020
0130
,
1001
1000
0000
0000
,
0110
0010
0000
0000
,
1001
1000
0000
0000
,
0110
0100
0100
1001
,
0110
0000
0100
0000
,
1000
0000
0001
0000
,
0001
0000
1000
0000
,
0010
0100
1000
0001
,
0110
0100
1000
1000
,
0001
0001
0010
0010
,
0100
0000
1000
0000
,
0001
0000
0010
0000
,
0100
0000
0000
0000
;

//---------------dance-single - ----------------
#NOTES:
     dance-single:
     :
     Medium:
     5:
     :
0000
0000
0000
0000
,
0000
0000
0000
0000
,
0000
0000
0000
0000
,
0001
0001
1000
1000
,
0010
0000
0100
0000
0001
0000
1000
0100
,
0010
0000
0010
0000
0001
1000
0001
1000
,
0100
1000
0001
0000
0001
0010
0001
0010
,
0001
0000
1000
0000
1000
0010
0100
0010
,
0100
0010
1000
0000
0010
0100
0001
0000
,
0010
0010
0100
0100
,
1000
0001
0100
0000
0100
0010
1000
0000
,
0001
1000
0010
0010
,
0100
0001
0010
0000
0010
0100
1000
0000
,
0010
0010
0100
0001
,
0010
0010
0100
1000
,
0010
0100
0010
0000
0010
0100
0010
0000
,
1000
0001
1000
0001
1000
0010
0200
0000
,
0000
0000
0310
0000
0010
0100
0010
0000
,
0010
0100
0002
0000
1000
0000
1003
0000
,
0010
0000
0010
0100
0010
0000
0010
0000
,
0010
0100
2000
0000
3001
0000
0110
0000
,
0002
0000
0013
0000
0010
0100
0010
0000
,
0010
0100
2000
0000
3001
0000
1100
0000
,
0010
0000
0010
0100
0010
0000
0010
0000
,
0010
0100
0001
0000
0002
0000
2000
0000
,
0000
0000
0000
3003
,
0100
0100
0000
0000
0100
0000
0100
0000
,
1000
1000
0000
0000
1000
0000
1000
0000
,
0001
0001
0000
0000
0000
0000
1001
0000
,
0100
0100
0100
0000
0010
0000
0100
0000
,
1000
1000
1000
0000
0001
0000
0010
0000
,
0001
0001
0001
0000
1000
0000
0010
0000
,
0100
0001
0100
0001
0100
1000
0100
0000
,
1001
0000
0001
0000
0010
0100
0010
0000
,
1001
0000
0010
0000
0100
0010
0100
0000
,
1000
0000
0001
0000
0010
0100
0010
0000
,
1000
0001
0100
0000
0001
0000
1000
0000
,
0100
0000
0000
0000
;

//---------------dance-single - ----------------
#NOTES:
     dance-single:
     :
     Hard:
     7:
     :
0000
0000
0000
0000
,
0000
0000
0000
0000
,
0000
0000
0000
0000
,
0010
0001
0010
1000
0010
0001
0010
1000
,
0100
0001
0100
1000
0100
0001
0100
1000
,
1001
0000
0100
0000
0010
0001
0010
0100
,
1000
1000
1000
0001
0010
0100
1000
0100
,
1000
0010
0001
0000
0001
1000
0001
0010
,
0010
0100
1000
0010
0100
0100
0100
0000
,
1001
0000
0010
0000
0100
1000
0100
0010
,
0001
0001
0001
1000
0100
0010
0001
0010
,
0001
0100
1000
0000
1000
0001
1000
0100
,
0100
0010
0001
0100
0010
0010
0010
0000
,
0000
0000
1001
0001
0100
0100
0100
0000
,
0010
0001
0100
0100
0010
1000
0100
0000
,
0010
0001
0001
0010
0010
1000
1000
0000
,
0010
0001
0010
1000
0100
0001
0010
0100
,
1100
0000
0000
0000
0010
0001
0010
0000
0010
0000
0010
0000
0100
0000
0100
0000
,
0100
0001
0100
0000
0010
0000
0001
0000
1000
0000
0010
0000
0110
0000
0000
0000
,
1000
0001
1000
1000
1000
0001
0001
0001
,
0010
0010
0100
1000
0010
0100
1001
1000
,
0001
0000
0000
0000
0010
0100
0010
0000
0100
0000
0100
0000
1000
0000
1000
0000
,
1000
0010
1000
0000
0100
0000
0010
0000
0001
0000
1000
0000
1100
0000
0000
0000
,
0011
0100
1000
0010
0001
1000
1000
0001
,
0001
0100
0010
1000
0100
0010
1001
0100
,
2001
0002
0000
0000
0000
3003
1010
0100
,
0100
0110
0001
0101
0001
0010
0100
1100
,
0010
0100
0001
0011
0001
0100
0010
1100
,
0010
0101
0200
0000
0000
0300
0010
1100
,
1000
0101
0001
0011
0010
0100
1000
1100
,
0100
0110
0001
1001
1000
0100
0010
1100
,
0100
0101
0001
1100
1000
0010
0010
1100
,
0100
0011
0001
1010
0100
1100
1000
1010
,
0010
1001
0001
0010
0100
0100
1000
0010
,
0010
0100
0100
0100
0001
0001
0010
0100
,
0100
0100
1000
0001
1000
1000
0010
0010
,
0100
0001
0001
1000
0010
0010
0001
0010
,
1000
0100
0000
0000
0000
0000
0000
0000
;
