#TITLE:I BELIEVE IN A THING CALLED LOVE;
#ARTIST:The Darkness;
#BANNER:I BELIEVE IN A THING CALLED LOVE.png;
#BACKGROUND:I BELIEVE IN A THING CALLED LOVE-bg.png;
#CDTITLE:./CDTitles/DANCING STAGE FUSION.png;
#MUSIC:I BELIEVE IN A THING CALLED LOVE.ogg;
#SAMPLESTART:39.338;
#SAMPLELENGTH:15;
#DISPLAYBPM:68:128;
#BPMS:0=128.12,196=65.6,202=52.7;

//---------------dance-single - ----------------
#NOTES:
     dance-single:
     :
     Beginner:
     1:
     :
0000
0000
0000
0000
,
0000
0000
0000
0000
,
0000
0000
0000
0000
,
0010
0000
0001
0000
,
0100
0100
0000
0000
,
0010
0000
0000
0000
,
1000
0000
0000
0000
,
0001
0000
0000
0000
,
0010
0000
0100
0100
,
0100
0000
0000
0000
,
0001
0000
0000
0000
,
1000
0000
0001
0000
,
0100
0000
1000
1000
,
1000
0000
1000
0000
,
0001
0000
0010
0000
,
0100
0000
0100
0000
,
0001
0000
1000
0000
,
0010
0000
0010
0000
,
0001
0000
0100
0000
,
1000
1000
1000
1000
,
1000
1000
1000
0000
,
1001
0000
0010
0010
,
0010
0000
0100
0100
,
0100
0000
1000
1000
,
0000
0010
0010
0010
,
0000
1001
1001
1001
,
1001
0000
0000
0000
,
0100
0000
0000
0000
,
0010
0000
0000
0000
,
1001
0000
0000
0100
,
0100
0000
0000
0000
,
1001
0000
0100
0000
,
0010
0000
0000
0000
,
0010
0000
0000
0000
,
0001
0000
0000
0000
,
1000
0000
0000
0000
,
0010
0000
0100
0100
,
0100
0000
0000
0000
,
1000
0000
0000
0000
,
0001
0000
1000
0000
,
0100
0000
0001
0001
,
0001
0000
1000
0000
,
0001
0000
0010
0000
,
0100
0000
0100
0000
,
1000
0000
0001
0000
,
0010
0000
0010
0000
,
1000
0000
0100
0000
,
0001
0001
0001
0001
,
0001
0001
0001
0000
,
1001
0000
0000
0000
,
0000
0000
0000
0000
,
0000
0110
0000
0000
;

//---------------dance-single - ----------------
#NOTES:
     dance-single:
     :
     Easy:
     4:
     :
0000
0000
0000
0000
,
0000
0000
0000
0000
,
0000
0000
0000
0000
,
0010
0010
0010
0010
,
0100
0100
1000
0001
,
1001
0000
0000
0001
,
0010
0000
0100
0100
,
1000
1000
0001
0001
,
0100
0100
0001
1000
,
1001
0000
0000
1000
,
0010
0000
0100
0100
,
0001
0001
1000
1000
,
0100
0100
1000
0001
,
0220
0330
0001
0001
,
1000
1000
1000
1000
,
0220
0330
1000
1000
,
0001
0001
0001
0001
,
0220
0330
0001
0001
,
1000
1000
0100
0100
,
0010
0010
0010
0010
,
0100
1000
0001
0110
,
1001
1000
1000
1000
,
0000
0010
0100
0100
,
0000
0001
0001
0001
,
0000
0010
0100
0100
,
0000
1000
0001
0001
,
0002
0000
0000
0003
,
0220
0000
0330
2000
,
0002
0000
0000
3003
,
1001
0001
0000
0010
,
0100
0010
0000
0001
,
1000
1000
0001
0001
,
0010
0100
1000
0001
,
1001
0000
0000
1000
,
0100
0000
0010
0010
,
0001
0001
1000
1000
,
0010
0010
1000
0001
,
1001
0000
0000
0001
,
0100
0000
0010
0010
,
1000
1000
0001
0001
,
0010
0010
0001
1000
,
0220
0330
0001
0001
,
1000
1000
1000
1000
,
0220
0330
1000
1000
,
0001
0001
0001
0001
,
0220
0330
0001
0001
,
1000
1000
0100
0100
,
0010
0010
0010
0010
,
0100
1000
0001
0110
,
2002
0000
0000
0000
,
0000
0000
0000
0000
,
3003
0220
0330
0000
;

//---------------dance-single - ----------------
#NOTES:
     dance-single:
     :
     Medium:
     6:
     :
0000
0000
0000
0000
,
0000
0000
0000
0000
,
0000
0000
0000
0000
,
0001
1000
0001
0000
1000
0001
1000
0000
,
0010
0000
0100
0000
0001
1000
0100
0000
,
0011
0000
0001
0000
0001
1000
0010
0000
,
0101
0000
0001
0000
1000
0010
0100
0000
,
1020
0130
2100
3010
,
0100
0000
0100
0000
0001
1000
0010
0000
,
0011
0000
0001
0000
0001
1000
0010
0000
,
0101
0000
0001
0000
1000
0010
0100
0000
,
1020
0130
2100
3010
,
0100
0000
0100
0000
0001
1000
0010
0000
,
2100
0000
0000
0020
0000
0000
0000
0000
,
0000
0000
3030
0011
,
1200
0000
0000
0010
0000
0000
0000
0000
,
0000
0000
0310
1100
,
0020
0000
0000
0002
0000
0000
0030
0000
,
2003
0000
0000
0200
0000
0000
3300
0000
,
0010
0001
0100
0000
1100
0000
0101
0000
,
0010
0100
1000
0001
0100
0000
1010
0000
,
0001
1000
0100
0000
1000
0001
0100
0000
,
1000
1010
0001
0011
,
1000
0001
0010
0000
0001
1000
0010
0000
,
0001
0101
1000
1100
,
0000
0011
1010
0021
,
0200
0000
0330
1001
,
0110
0000
0001
0000
1000
0010
0100
0000
,
0102
0000
1003
0011
,
1200
0000
0301
0000
1000
0010
0100
0001
,
0020
0000
0130
0000
0100
1000
0010
0000
,
2010
0000
0000
3001
0020
0000
0000
0130
,
1000
0000
0010
0000
0100
0001
1000
0000
,
0110
0000
1000
0000
1000
0001
0100
0010
,
1000
0000
1000
0000
0001
0100
0010
1000
,
0200
0000
0000
1300
0002
0000
0000
0103
,
0010
0000
0010
0000
1000
0001
0100
0000
,
0110
0000
1000
0000
1000
0001
0100
0010
,
1000
0000
1000
0000
0001
0100
0010
1000
,
0200
0000
0000
1300
0002
0000
0000
0103
,
0010
0000
0010
0000
1000
0001
0100
0000
,
2100
0000
0000
0020
0000
0000
0000
0000
,
0000
0000
3030
0011
,
1200
0000
0000
0020
0000
0000
0000
0000
,
0000
0000
0330
1100
,
0021
0000
0000
0200
0000
0000
0330
0000
,
2100
0000
0000
0002
0000
0000
3003
0000
,
0010
0001
1000
0000
0101
0000
1100
0000
,
0010
1000
0001
0000
0011
0000
1010
0000
,
2002
0000
0000
0000
,
0000
0000
0000
0000
0000
0000
0000
3003
,
0110
2002
3003
0000
;

//---------------dance-single - ----------------
#NOTES:
     dance-single:
     :
     Hard:
     8:
     :
0000
0000
0000
0000
,
0000
0000
0000
0000
,
0000
0000
0000
0000
0000
0000
0100
0001
,
0020
0000
0130
1000
0020
0000
0130
0001
,
0010
0100
1000
0010
0100
0001
1000
0000
,
0110
1000
0001
0000
0100
0010
1000
0000
,
0001
0010
0100
1000
0010
0100
0001
0010
,
1200
0000
0300
0010
0002
0000
0103
0010
,
1000
0100
1000
0010
0100
0001
1000
0010
,
0110
1000
0001
0000
0100
0010
1000
0000
,
0001
0010
0100
1000
0010
0100
0001
0010
,
1200
0000
0300
0010
0002
0000
0103
0000
,
1000
0100
1000
0010
0100
0001
1000
0010
,
0110
0000
0001
0020
0000
0100
0100
0130
,
1000
0010
0100
0001
0010
0100
1000
0010
,
0101
0000
0010
0200
0000
1000
1000
1300
,
0010
0100
0001
0010
0100
1000
0100
0010
,
0110
0000
1000
0020
0000
0100
0100
0130
,
0101
0000
0010
1100
0000
0010
0001
0010
,
1100
0100
0010
0001
0001
0001
1000
1000
,
0010
0000
0100
0000
0001
0000
0010
0000
0100
1000
0100
0000
1001
0000
0000
0000
,
0110
0011
1010
1001
,
0110
0000
0001
0010
0001
0000
1000
0010
1000
0000
0001
0010
0001
0000
0000
0000
,
0110
1010
0011
1001
,
0110
0000
1000
0010
1000
0000
0001
0010
0001
0000
1000
0010
1000
0000
0000
0000
,
0110
0000
1000
1000
0001
0001
0001
0002
,
0020
0000
0003
0130
,
1001
0000
0010
0100
1000
0001
0010
0200
,
0000
0000
1000
0000
1300
0110
1001
0000
,
0210
1300
0210
0301
,
0010
0100
0010
0000
1000
0001
1000
0010
,
0200
0000
0301
0010
0200
0000
1300
0001
,
0010
0100
0010
0001
1000
0010
0100
0001
,
0110
0001
1000
0000
0010
0100
0001
0000
,
1000
0100
0010
0001
0100
0010
1000
0100
,
0021
0000
0030
0100
2000
0000
3010
0100
,
0001
0010
0001
0100
0010
1000
0001
0100
,
0110
0001
1000
0000
0010
0100
0001
0000
,
1000
0100
0010
0001
0100
0010
1000
0100
,
0021
0000
0030
0100
2000
0000
3010
0000
,
0001
0010
0001
0100
0010
1000
0001
0100
,
0110
0000
1000
0200
0000
0010
0010
0310
,
0001
0100
0010
1000
0100
0010
0001
0100
,
1010
0000
0100
0020
0000
0001
0001
0031
,
0100
0010
1000
0100
0010
0001
0010
0100
,
0110
0000
0001
0200
0000
0010
0010
0310
,
1010
0000
0100
0011
0000
0100
1000
0100
,
0011
0010
0100
1000
1000
1000
0001
0001
,
0100
0000
0010
0000
1000
0000
0100
0000
0010
0001
0010
0000
1001
0000
0010
0000
,
0202
0000
0000
0000
,
0003
0001
0001
0001
0002
0000
0000
0303
,
1010
0220
0330
0000
;
