#TITLE:Gotta Get Thru This;
#ARTIST:Daniel Beddingfield;
#BANNER:Gotta Get Thru This.png;
#BACKGROUND:Gotta Get Thru This-bg.png;
#CDTITLE:./CDTitles/DANCING STAGE FUSION.png;
#MUSIC:Gotta Get Thru This.ogg;
#SAMPLESTART:52.076;
#SAMPLELENGTH:15;
#DISPLAYBPM:134;
#BPMS:0=133.62;

//---------------dance-single - ----------------
#NOTES:
     dance-single:
     :
     Beginner:
     1:
     :
0000
0000
0000
0000
,
0000
0000
0000
0000
,
0000
0000
0000
0000
,
0000
0000
0000
0000
,
0000
0000
0000
0000
,
0100
0000
0010
0000
,
0001
0000
0000
0000
,
0100
0000
0010
0000
,
1000
0000
0000
0000
,
0100
0000
0010
0000
,
1000
0000
0000
0000
,
0100
0000
0010
0000
,
0001
0001
0001
0001
,
0000
1001
0000
0100
,
0000
0100
0000
0000
,
1000
0000
0001
0000
,
0010
0000
0100
0000
,
0000
1001
0000
0100
,
0000
0100
0000
0000
,
0001
0000
1000
0000
,
0010
0000
0100
0000
,
0100
0000
0010
0000
,
0001
0000
0000
0000
,
0100
0000
0010
0000
,
1000
0000
0000
0000
,
0100
0000
0010
0000
,
1000
0000
0000
0000
,
0100
0000
0010
0000
,
0001
0001
0001
0000
,
0001
0001
0001
0000
,
1000
1000
1000
0000
,
0010
0010
0010
0000
,
0000
0001
0000
1000
,
1000
1000
1000
0000
,
0001
0001
0001
0000
,
0010
0010
0010
0000
,
0001
0000
0100
0000
,
0100
0000
0010
0000
,
0001
0001
0001
0000
,
0100
0000
0010
0000
,
1000
1000
1000
0000
,
0100
0000
0010
0000
,
1000
1000
1000
0000
,
0100
0000
0010
0000
,
0001
0001
0001
0000
,
0100
0000
0010
0000
,
1000
0000
0000
0000
,
0100
0000
0010
0000
,
0001
0000
0000
0000
;

//---------------dance-single - ----------------
#NOTES:
     dance-single:
     :
     Easy:
     4:
     :
0000
0000
0000
0000
,
0000
0000
0000
0000
,
0000
0000
0000
0000
,
0010
0000
0100
0000
,
0110
0000
0000
0000
,
1000
0000
1000
0100
,
0001
0000
0001
1000
,
0001
0000
0001
0100
,
1000
0000
1000
0001
,
1001
0000
0000
0000
,
0110
0000
0000
0000
,
1001
0000
0000
0000
,
0100
0100
0100
0110
,
1000
0000
1001
0000
,
0001
0000
1001
0000
,
0010
0000
0010
0000
,
0010
0100
0010
0110
,
0001
0000
1001
0000
,
1000
0001
1001
0000
,
0010
0000
0010
0000
,
0010
0100
0010
0100
,
0010
0000
0001
0100
,
1000
1000
0001
1000
,
0001
0100
0001
1000
,
0100
0001
0100
1000
,
0010
0000
1000
0100
,
0001
0001
1000
0001
,
1000
0100
1000
0001
,
0220
0000
0000
0330
,
1000
0100
0000
1001
,
0001
0100
0000
1001
,
0010
0100
0010
0001
,
1001
0010
0100
1000
,
0001
0010
0001
1001
,
1000
0010
1000
1001
,
0010
1000
0100
0010
,
0001
1000
0001
1000
,
0002
0000
0000
0000
,
0000
0003
0000
1001
,
1000
0000
0001
0100
,
0001
0000
0001
1000
,
0001
0000
0100
0000
,
1001
0000
1001
0000
,
1000
0000
0110
0000
,
0001
0000
0110
0000
,
1000
0000
0100
0000
,
0001
0000
0100
0000
,
1000
1000
0001
0001
,
1001
0000
0000
0000
;

//---------------dance-single - ----------------
#NOTES:
     dance-single:
     :
     Medium:
     5:
     :
0000
0000
0000
0000
,
0000
0000
0000
0000
,
0000
0000
0000
0000
0000
0000
0000
0000
0000
0000
0010
0000
0000
1000
0000
0000
,
1001
0000
0000
1000
0100
0000
0000
1001
,
0000
0000
1000
0100
,
0001
0010
0001
0000
1000
0000
0001
0100
,
0000
0100
0010
0000
1000
0100
0001
0000
,
1000
0100
0001
0100
1000
0000
1000
0100
,
0000
0100
0010
0000
0001
0100
1000
0000
,
0011
0000
0000
0000
1100
0000
0000
0101
,
0000
0000
0000
0000
0000
0000
0000
0000
0000
0000
0100
0000
0000
0001
0000
0000
,
1000
0000
0000
0001
0100
0000
0010
0000
,
0011
1100
1010
0101
,
1000
0100
1000
0000
0001
0000
0100
0000
,
0001
0100
0001
0000
1000
0000
0100
0000
,
0101
0000
1100
0000
,
0001
0100
1000
0010
,
0001
0100
0001
0000
1000
0000
0100
0000
,
1000
0100
1000
0000
0001
0000
0100
0000
,
1100
0000
0101
0000
,
1000
0100
0001
0010
,
1000
0000
1000
1100
,
0001
0000
0001
0101
,
0010
1000
0100
0000
0001
0100
0001
0000
,
0001
1100
0001
1100
,
0001
0000
0001
0101
,
1000
0001
1000
1100
,
0010
0001
0100
0000
1000
0000
0200
0020
,
0000
0000
0000
0330
,
0010
0100
0010
0000
0001
0100
0000
0001
,
0000
1000
1000
0000
0001
0001
1000
0000
,
0010
0100
1000
0000
0001
1000
0001
0000
,
0001
0011
0110
1100
,
0010
0100
0010
0000
1000
0100
0000
1000
,
0000
0001
0001
0000
1000
1000
0001
0000
,
0010
0100
0001
0000
1000
0000
0001
0000
,
0200
0010
0010
0320
,
1030
0100
1000
0000
0001
0000
0100
0001
,
0000
1000
0000
0100
0000
0010
0001
0000
,
0001
0100
0001
0000
1000
0000
0100
1000
,
0000
0001
0000
0100
0000
0010
1000
0100
,
0000
0001
1000
0001
0000
0010
0000
0100
,
0000
0010
1000
0000
0100
0001
1000
0000
,
0001
0100
0001
0000
1000
0010
1000
0100
,
0000
0010
0000
0001
1000
0001
0100
0000
,
0101
0000
0000
0000
1100
0000
0000
0110
,
0000
0000
0000
0000
0000
0000
0000
0000
0000
0000
0010
0000
0000
1000
0000
0000
,
0100
0000
0000
0100
0001
0000
0000
1001
;

//---------------dance-single - ----------------
#NOTES:
     dance-single:
     :
     Hard:
     7:
     :
0000
0000
0000
0000
,
0000
0000
0000
0000
,
0000
0000
0000
0000
0000
0000
0000
0000
0000
0000
1000
0000
0000
0100
0000
0000
,
1001
0000
0000
0010
0001
0000
0000
0110
,
0000
0000
0000
0000
0000
0000
0000
0000
0010
0000
1000
0000
0001
1000
0000
0000
,
1000
0100
1000
1000
0001
0010
0100
1001
,
0000
0001
0100
0010
0000
1000
0100
0010
,
0001
0100
0001
0001
1000
0010
0100
1001
,
0000
1000
0100
0010
0000
0001
0100
0010
,
1000
0001
1000
0010
0100
0001
1000
0200
,
0000
0000
0000
0000
0000
0000
0300
0000
0000
0000
1001
0000
0000
0100
0000
0000
,
0001
1000
0001
0010
0100
1000
0001
1000
,
0001
0010
0100
0010
0100
1000
0001
1000
0001
0100
0000
0000
,
1100
1000
0100
1000
0100
0010
0001
0011
,
0000
0000
0001
0000
0100
0000
0001
0000
1000
0000
0001
0000
1000
0001
0000
0000
,
1010
1000
0010
0100
0101
0001
1000
0001
,
0000
0000
0100
0000
0000
0000
1000
0000
0000
0000
0110
0000
0000
0011
0000
0000
,
0101
0001
0100
0001
0100
0010
1000
1010
,
0000
0000
1000
0000
0100
0000
1000
0000
0001
0000
1000
0000
0001
1000
0000
0000
,
0011
0001
0010
0100
1100
1000
0001
1000
,
0000
0100
0000
0010
0100
1000
0100
0010
,
1001
0000
0100
0000
0001
0000
1000
0000
0001
0000
0000
0010
0000
0000
0100
0000
,
0000
1000
0001
0010
0100
1000
0100
0010
,
1001
0000
0100
0000
0001
0000
1000
0000
0001
0000
0000
0010
0000
0000
0100
0000
,
0000
1000
0001
1000
0100
0001
0100
0010
,
1001
0000
0100
0000
1000
0000
0001
0000
1000
0000
0000
0010
0000
0000
0100
0000
,
0000
0001
1000
0010
0100
0001
0100
0010
,
1001
0000
0100
0000
1000
0000
0001
0000
1000
0000
0000
0010
0000
0000
0220
0000
,
0000
0000
0000
0330
,
1010
0010
0100
0001
0010
0100
1000
0010
,
0100
0001
1000
0100
0010
0001
2000
0000
,
3010
0100
1000
0100
0010
0100
0010
0001
,
0001
0010
0100
0010
0100
1000
0100
0000
,
0011
0010
0100
1000
0010
0100
0001
0010
,
0100
1000
0001
0100
0010
1000
0100
0010
,
0001
0100
0001
0100
0010
0100
0010
1000
,
0002
0100
0100
0203
,
0301
0100
0001
0100
0110
0000
0100
1001
,
0000
1000
0100
0001
0100
0001
1000
0000
,
1100
0100
1000
0100
0110
0000
0100
1001
,
0000
0001
0100
1000
0100
1000
0001
0000
,
0101
0100
0001
0100
0110
0000
0100
1001
,
0000
0000
0100
0000
0101
0000
0000
0000
1000
0000
0010
0100
0010
0000
0100
0000
,
0001
0010
0100
0000
1000
0010
0100
0101
,
0000
0010
1010
1000
1000
0001
0100
0000
,
1000
0100
1100
0100
0001
0100
0010
1001
,
0000
0000
0000
0000
0000
0000
0000
0000
0000
0000
0001
0000
0000
0010
0000
0000
,
0001
0100
0101
0001
1000
0100
0010
0220
,
0000
0330
0000
0000
;
