#TITLE:Come Into My World;
#ARTIST:Kylie Minogue;
#BANNER:Come Into My World.png;
#BACKGROUND:Come Into My World-bg.png;
#CDTITLE:./CDTitles/DANCING STAGE FUSION.png;
#MUSIC:Come Into My World.ogg;
#SAMPLESTART:71.04;
#SAMPLELENGTH:15;
#DISPLAYBPM:125;
#BPMS:0=125;
#BGCHANGES:8=Come Into My World.avi=1=0=0=0,207.75=Come Into My World-bg.png=1=1=0=1;

//---------------dance-single - ----------------
#NOTES:
     dance-single:
     :
     Beginner:
     1:
     :
0000
0000
0000
0000
,
0000
0000
0000
0000
,
0000
0000
0000
0000
,
0010
0000
0010
0000
,
0100
0000
0000
0000
,
1000
0000
0000
0000
,
1000
0000
0100
0000
,
0001
0000
0001
0000
,
1000
0000
0001
0000
,
0010
0000
0000
0000
,
0010
0000
0010
0000
,
1000
0000
0000
0000
,
1001
0000
0000
0000
,
0001
0000
0001
0000
,
1000
0000
0100
0000
,
0010
0000
0010
0010
,
0010
0000
0000
0000
,
1000
0000
0100
0000
,
0100
0100
0000
0000
,
0010
0000
0000
0000
,
0100
0000
0000
0000
,
1000
0000
1000
0000
,
0001
0000
0100
0000
,
0010
0000
0010
0010
,
0010
0000
0000
0000
,
0001
0000
0100
0000
,
0100
0100
0000
0000
,
0010
0000
0000
0000
,
0100
0000
0000
0000
,
0010
0000
0100
0000
,
0010
0000
0100
0000
,
0001
0000
1000
0000
,
1000
0000
0001
0000
,
0010
0000
0100
0000
,
0010
0000
0100
0000
,
1001
0000
0110
0000
,
1001
0000
1001
0000
,
1000
0000
0000
0000
,
1000
0000
0100
0000
,
0001
0000
0001
0000
,
1000
0000
0001
0000
,
0010
0000
0000
0000
,
0010
0000
0010
0000
,
1000
0000
0000
0000
,
1000
0000
0001
0001
,
0001
0000
0000
0000
,
0001
0000
0100
0000
,
1000
0000
1000
0000
,
0001
0000
1000
0000
,
0010
0000
0010
0000
,
0100
0000
0100
0000
,
0001
0000
0001
0000
,
0100
0000
0000
0000
;

//---------------dance-single - ----------------
#NOTES:
     dance-single:
     :
     Easy:
     3:
     :
0000
0000
0000
0000
,
0000
0000
0000
0000
,
0000
0000
0000
0000
,
0010
0000
0010
0000
,
0100
0000
0000
0000
,
1000
0000
0000
0000
,
1000
0000
0100
0000
,
0001
0001
0100
0000
,
1000
0000
0001
0000
,
0010
0000
0000
0000
,
0010
0000
0010
0000
,
1000
1000
0001
0000
,
1001
0000
0000
0000
,
0001
0000
0001
0100
,
1000
0000
0100
0000
,
0010
0000
0010
0010
,
0001
0000
0000
0000
,
1000
0001
0100
0000
,
0100
0100
0010
0000
,
0010
0000
0000
0000
,
0100
0000
0000
0000
,
1000
0000
1000
0100
,
0001
0000
0100
0000
,
0010
0010
0100
0100
,
0002
0003
0001
1000
,
0001
0000
0001
0000
,
0100
0000
0100
0000
,
0020
0000
0030
0000
,
0100
0100
0100
0000
,
0010
0001
0100
0000
,
0010
1000
0100
0000
,
0001
0100
1000
0000
,
1000
0100
0001
0000
,
0010
0001
0100
1000
,
0010
1000
0100
0001
,
1001
0000
0110
0000
,
1001
0110
1001
0000
,
2000
3000
0001
0000
,
2000
3000
0100
0001
,
0001
0000
0100
0000
,
1000
1000
0001
0010
,
0020
0030
0000
0000
,
0020
0030
0010
0000
,
1000
1000
0001
0000
,
1000
0000
0100
0100
,
0002
0003
1000
0000
,
0002
0003
0100
1000
,
1000
0000
0100
0000
,
0001
0001
1000
0010
,
0020
0030
0000
0000
,
0020
0030
0010
0000
,
0001
0001
1000
0100
,
0001
0000
0000
0000
;

//---------------dance-single - ----------------
#NOTES:
     dance-single:
     :
     Medium:
     6:
     :
0000
0000
0000
0000
,
0000
0000
0000
0000
,
0000
0000
0000
0000
,
0001
0100
0001
0000
1000
0000
0100
0000
,
1000
0100
1000
0000
0001
0000
0100
0000
,
2000
3001
0010
0001
,
0002
1003
0010
0001
,
1000
0010
0200
0000
0010
0000
0310
0000
,
0001
0000
1000
0000
0010
1000
0100
0000
,
0002
1003
0010
1000
,
2000
3001
0010
1000
,
0001
0010
0200
0000
0010
0000
0310
0000
,
0110
0000
1000
1000
,
0002
0003
0001
0100
,
1000
0100
0001
0010
,
2000
3000
0200
0300
,
0010
0000
1000
0100
,
0001
0000
0001
1000
0001
0000
0100
0000
,
1000
0100
0001
0000
0001
0100
1000
0000
,
0010
1100
0010
0101
,
0002
0103
0001
0001
,
2000
3000
1000
0100
,
0001
0100
1000
0010
,
0002
0003
0200
0300
,
0010
0000
0001
0100
,
0001
0000
0001
1000
0001
0000
0100
0000
,
1000
0100
0001
0000
0001
0100
1000
0000
,
0010
1100
0010
0101
,
2000
3100
1000
1000
,
0020
1000
0001
1030
,
0200
1000
0001
1300
,
0020
1000
0031
0100
,
0200
1000
0301
0010
,
1010
0000
0000
0101
0000
0000
0011
0000
,
0000
1100
0000
0000
0010
0000
0100
0000
,
0010
1000
0100
0000
0010
0001
0100
0000
,
0010
1000
0001
0000
0110
0000
1001
0000
,
2000
3001
0010
0001
,
0002
1003
0010
0001
,
1000
0010
0200
0000
0010
0000
0310
0000
,
0001
0000
1000
0000
0010
1000
0100
0000
,
0002
1003
0010
1000
,
2000
3001
0010
1000
,
0001
0010
0200
0000
0010
0000
0310
0000
,
2000
0010
0001
3100
,
0002
1003
0010
1000
,
2000
3001
0010
1000
,
0001
0010
0200
0000
0010
0000
0310
0000
,
1000
0000
0001
0000
0010
0001
0100
0000
,
2000
3001
0010
0001
,
0002
1003
0010
0001
,
1000
0010
0100
0000
0001
0000
0010
0000
,
0001
0010
0100
0000
0000
0000
0000
0000
;

//---------------dance-single - ----------------
#NOTES:
     dance-single:
     :
     Hard:
     7:
     :
0000
0000
0000
0000
,
0000
0000
0000
0000
,
0000
0000
0000
0000
,
0001
1000
0001
0010
0100
1000
0011
0000
,
1000
0001
1000
0010
0100
0001
1010
0000
,
2000
0000
3001
0000
0010
0100
0001
1000
,
0002
0000
1003
0000
0010
0100
0001
1000
,
0001
0100
0001
0000
1000
0100
1000
0000
,
0020
0000
0130
0000
0011
0001
1000
0000
,
2000
0000
3001
0000
0010
0100
0001
1000
,
0002
0000
1003
0000
0010
0100
0001
1000
,
0001
0100
0001
0000
1000
0100
1000
0000
,
0220
0330
2001
3100
,
0002
0000
0013
0001
1000
0010
0100
0001
,
0100
0000
0101
0000
1000
0010
1010
0000
,
0010
1000
0100
0010
0100
0000
0001
0000
,
2001
3010
1002
0103
,
0002
0000
0103
0001
1000
0100
0010
0001
,
1000
0100
0101
0000
0001
0100
1100
0000
,
0010
1000
0100
0000
0010
0001
0100
0000
,
0002
0103
2001
3100
,
2000
0000
3010
1000
0001
0010
0100
1000
,
0100
0000
1100
0000
0001
0010
0011
0000
,
0010
0001
0100
0010
0100
0000
1000
0000
,
1002
0013
2001
3100
,
2000
0000
3100
1000
0001
0100
0010
1000
,
0001
0100
1100
0000
1000
0100
0101
0000
,
0010
0001
0100
0000
0010
1000
0100
0000
,
2000
3100
1002
0103
,
1000
0100
0010
0001
0100
0000
0101
0000
,
0001
0100
0010
1000
0100
0000
1100
0000
,
0001
0010
0100
1000
0010
0000
1010
0000
,
1000
0010
0100
0001
0010
0000
0011
0000
,
1001
0000
0001
0010
1000
0000
0110
0000
,
1000
0100
0001
0000
0110
0000
1001
0000
,
0001
0100
1000
0000
0001
0100
1000
0000
,
0001
0010
0100
1000
0001
0000
0110
0000
,
2000
0000
3001
0000
0010
0100
0001
1000
,
0002
0000
1003
0000
0010
0100
0001
1000
,
0001
0100
0001
0000
1000
0100
1000
0000
,
0020
0000
0130
0000
0011
0001
1000
0000
,
2000
0000
3001
0000
0010
0100
0001
1000
,
0002
0000
1003
0000
0010
0100
0001
1000
,
0001
0100
0001
0000
1000
0100
1000
0000
,
2000
0010
0001
3100
,
0002
0000
1003
0000
0010
0100
1000
0001
,
2000
0000
3001
0000
0010
0100
1000
0001
,
1000
0100
1000
0000
0001
0100
0001
0000
,
0020
0000
0130
0000
1010
1000
0001
0000
,
0002
0000
1003
0000
0010
0100
1000
0001
,
2000
0000
3001
0000
0010
0100
1000
0001
,
1000
0100
1000
0000
0001
0100
0001
1000
,
0001
0000
0000
0000
;
