#TITLE:Rappers Delight;
#ARTIST:Sugarhill Gang;
#BANNER:Rappers Delight.png;
#BACKGROUND:Rappers Delight-bg.png;
#MUSIC:Rappers Delight.ogg;
#SAMPLESTART:28.033;
#SAMPLELENGTH:15;
#DISPLAYBPM:112;
#BPMS:0=111.17,20=111.18,36=111.3,52=110.45,68=110.7,84=111.4,100=111.9,116=110.45,132=111,148=111.3;

//---------------dance-single - ----------------
#NOTES:
     dance-single:
     :
     Beginner:
     1:
     :
0000
0000
0000
0000
,
0000
0000
0000
0000
,
1000
0000
1000
0000
,
0001
0000
0001
0000
,
0010
0000
0100
0000
,
1000
1000
1000
0000
,
0010
0000
0100
0000
,
0001
0001
0001
0000
,
0100
0000
0010
0000
,
0100
0100
0100
0000
,
0001
0000
0100
0000
,
0010
0010
0010
0000
,
1000
0000
0100
0000
,
1001
0000
0110
0000
,
0010
0000
0010
0000
,
0110
0110
0110
0000
,
1000
0000
0100
0000
,
1000
0000
0010
0000
,
0100
0100
0100
0100
,
0100
0000
1000
0000
,
0010
0000
0100
0000
,
0001
0001
0001
0000
,
0010
0000
0100
0000
,
1000
1000
1000
0000
,
0100
0000
0010
0000
,
0100
0100
0100
0000
,
1000
0000
0100
0000
,
0010
0010
0010
0000
,
0001
0000
0100
0000
,
0110
0000
1001
0000
,
0010
0000
0010
0000
,
1001
1001
1001
0000
,
0010
0000
1000
0000
,
0001
0000
0100
0000
,
0010
0010
0010
0010
,
0010
0000
1000
0000
,
0010
0000
0100
0000
,
1001
0000
0100
0000
,
0001
0001
0001
0000
,
0100
0000
0001
0000
,
1000
1000
1000
0000
;

//---------------dance-single - ----------------
#NOTES:
     dance-single:
     :
     Easy:
     3:
     :
0000
0000
0000
0000
,
0000
0000
0000
0000
,
0000
0000
0000
0000
,
0001
0001
0001
0000
,
0000
0001
1000
1001
,
0001
0001
0001
0000
,
0010
0000
0010
0100
,
1000
1000
1000
0000
,
0010
0000
0010
0100
,
1000
1000
1000
0000
,
0010
0000
0010
0100
,
0001
0001
0001
0000
,
0010
0000
0010
0100
,
0110
0000
0100
0000
,
1000
1000
0001
0001
,
0110
0100
0100
0000
,
0001
0001
1000
1000
,
0001
0000
0001
0000
,
0001
0001
0001
0001
,
1000
0000
1000
0000
,
1000
1000
1000
1000
,
0001
0001
0001
0000
,
0010
0000
0010
0100
,
1000
1000
1000
0000
,
0010
0000
0010
0100
,
1000
1000
1000
0000
,
0010
0000
0010
0100
,
0001
0001
0001
0000
,
0010
0000
0010
0100
,
0110
0000
0100
0000
,
1000
1000
0001
0001
,
0110
0100
0100
0000
,
0001
0001
1000
1000
,
0001
0000
0001
0000
,
0001
0001
0001
0001
,
1000
0000
1000
0000
,
1000
1000
1000
1000
,
1001
0000
0001
0000
,
0010
0000
0100
0000
,
1000
1000
1000
0000
,
0010
0000
0100
0000
;

//---------------dance-single - ----------------
#NOTES:
     dance-single:
     :
     Medium:
     5:
     :
0000
0000
0000
0000
,
0000
0000
0000
0000
,
0000
0000
0000
0000
,
0010
0010
0010
0000
,
0010
0010
0100
0000
1000
0000
1001
0000
,
0010
0010
0010
0000
,
0010
0010
0100
0000
0001
0001
0001
0000
,
0010
0010
0010
0000
,
0010
0010
0100
0000
1000
0000
0001
0000
,
0100
0100
0100
0000
,
0100
0100
0010
0000
1000
1000
1000
0000
,
0100
0100
0100
0000
,
0100
0100
0010
0000
0001
0000
1000
0000
,
1100
0001
0110
0010
,
0010
0100
0010
0000
1000
0001
1000
1000
,
0101
1000
0110
0010
,
0010
0100
0010
0000
0001
1000
0001
0001
,
0110
0000
0100
0100
1000
0000
1000
0000
,
0010
0001
0010
0000
0100
1000
0100
0000
,
0110
0000
0100
0100
0001
0000
0001
0000
,
0010
1000
0010
0000
0100
0001
0100
0000
,
0010
0010
0010
0000
,
0010
0010
0100
0000
0001
0001
0001
0000
,
0010
0010
0010
0000
,
0010
0010
0100
0000
1000
0000
0001
0000
,
0100
0100
0100
0000
,
0100
0100
0010
0000
1000
0000
0001
0000
,
0100
0100
0100
0000
,
0100
0100
0010
0000
1001
0000
0000
0000
,
0010
0010
0001
0000
1000
1000
0100
0000
,
0010
0001
0010
0000
0100
1000
0100
0000
,
1000
0000
0001
0000
0010
0100
0010
0000
,
1000
0001
0010
0100
1000
0010
0100
0000
,
1001
0000
0001
0000
0010
0100
1000
0000
,
1001
0000
1000
0000
0010
0100
0001
0000
,
0010
0100
1000
0000
0010
0100
0001
0000
,
1000
1000
0001
0001
0010
0100
1000
0001
,
1001
0001
0001
0000
,
1000
0000
1000
0000
0010
0010
0010
0000
,
1001
1000
1000
0000
,
0001
0000
0001
0000
;

//---------------dance-single - ----------------
#NOTES:
     dance-single:
     :
     Hard:
     7:
     :
0000
0000
0000
0000
,
0000
0000
0000
0000
,
0000
0000
0000
0000
,
0100
0100
0010
0000
1001
0000
0100
0000
,
0010
0001
0010
0000
0001
0000
0001
0000
0010
1000
0010
0000
1000
0000
1000
0000
,
0120
0031
1100
1000
,
0010
0100
0010
1000
0100
0100
0100
0000
,
0120
0031
1100
1000
,
0010
0100
0010
0001
0100
0100
0100
0000
,
1001
0001
0100
0000
1010
0100
0101
0000
,
0010
0100
1000
1000
0102
0000
1003
0000
,
0110
0100
1000
0000
0101
0000
0001
0001
,
0010
0000
0100
0000
1000
0000
1000
0000
0001
0000
0000
0000
0000
0001
1000
0000
,
0110
0000
1010
0000
0011
0001
0100
0100
,
0110
0000
0001
0000
0010
0000
0100
0000
1000
0000
1000
0000
1000
0001
0000
0000
,
0110
0000
1001
0000
0110
0100
1000
1000
,
0001
0010
0100
1000
0001
0010
1000
0010
,
0011
0000
1100
0000
0101
0001
0001
0000
,
1010
0000
1000
0000
1000
0000
1000
0000
0001
0000
0010
0000
0100
1000
0000
0000
,
0011
0000
0000
0000
0000
0000
0010
1000
0000
0000
1001
0000
0000
0000
0000
0000
,
0001
1000
0100
0100
0100
0001
0100
0000
,
0210
0010
1300
0000
0011
0001
0001
0000
,
0100
0010
0100
0000
0010
0000
1000
0000
0001
0000
0001
0000
0001
0000
0000
0000
,
0210
0010
1300
0000
0011
0001
0001
0000
,
0100
0010
0100
0000
0010
0000
1000
0000
0001
0000
0010
0000
0010
0000
0000
0000
,
1001
1000
0010
0000
0101
0010
1010
0000
,
0100
0010
0100
0000
0001
0000
0001
0000
0010
0001
0010
0000
0100
0000
1000
0000
,
0110
0010
0001
0000
1010
0000
1000
1000
,
0100
0010
0100
0000
0001
0000
0001
0000
1000
0100
1000
0000
0001
0000
0001
0000
,
0110
0000
0101
0000
1100
1000
0010
0010
,
0010
0100
0001
0000
0100
0000
0010
0000
1000
0001
1000
0000
0001
0000
0010
0000
,
0110
0000
1001
0000
0110
0010
0001
0001
,
1000
0100
0010
0000
0010
0000
0001
0000
1000
0100
0010
0000
0001
0000
0100
0000
,
1100
0000
0011
0000
1010
1000
1000
0000
,
0101
0001
0001
0001
1000
0100
0010
0001
,
1100
0100
0100
0100
0100
0010
0001
0000
,
1000
0001
0010
0010
0010
1000
0010
0000
,
1001
0001
0001
0001
0110
0100
1000
0000
,
1000
0001
0010
0100
0100
1000
0010
0000
,
0101
0100
0101
0000
0010
1000
0100
0000
,
0100
0100
0010
0001
;
