#TITLE:Mickey;
#ARTIST:Toni Basil;
#BANNER:Mickey.png;
#BACKGROUND:Mickey-bg.png;
#MUSIC:Mickey.ogg;
#SAMPLESTART:71.893;
#SAMPLELENGTH:15;
#DISPLAYBPM:151;
#BPMS:0=151.4,20=152,60=151,68=150,108=148.8,132=149.11,148=148.03,172=149.44,180=147.51,196=147.05,212=147.75;
#BGCHANGES:17=Mickey.avi=1=1=0=0=StretchNoLoop==CrossFade==,236=Mickey-bg.png=1=0=0=1,281.75=mickey-bg.png=1=0=0=1;

//---------------dance-single - ----------------
#NOTES:
     dance-single:
     :
     Beginner:
     1:
     :
0000
0000
0000
0000
,
0000
0000
0000
0000
,
0000
0000
0000
0000
,
0000
0000
0000
0000
,
0000
1000
0000
1000
,
0000
1000
0000
1000
,
0000
0001
0000
0001
,
0000
0001
0000
0001
,
0000
1000
0000
1000
,
0000
0001
0000
0001
,
0000
0010
0000
0010
,
0000
0010
0000
0010
,
0000
0100
0000
0100
,
0000
0100
0000
0100
,
0100
0000
0000
0000
,
0001
0001
0001
0001
,
0000
1000
0000
0010
,
0000
1000
0000
0010
,
0000
0001
0000
0001
,
0000
0010
0010
0010
,
0000
0001
0000
0010
,
0000
0001
0000
0010
,
0000
1000
0000
1000
,
0000
0010
0000
0010
,
0000
0001
0000
0001
,
0000
1000
1000
1000
,
0000
0000
0000
0110
,
0000
0000
0000
0000
,
1000
0000
0001
0000
,
1000
0000
1000
0000
,
0001
0000
1000
0000
,
0001
0001
0001
0000
,
1000
0000
0001
0000
,
1000
0000
1000
1000
,
0000
0000
0000
0000
,
0001
0001
0001
0001
,
0001
0000
1000
0000
,
0001
0000
0001
0000
,
1000
0000
0001
0000
,
1000
1000
1000
0000
,
0001
0000
1000
0000
,
0001
0000
0001
0001
,
0000
0000
0000
0000
,
1000
1000
1000
1000
,
1000
0000
1000
0000
,
0010
0010
0010
0000
,
0001
0001
0000
0001
,
0000
0100
0100
0000
,
1000
0000
1000
0000
,
0010
0010
0010
0000
,
1001
1001
1001
1001
,
1001
0000
0000
0000
,
0100
0000
0010
0010
,
0000
0000
0110
0000
,
1000
0000
1000
0000
,
0010
0010
0010
0000
;

//---------------dance-single - ----------------
#NOTES:
     dance-single:
     :
     Easy:
     4:
     :
0000
0000
0000
0000
,
0000
0000
0000
0000
,
0000
0000
0000
0000
,
0000
0000
0000
0000
,
0000
0000
0000
0000
,
0001
0001
0100
0001
,
1000
1000
1000
0000
,
0110
0000
0000
0000
,
1001
0000
0000
0000
,
1000
1000
0100
1000
,
0001
1000
0001
1000
,
0110
0000
0000
0000
,
1001
0000
0000
0000
,
0001
0001
0100
0001
,
1000
0001
1000
0001
,
0010
0000
0001
0000
,
1000
0000
0100
0000
,
0010
0000
0110
0000
,
0001
0100
1000
0010
,
0100
0100
0100
0000
,
0010
0010
0010
0000
,
0010
0000
0110
0000
,
1000
0100
0001
0010
,
0020
0030
1000
0000
,
0002
0003
0100
0000
,
0010
0010
1000
1000
,
0001
0001
0100
0000
,
1000
0100
0000
1000
,
0001
0010
0000
0100
,
0001
0001
0001
0000
,
2000
3100
0100
0000
,
0010
0010
2000
3100
,
0001
1000
0001
0000
,
1000
1000
0100
0000
,
0001
0010
0100
1000
,
0010
0000
1000
0000
,
0001
0000
0100
0000
,
1000
0001
1000
0000
,
0002
0103
0100
0000
,
0010
1000
0002
1003
,
0100
0010
0100
0000
,
0001
0001
0100
0000
,
1000
0010
0100
0001
,
0010
0000
0002
0003
,
1000
0000
0200
0300
,
0010
1001
0100
0100
,
0001
0100
1000
0010
,
0200
0000
0301
0010
,
1000
0001
1001
0000
,
0010
1001
0100
0100
,
1000
0100
0001
0010
,
0020
0030
1000
0000
,
0002
0003
0100
0000
,
0010
0010
1000
1000
,
0001
0001
0100
0000
,
0010
0000
0110
0000
,
0001
0100
1000
0010
,
0100
0100
0100
0000
,
0010
0010
0010
0000
;

//---------------dance-single - ----------------
#NOTES:
     dance-single:
     :
     Medium:
     6:
     :
0000
0000
0000
0000
,
0000
0000
0000
0000
,
0000
0000
0000
0000
,
0000
0000
0000
0000
,
0000
0000
0000
0000
,
0001
0100
0002
0013
,
1000
0000
0100
0000
0010
0001
0100
0000
,
0110
0000
0000
0010
,
1001
0000
0000
0000
,
1000
0100
2000
3010
,
0001
0000
0100
0000
0010
1000
0100
0000
,
0110
0100
0100
0010
,
1001
0000
0001
0000
0001
1000
0001
0000
,
0001
1000
0100
0000
0002
0000
0013
0000
,
1000
0010
0100
0000
0001
0000
0100
0000
,
0021
0030
2010
3000
,
1200
1300
0102
0103
,
1010
0100
0011
0100
,
0001
2000
3001
0010
,
0200
0000
0310
0001
,
1000
1000
0100
1001
,
0011
0100
1010
0100
,
1000
0002
1003
0010
,
0021
0030
2010
3000
,
1200
0300
0102
0003
,
1020
1030
0012
0013
,
0201
0301
2100
3100
,
1000
0000
1001
0000
0000
0001
0100
0000
,
0001
0000
0110
0000
0000
1000
0100
0000
,
1000
0010
0100
0000
0002
0000
0103
0000
,
1000
0000
1000
0010
0100
0000
0000
0000
,
0001
0010
0100
0000
2000
0000
3100
0000
,
0001
0000
0001
0010
0100
0000
0100
0000
,
1000
0010
0100
0000
0002
0000
0103
0000
,
1000
0000
1000
0010
0100
0000
1001
0000
,
0021
0031
2010
3010
,
1200
1300
0102
0103
,
0001
0010
0100
0000
2000
0000
3100
0000
,
0001
0000
0001
0010
0100
0000
0000
0000
,
1000
0010
0100
0000
0002
0000
0103
0000
,
1000
0000
1000
0010
0100
0000
0100
0000
,
1000
0010
0100
0000
0002
0000
0103
0000
,
1000
0000
1000
0010
0100
0000
1001
0000
,
0021
0031
2010
3010
,
1200
1300
0102
0103
,
1010
0100
0011
0100
,
0001
2000
3001
0010
,
0200
0010
0310
0001
,
1000
0001
1000
0000
0100
0000
1001
0000
,
0011
0100
1010
0100
,
1000
0002
1003
0010
,
1020
1030
0012
0013
,
0201
0301
2100
3100
,
1010
1010
0011
0011
,
0101
0101
1100
1100
,
1010
0100
0011
0100
,
0001
2000
3001
0010
,
0200
0010
0310
0001
,
1000
0001
1000
0000
0100
0000
1001
0000
;

//---------------dance-single - ----------------
#NOTES:
     dance-single:
     :
     Hard:
     7:
     :
0000
0000
0000
0000
,
0000
0000
0000
0000
,
0000
0000
0000
0000
,
1001
0000
0001
0100
0000
0010
0100
0000
,
1001
0000
1000
0100
0000
0001
1000
0000
,
1000
0110
0001
0101
,
1000
0010
0100
0010
1000
0000
0110
0000
,
1001
0000
0001
0100
0000
0010
0100
0000
,
1001
0000
1000
0100
0000
0001
1000
0000
,
0011
0110
1000
1100
,
0001
0010
0100
0010
0001
0000
0110
0000
,
1001
0000
0001
0100
0000
0010
0100
0000
,
1001
0000
1000
0100
0000
1000
0001
0000
,
1010
0110
0001
0101
,
1000
0010
0100
0010
1000
0000
0110
0000
,
0220
0000
0000
0330
2002
0000
3003
0000
,
0001
0100
0010
0100
0001
1000
0100
0000
,
1000
0000
1000
0010
0100
0000
0110
0000
,
1000
0010
1000
0100
0001
0000
0101
0000
,
1000
0000
0100
0010
0100
0000
1001
0000
,
0220
0000
0000
0330
,
0001
0000
0001
0010
0100
0000
0110
0000
,
0001
0010
0001
0100
1000
0000
1100
0000
,
0220
0000
0000
0330
2002
0000
3003
0000
,
0001
0100
0010
0100
0001
1000
0100
0000
,
2002
0000
0000
3003
0220
0000
0330
0000
,
1000
0100
0010
0100
1000
0001
0100
0000
,
1000
0000
0010
0100
0000
0001
1001
0000
,
1000
0000
0001
0100
0000
0010
0100
0000
,
0001
0010
0001
0100
0020
0000
1030
0000
,
0100
0000
0101
0000
0010
1000
1010
0000
,
1000
0010
1000
0100
0010
0001
0100
0000
,
0010
0000
0110
0000
1000
0001
1001
0000
,
0010
0001
0010
0000
1000
0010
1000
0000
,
0100
0001
0020
0000
1000
0000
0130
0000
,
0220
0000
0000
0330
2002
0000
3003
0000
,
0001
0100
0010
0100
0001
1000
0100
0000
,
1000
0010
1000
0100
0020
0000
0031
0000
,
0100
0000
1100
0000
0010
0001
0011
0000
,
0001
0010
0001
0100
0010
1000
0100
0000
,
0010
0000
0110
0000
0001
1000
1001
0000
,
0010
1000
0010
0000
0001
0010
0001
0000
,
0100
1000
0020
0000
0001
0000
0130
0000
,
0220
0000
0000
0330
2002
0000
3003
0000
,
1000
0100
0010
0100
1000
0001
0100
0000
,
0001
0000
0001
0010
0100
0000
0110
0000
,
0001
0010
0001
0000
1000
0000
1100
0000
,
0001
0110
0100
1001
,
0010
0100
0010
0000
0110
0000
1001
0000
,
1000
0000
1000
0010
0100
0000
0110
0000
,
1000
0010
1000
0000
0001
0000
0101
0000
,
0220
0000
0000
0330
2002
0000
3003
0000
,
0001
0100
0010
0100
0001
1000
0100
0000
,
2002
0000
0000
3003
0220
0000
0330
0000
,
1000
0100
0010
0100
1000
0001
0100
0000
,
1000
0000
1000
0010
0100
0000
0110
0000
,
1000
0010
1000
0100
0001
0000
0101
0000
,
1000
0000
0100
0010
0100
0000
1001
0000
,
0220
0000
0000
0330
;

//---------------dance-double - ----------------
#NOTES:
     dance-double:
     :
     Easy:
     3:
     :
00000000
00000000
00000000
00000000
,
00000000
00000000
00000000
00000000
,
00000000
00000000
00000000
00000000
,
00000000
00000000
00000000
00000000
,
00000000
00000000
00000000
00000000
,
00010000
00000000
00010000
00000000
,
10000000
00000000
10000000
10000000
,
10010000
00000000
00000000
00000000
,
10010000
00000000
00000000
00000000
,
10000000
00000000
00010000
00000000
,
00001000
00000000
00000010
00000010
,
00000110
00000000
00000000
00000000
,
00000110
00000000
00000000
00000000
,
00001000
00000000
00001000
00000000
,
00000001
00000000
00000001
00000001
,
00001001
00000000
00000100
00000000
,
00001000
00001000
00010000
00010000
,
00011000
00000000
00010000
00000000
,
00100000
00000000
01000000
00000000
,
02200000
00000000
00000000
03300000
,
10000000
10000000
00010000
00010000
,
10010000
00000000
01000000
00000000
,
00010000
00010000
00001000
00001000
,
00011000
00000000
00000010
00000000
,
00000001
00000001
00001000
00001000
,
00001001
00000001
00001000
00001000
,
00000001
00000001
00001001
00001001
,
00001001
00000000
00000000
00000000
,
00000100
00000000
00000000
00000000
,
00001000
00000000
00010000
00000000
,
00100000
00100000
00100000
00000000
,
10000000
00000000
00010000
00000000
,
10000000
10000000
10000000
00000000
,
00100000
00000000
00010000
00000000
,
00001000
00001000
00001000
00000000
,
00011000
00000000
00000010
00000000
,
00000001
00000001
00001000
00001000
,
00001001
00000000
00000001
00000000
,
00000100
00000100
00000100
00000000
,
00001000
00000000
00010000
00000000
,
00001000
00001000
00001000
00000000
,
00010000
00000000
00100000
00000000
,
10000000
10000000
10000000
10010000
,
10010000
00000000
01000000
00000000
,
00010000
00010000
00001000
00001000
,
00011000
00000000
00000010
00000000
,
00000100
00000100
00000100
00000000
,
00001000
00000000
00001000
00000000
,
00000001
00000100
00001000
00000000
,
00011000
00000000
00010000
00000000
,
01000000
10000000
10000000
00000000
,
20020000
30030000
10000000
10000000
,
01000000
01000000
00010000
00010000
,
00011000
00001000
00000010
00000010
,
00000000
00000100
00000100
00000100
,
00001001
00000000
00001000
00000000
,
00000001
00000100
00000100
00000000
,
00000100
00000000
00001000
00000000
,
00010000
00000000
01000000
00000000
;

//---------------dance-double - ----------------
#NOTES:
     dance-double:
     :
     Medium:
     7:
     :
00000000
00000000
00000000
00000000
,
00000000
00000000
00000000
00000000
,
00000000
00000000
00000000
00000000
,
00000000
00000000
00000000
00000000
,
00000000
00000000
00000000
00000000
,
00001001
00000100
00000010
00000100
,
00001000
00000001
00000100
00001000
,
00011000
00010000
01000000
10000000
,
10010000
00000000
00010000
00000000
00010000
10000000
00010000
00000000
,
10010000
01000000
00100000
01000000
,
00010000
10000000
01000000
00010000
,
00011000
00001000
00000100
00000001
,
00001001
00000000
00001000
00000000
00001000
00000001
00001000
00000000
,
00000110
00000001
00001000
00000001
,
00001000
00010000
10000000
00010000
,
01100000
00010000
01100000
10000000
,
00010000
00100000
01000000
00000000
10000000
00100000
01000000
00000000
,
10010000
00100000
01000000
10000000
,
10000000
00000000
00100000
00000000
00010000
00001000
00000010
00000000
,
00000100
00000100
00001000
00001000
,
00000001
00001000
00000001
00000000
00000010
00000000
00001001
00000000
,
00000110
00001000
00001000
00000001
,
00000100
00001000
00100000
01000000
,
10010000
00010000
01100000
01000000
,
00100000
01000000
10000000
00000000
00100000
01000000
00010000
00000000
,
10100000
00010000
00011000
00000010
,
00000001
00000100
00000010
00000000
00001000
00000010
00000100
00000000
,
00002100
00000001
00000000
00003001
,
00000102
00001000
00000000
00001003
,
00000100
00000100
00001000
00001000
,
00010000
00000000
00010000
01000000
10000000
00000000
00000000
00000000
,
10000000
10000000
00010000
00010000
,
00100000
00000000
00100000
01000000
00100000
00000000
00000000
00000000
,
01000000
01000000
00010000
00010000
,
00001000
00000010
00000001
00000100
,
00002100
00003001
00000102
00001003
,
00000010
00000100
00000001
00000000
00000010
00001000
00010000
00000000
,
00010100
00001000
01000000
00100000
,
10000000
00000000
10000000
00010000
10000000
00000000
10000000
00000000
,
01100000
00010000
10000000
01000000
,
00100000
00000000
00010000
10000000
00010000
00000000
00010000
00000000
,
10000000
00100000
00010000
00000000
00001000
00000000
00000010
00000000
,
00000001
00001000
00000001
00000000
00000010
00000000
00001100
00000000
,
00001001
00000100
00001001
00000100
,
00000010
00000001
00000100
00000000
00000010
00000000
00001001
00000000
,
00000110
00001000
00000101
00001000
,
00010000
00000000
00010000
01000000
10000000
00000000
00010000
00000000
,
10000000
10000000
00100000
01000000
,
00010000
00000000
00010000
10000000
01000000
00000000
00100000
00000000
,
10010000
00100000
11000000
00010000
,
00001000
00000000
00001000
00000100
00000001
00000000
00001000
00000000
,
00002001
00003010
00000210
00000301
,
00001000
00000100
00001000
00000000
00000001
00000100
00000001
00000000
,
00001001
00000110
00001001
00000110
,
00001000
00010000
00001000
00000000
00010000
01000000
10000000
00000000
,
01010000
00010000
00100000
01000000
,
10000000
00000000
10000000
00010000
10000000
00000000
10000000
00000000
,
01000000
00010000
00001000
00000010
,
00000100
00000000
00001000
00000000
;

//---------------dance-double - ----------------
#NOTES:
     dance-double:
     :
     Hard:
     8:
     :
00000000
00000000
00000000
00000000
,
00000000
00000000
00000000
00000000
,
00000000
00000000
00000000
00000000
,
00011000
00000000
00010000
00001000
00000000
00001000
00010000
00000000
,
01001000
00000000
00010000
00100000
00000000
00100000
01000000
00000000
,
10010000
00000000
10000000
00010000
00000000
00010000
10000000
00000000
,
01100000
00000000
00100000
01000000
00000000
01000000
00100000
00000000
,
11000000
00000000
00100000
00010000
00000000
00010000
00001000
00000000
,
00001100
00000000
00000010
00000001
00000000
00000001
00000100
00000000
,
00000010
00000000
00000010
00001000
00000100
00000000
00000100
00000010
,
00000001
00000000
00000001
00000000
00000001
00001000
00000001
00001000
,
00001001
00000000
00000001
00000100
00000000
00000100
00001000
00000000
,
00011000
00000000
00010000
00100000
00000000
00100000
10000000
00000000
,
10010000
00000000
00010000
00100000
00000000
00100000
01000000
00000000
,
10000000
00010000
01000000
00000000
00010000
10000000
01000000
00100000
,
02100000
13000000
02100000
03010000
,
10000000
01000000
00010000
00001000
00010000
00000100
00000010
00000000
,
00001001
00000010
00001001
00000100
,
00000010
00000001
00000100
00000000
00000010
00001000
00000100
00000000
,
00000011
00000000
00000100
00000000
00001000
00010000
01000000
00000000
,
10000000
00000000
00100000
00000000
01000000
00010000
00100000
01000000
,
11000000
00010000
11000000
00100000
,
00010000
10000000
01000000
00000000
10000000
00010000
01000000
00000000
,
10200000
01300000
02010000
03001000
,
00012000
00000000
00003010
00000000
00000021
00000000
00000130
00001000
,
00002001
00003001
00000120
00000130
,
00001000
00000001
00001000
00000100
00000010
00000100
00001000
00000000
,
00001001
00000000
00000001
00001000
00000000
00001000
00000001
00000000
,
00000101
00000000
00000100
00001000
00000000
00001000
00010000
00000000
,
00110000
00000000
01000000
10000000
00000000
10000000
00100000
00000000
,
01010000
00000000
00100000
01000000
00000000
01000000
10000000
00000000
,
01010000
00000000
00100000
00001000
00000000
00010000
00000100
00000000
,
00001010
00000000
00000001
00000010
00000000
00000010
00000100
00000000
,
00001001
00000000
00001000
00000001
00000000
00000001
00001000
00000000
,
00000110
00000001
00001000
00000000
00001000
00000000
00000001
00000010
,
00002100
00003100
00000201
00000301
,
00000001
00000010
00001000
00010000
00001000
00010000
00100000
00000000
,
10010000
00010000
00010000
00000000
00100000
00000000
01000000
00000000
,
10010000
10000000
10000000
00000000
00100000
00000000
00100000
00000000
,
10000000
00010000
01000000
00100000
01000000
00000000
01000000
00000000
,
00010000
10000000
01000000
00100000
01000000
00000000
01000000
00000000
,
00010000
00001000
00000010
00000100
00000100
00000000
00001000
00000000
,
00000001
00001000
00000001
00000010
00000100
00000000
00001000
00000001
,
00000201
00000310
00002010
00003100
,
00010000
00001000
01000000
00100000
10000000
00010000
10000000
00000000
,
01100000
00010000
01100000
10000000
,
10000000
00010000
00100000
00000000
01000000
00000000
10010000
00000000
,
00100000
01000000
00100000
00000000
00010000
00000000
10000000
00000000
,
10000000
00100000
00010000
00001000
00010000
00000000
00010100
00000000
,
00000010
00001001
00000010
00001001
,
00000001
00000010
00001000
00000010
00000100
00000000
00001000
00000000
,
00000201
00001300
00012000
00103000
,
00210000
00000000
01300000
00000000
12000000
00000000
03100000
00010000
,
02010000
00000000
03100000
10000000
12000000
00000000
03100000
00010000
,
00000000
00100000
01000000
00000000
01000000
00000000
10000000
00010000
,
10010000
01000000
10010000
01000000
,
00100000
10000000
01000000
00000000
00010000
00000000
00001000
00000000
,
00000100
00000001
00001000
00001000
,
00000001
00000000
00000010
00000000
;
