#TITLE:Like A Virgin;
#ARTIST:tama_happytone;
#BANNER:Like A Virgin.png;
#BACKGROUND:Like A Virgin-bg.png;
#MUSIC:Like A Virgin.ogg;
#SAMPLESTART:77.52;
#SAMPLELENGTH:15;
#BPMS:0=126;

//---------------dance-single - ----------------
#NOTES:
     dance-single:
     :
     Beginner:
     1:
     :
0000
0000
0000
0000
,
0000
0000
0000
0000
,
0000
0000
0000
0000
,
0010
0000
0010
0000
,
1000
1000
1000
1000
,
1000
0000
0100
0000
,
0001
0001
0001
0000
,
0001
0000
0100
0000
,
1000
0000
1000
0000
,
0001
0000
0100
0000
,
1000
1000
1000
0000
,
1000
0000
0100
0000
,
0001
0001
0001
0001
,
0001
0001
0001
0000
,
1000
0000
0001
0000
,
1000
1000
1000
0000
,
0001
0000
1000
0000
,
1000
0000
0000
0000
,
0010
0000
0000
0000
,
0001
0000
0000
0000
,
0010
0000
0000
0000
,
1000
1000
1000
0000
,
0001
0000
1000
0000
,
0001
0001
0001
0000
,
1000
0000
0001
0000
,
0001
0000
0000
0000
,
0010
0000
0000
0000
,
1000
0000
0000
0000
,
0010
0000
0000
0000
,
0010
0000
0100
0000
,
0110
0110
0110
0000
,
0010
0000
0000
0000
,
0001
0000
0000
0000
,
0010
0000
0000
0000
,
1000
0000
0000
0000
,
0001
0000
0001
0000
,
0100
0000
0100
0000
,
1000
1000
1000
0000
,
0100
0000
0100
0000
,
1000
0000
0001
0000
,
1001
1001
1001
0000
,
0001
0000
1000
1000
,
1000
0000
0100
0000
,
0100
0100
0100
0000
,
0001
0000
0001
0001
,
0001
0000
1000
1000
,
1000
0000
0100
0000
,
0100
0000
0100
0000
,
0001
0000
0001
0000
,
1001
1001
1001
1001
,
1001
0000
0000
0000
;

//---------------dance-single - ----------------
#NOTES:
     dance-single:
     :
     Easy:
     3:
     :
0000
0000
0000
0000
,
0000
0000
0000
0000
,
0000
0000
0000
0000
,
0010
0000
0010
0000
,
0001
0001
1000
1000
,
1000
0000
0100
0000
,
0001
0001
0100
0100
,
0001
0100
1000
0000
,
0001
0000
0100
0000
,
1000
0001
0100
1000
,
0001
0000
0001
0000
,
0100
0000
0100
0000
,
1000
1000
0001
0100
,
0001
0000
0001
0000
,
1000
1000
0100
0000
,
0010
0000
1000
0000
,
0001
0000
0001
1000
,
1000
0000
0100
0000
,
0010
0000
0001
0000
,
0001
0100
0100
0000
,
0001
0000
1000
0100
,
0001
0000
0001
0000
,
1000
1000
0100
0000
,
0010
0000
0010
0100
,
0001
0001
0001
0001
,
1000
1000
1000
0000
,
0100
0000
0001
0100
,
0001
0001
0010
0010
,
0100
0100
1000
1000
,
0001
0000
1000
0000
,
0001
1000
1001
0000
,
1000
0000
0000
0000
,
0001
0000
0000
0000
,
0010
0000
0000
0000
,
1000
0000
0000
0000
,
0001
0000
0001
0000
,
0100
0000
1000
0000
,
2000
3000
0010
0010
,
0200
0300
0001
0001
,
1000
0000
0001
0000
,
1000
0001
1001
0000
,
0001
0000
0001
0000
,
1000
0000
0100
0000
,
0001
0100
1000
0000
,
0001
0000
1000
0010
,
0010
0000
0100
0000
,
0001
0000
1000
0001
,
1000
0000
0001
0000
,
0001
0000
0100
0000
,
0001
0001
1000
1000
,
1001
0000
0000
0000
;

//---------------dance-single - ----------------
#NOTES:
     dance-single:
     :
     Medium:
     5:
     :
0000
0000
0000
0000
,
0000
0000
0000
0000
,
0000
0000
0000
0000
,
0101
0000
1010
0000
,
0101
1010
0101
1010
,
1000
0100
0001
0100
,
0001
0100
0001
0000
1000
0000
0100
0000
,
0001
0100
1000
1000
,
0100
0100
0010
0010
,
1000
0010
0001
0100
,
1000
0100
1000
0000
0001
0000
0100
0000
,
1100
0000
0011
0000
,
1100
0011
1100
0011
,
1001
0000
0001
0000
0001
0100
0001
0000
,
1000
1000
0001
0100
,
1000
0000
1000
0100
1000
0000
0001
0000
,
0001
0000
0010
0000
0001
0010
0100
0000
,
1000
0100
1000
0000
0010
0000
0100
0000
,
0002
1003
2000
3001
,
0001
1000
0100
0100
,
1000
1000
0001
1100
,
1001
0000
1000
0000
1000
0001
0000
0000
,
0001
0001
1000
0100
,
0001
0000
0001
0000
0001
1000
0000
0000
,
0010
1000
0001
0100
,
1000
0100
0020
0130
,
0002
0013
1000
0001
,
0001
0010
0100
0000
0010
0100
1000
0000
,
0001
0000
1000
0000
0001
1000
0010
0000
,
0020
0130
0200
0310
,
0101
1010
0101
0000
,
0002
0100
0000
0103
,
2000
0100
0000
3100
,
0001
0101
0000
0001
,
1000
1100
0000
1000
,
0002
0100
0000
1003
,
2000
0100
0000
3100
,
1000
0010
0100
0000
0010
0000
0001
0000
,
1000
0000
0001
0000
1000
0001
0010
0000
,
0020
0130
0200
0310
,
0011
1100
0011
0000
,
0001
1000
0001
0000
0100
0000
1001
0000
,
0001
0000
0100
0000
1000
0100
0010
0000
,
0010
0001
2000
3100
,
0001
1000
0100
0000
0100
0000
0010
0000
,
0020
0100
0130
0110
,
1000
0000
0100
0000
0001
0100
0001
0000
,
1000
0000
1000
0000
1000
0001
0000
0000
,
1001
0000
0110
0000
,
1001
0110
1001
0110
,
1001
0000
0000
0000
;

//---------------dance-single - ----------------
#NOTES:
     dance-single:
     :
     Hard:
     8:
     :
0000
0000
0000
0000
,
0000
0000
0000
0000
,
0000
0000
0000
0000
,
0101
1000
1100
0001
,
0001
0100
1000
0100
0001
0100
1000
0000
,
0010
0000
0100
0000
0001
0000
0100
0001
0100
0000
0010
0000
1000
0000
0010
1000
,
0010
0000
0100
0000
0001
0000
0100
0001
0100
0000
0010
0000
1000
0000
0010
1000
,
0000
0001
1000
0000
2002
0000
3003
0000
,
0001
0100
0001
0000
1000
0100
1000
0001
,
0010
0000
0100
0000
1000
0000
0100
1000
0100
0000
0010
0000
0001
0000
0010
0001
,
0010
0000
0100
0000
1000
0000
0100
1000
0100
0000
0010
0000
0001
0000
0000
0000
,
1100
0001
0101
1000
,
1000
0100
0001
0100
1000
0100
0001
0000
,
1000
0100
1000
0010
0100
0010
0100
0010
,
1000
0100
0010
0000
0010
0001
1000
0100
,
0001
0100
0010
1000
0001
1000
0001
0000
,
0001
0100
0010
0000
0010
1000
0001
0100
,
0010
0100
0010
0100
0000
0001
0100
0001
,
1000
1000
0010
0100
0000
0010
1000
0001
,
0100
0010
1000
0100
0010
0100
1000
0000
,
0001
0100
0001
0000
1000
0010
0100
0010
,
1000
0100
1000
0000
1100
0101
0001
0000
,
1000
0010
0100
0001
0000
0100
0001
0100
,
0001
0000
0001
0000
0101
1100
1000
0000
,
0001
0100
0010
1000
0010
1000
0001
0100
,
1000
0010
1000
0010
0010
0100
0000
0100
,
0001
0100
0010
1000
0001
0100
0001
0001
,
1000
0010
0100
0001
0000
1000
0001
1000
,
0001
0001
0100
0000
0010
1000
0001
0010
,
0010
0001
0010
0001
1000
0010
1000
0010
,
0010
1000
0001
0000
1001
0000
0110
0000
,
0001
0100
0001
0010
0000
0010
0100
0010
,
0001
0010
0100
1000
0000
0100
1000
0100
,
1000
0100
0010
0001
0000
0001
1000
0010
,
1000
0100
0010
0001
0000
0001
1000
0100
,
0001
0010
0001
0010
0000
0100
0000
0000
,
1000
0100
0010
0001
1000
0100
1000
1000
,
0001
0010
0100
1000
0000
0001
1000
0001
,
1000
1000
0100
0000
0010
0001
1000
0010
,
0010
1000
0010
1000
0001
0010
0001
0010
,
0011
0000
1100
0000
1001
0000
1000
0001
,
0010
0100
1000
0001
1100
0101
1001
0000
,
0100
0010
0000
0010
1000
0001
0100
0010
,
1000
0001
1000
0000
2002
0000
3003
0001
,
1000
0010
0100
0010
1000
0001
0100
0001
,
1000
1000
0100
0000
0010
0010
0001
0100
,
0001
0010
0001
0000
0100
1000
0100
0010
,
0001
0100
0010
0000
0101
1100
0000
0000
,
0001
0010
0001
0010
1000
0100
1000
0100
,
0010
0001
0010
0001
0001
0010
0100
1000
,
2002
0000
0000
3003
0000
0000
0000
0000
;

//---------------dance-double - ----------------
#NOTES:
     dance-double:
     :
     Easy:
     3:
     :
00000000
00000000
00000000
00000000
,
00000000
00000000
00000000
00000000
,
00000000
00000000
00000000
00000000
,
00000001
00000000
00000001
00000000
,
00000001
00000100
00001000
00010000
,
00012000
00000000
00010000
00000000
,
00010000
00000000
00010000
00003000
,
00010000
00100000
10000000
00000000
,
10000000
10000000
01000000
00010000
,
00021000
00000000
00001000
00000000
,
00001000
00000000
00001000
00030000
,
00001000
00000000
00000010
00000000
,
00001001
00000010
00000010
00000100
,
00001001
00000000
00000100
00000000
,
00001000
00010000
00100000
00000000
,
10000000
00000000
00010000
00000000
,
10000000
01000000
10000000
00000000
,
00010000
01000000
00010000
00000000
,
00001000
00000010
00000001
00000000
,
00000001
00000100
00001000
00000000
,
00010000
00100000
01000000
00000000
,
10010000
00000000
01000000
00000000
,
00010000
00001000
00000010
00000000
,
00000001
00000000
00001000
00000000
,
00000001
00000100
00000001
00000000
,
00001000
00000100
00001000
00000000
,
00010000
00100000
10000000
00000000
,
10000000
01000000
00010000
00000000
,
00001000
00000010
00000001
00000000
,
00001001
00000000
00001001
00000000
,
00000110
00000110
00001001
00000000
,
00001002
00000000
00000100
00000003
,
00002001
00000000
00000100
00003000
,
00020000
00030000
00002000
00003000
,
00010000
00100000
10000000
00000000
,
20010000
00000000
01000000
30000000
,
10020000
00000000
01000000
00030000
,
00011000
00000000
00001000
00000000
,
00000010
00000001
00000001
00000000
,
00001001
00000000
00001001
00000000
,
00000100
00001000
00011000
00000000
,
00011000
00000000
01000000
00000000
,
00100000
01000000
00100000
00000000
,
10000000
00010000
10000000
00000000
,
10000000
01000000
00010000
00000000
,
00011000
00000000
00000100
00000000
,
00000010
00000100
00000010
00000000
,
00001001
00000000
00000000
00000000
,
00001001
00000000
00000110
00000000
,
00000100
00001000
00100000
01000000
,
10010000
00000000
00000000
00000000
;

//---------------dance-double - ----------------
#NOTES:
     dance-double:
     :
     Medium:
     5:
     :
00000000
00000000
00000000
00000000
,
00000000
00000000
00000000
00000000
,
00000000
00000000
00000000
00000000
,
00000001
00000000
00000010
00000000
,
00000100
00000100
00001000
00001000
,
00001002
00000100
00000000
00000103
,
00000200
00001000
00000000
00001300
,
00002000
00010000
00000000
00013000
,
00020000
00100000
00000000
00130000
,
20010000
01000000
00000000
31000000
,
02000000
00010000
00000000
03010000
,
00011000
00000000
00001100
00000000
,
00001001
00000001
00001001
00001000
,
00000110
00000000
00000100
00001000
,
00000001
00000001
00000001
00000001
,
00000110
00000000
00000000
00001000
,
00010000
00010000
00010000
00010000
,
01000000
01000000
10000000
10000000
,
00010000
00010000
10000000
01000000
,
01000000
00010000
00001000
00001000
,
00000010
00000001
00001000
00001000
,
00000110
00000000
00000010
00001000
,
00000001
00000001
00000001
00000001
,
00000110
00000000
00000000
00001000
,
00010000
00010000
00100000
00100000
,
10000000
10000000
00100000
01000000
,
00010000
00010000
10000000
00100000
,
00100000
00010000
00001000
00001000
,
00000100
00000001
00001000
00001000
,
00000110
00000000
00001001
00000000
,
00000100
00001000
00010000
00000000
00010000
01000000
10000000
00000000
,
20010000
01000000
00000000
31000000
,
02000000
00010000
00000000
03010000
,
00020000
00000010
00000000
00030010
,
00000100
00000001
00000010
00001000
,
00010000
00010000
00010000
00010000
,
00001000
00001000
00001000
00001000
,
00011000
01000000
00100000
00100000
,
10000000
10000000
10000000
10000000
,
10010000
00000000
00011000
00000000
,
00000010
00000001
00000100
00000000
00000100
00000000
00000000
00000000
,
00001001
00000100
00000100
00000100
,
00001000
00001000
00010000
00100000
,
10000000
00010000
00100000
01000000
,
10000000
00010000
10000000
01000000
,
01010000
00001000
00010000
00001000
,
00000010
00000100
00000100
00000100
,
00001001
00000010
00000100
00000100
,
00001001
00000100
00011000
01000000
,
10010000
00000000
00100000
00000000
01000000
00100000
01000000
00000000
,
10010000
00000000
00000000
00000000
;

//---------------dance-double - ----------------
#NOTES:
     dance-double:
     :
     Hard:
     8:
     :
00000000
00000000
00000000
00000000
,
00000000
00000000
00000000
00000000
,
00000000
00000000
00000000
00000000
,
10010000
01000000
00100000
00000000
01010000
01000000
10000000
00000000
,
10100000
00110000
00011000
00001010
,
00001001
00000100
00000010
00000100
00002000
00000000
00000001
00000000
,
00000100
00000000
00003001
00000000
00000100
00001000
00020000
00000000
,
00000100
00032000
01000000
00013000
,
01000000
10000000
00010000
00000000
01000000
00100000
10000000
00010000
,
10010000
01000000
00100000
01000000
00020000
00000000
10000000
00000000
,
01000000
00000000
10030000
00000000
01000000
00010000
00002000
00000000
,
01000000
00023000
00000100
00031000
,
00000100
00000001
00000010
00000100
00001000
00000001
00000010
00000100
,
00001001
00000000
00000001
00001000
00000001
00000000
00000100
00001000
,
00010000
00000000
00010000
00000000
01000000
10000000
00010000
10000000
,
01000000
00000000
00100000
00010000
00001000
00000000
00000010
00000001
,
00001000
00000000
00000010
00000000
00000100
00000000
00000001
00000010
,
00000001
00000000
00000100
00000000
00001000
00010000
01000000
00000000
,
10000000
00000000
10000000
00010000
10000000
00000000
00100000
00010000
,
00001000
00000000
00000010
00000000
00000001
00001000
00000001
00000000
,
00000010
00000100
00001000
00000010
00000100
00000001
00000010
00000000
,
00001001
00000000
00000001
00001000
00000001
00000000
00000010
00001000
,
00010000
00000000
00010000
00000000
00100000
10000000
00010000
10000000
,
00100000
00000000
01000000
00010000
00001000
00000000
00000100
00000001
,
00001000
00000000
00000100
00000000
00000010
00000000
00000001
00000100
,
00000001
00000000
00000010
00000000
00001000
00010000
00100000
00000000
,
10000000
00000000
10000000
00010000
10000000
00000000
01000000
00010000
,
00001000
00000000
00001000
00000100
00000001
00000000
00000001
00000010
,
00001000
00000000
00001000
00000010
00000001
00000000
00000100
00000010
,
00001001
00000010
00001100
00010000
,
00011000
00000000
01001000
00000000
00011000
00000000
00000100
00000010
,
00000012
00000000
00000103
00000000
00000100
00001000
00010000
00001000
,
00020000
00000000
00031000
00000000
00010000
01000000
00010000
00001000
,
00020000
00000000
00031000
00000000
00001000
00000100
00001000
00010000
,
00002000
00000000
00013000
00000000
00010000
01000000
00010000
00001000
,
00020000
00000000
00031000
00000000
00001000
00000100
00000002
00000000
,
00000013
00000100
00000020
00000000
00001030
00010000
00001000
00010000
,
00011000
00000000
01000000
00100000
10000000
00000000
10000000
01000000
,
00010000
00000000
00001000
00000000
00000010
00000001
00000100
00000010
,
00001001
00000100
00001001
00000100
,
00000101
00000000
00001100
00000000
00010100
00000000
00001000
01000000
,
00100000
10000000
01000000
00000000
00100000
00000000
00011000
00000000
,
00000100
00010000
00001000
00000000
01000000
00001000
00010000
01000000
,
10000000
01000000
00010000
00000000
00001000
00000100
00000001
00000000
,
00000010
00000100
00001000
00000001
00000100
00000010
00001000
00000100
,
00001100
00000001
00000100
00000000
00001000
00010000
01000000
00000000
,
10000000
00010000
10000000
00000000
01000000
00010000
00001000
00000000
,
01100000
00100000
00010000
00000000
00000100
00000010
00000001
00000000
,
00000110
00000100
00001000
00000000
00001010
00000010
00000100
00000000
,
00001001
00000000
00011000
00000000
10010000
10000000
00100000
01000000
,
10010000
00000000
00000000
00000000
;
