#TITLE:LADIES' NIGHT;
#ARTIST:∠R;
#BANNER:LADIES' NIGHT.png;
#BACKGROUND:LADIES' NIGHT-bg.png;
#MUSIC:LADIES' NIGHT.ogg;
#SAMPLESTART:17.29;
#SAMPLELENGTH:15;
#BPMS:0=120;

//---------------dance-single - ----------------
#NOTES:
     dance-single:
     :
     Beginner:
     1:
     :
0000
0000
0000
0000
,
0000
0000
0000
0000
,
0000
0000
0000
0000
,
0001
0000
0001
0000
,
1000
0000
1000
1000
,
1000
0000
0100
0000
,
0001
0001
0001
0000
,
0001
0000
0100
0000
,
1000
1000
1000
1000
,
1000
0000
0000
0000
,
0100
0000
0100
0000
,
1000
0000
0000
0000
,
0010
0010
0010
0000
,
0001
0000
0000
0000
,
0100
0000
0100
0000
,
0001
0000
0000
0000
,
0010
0010
0010
0000
,
1000
0000
0100
0000
,
0001
0000
1000
0000
,
0010
0000
0001
0000
,
1000
0000
0100
0000
,
0001
0000
0100
0000
,
1000
0000
0001
0000
,
0010
0000
1000
0000
,
0001
0000
0100
0000
,
1000
0000
1000
0000
,
0001
0000
1000
0000
,
0010
0000
0001
0000
,
0100
0000
1000
0000
,
0001
0001
0000
0000
,
0100
0000
0100
0000
,
1000
1000
0000
0000
,
0100
0000
0100
0000
,
0001
0000
0000
0000
,
0100
0000
0100
0000
,
0001
0000
0000
0000
,
0010
0010
0010
0000
,
1000
0000
0000
0000
,
0100
0000
0100
0000
,
1000
0000
0000
0000
,
0010
0010
0010
0000
,
0001
0000
0100
0000
,
1000
0000
0001
0000
,
0010
0000
1000
0000
,
0001
0000
0100
0000
,
1000
0000
0100
0000
,
0001
0000
1000
0000
,
0010
0000
0001
0000
,
1000
1000
1000
0000
,
1001
0000
0000
0000
;

//---------------dance-single - ----------------
#NOTES:
     dance-single:
     :
     Easy:
     4:
     :
0000
0000
0000
0000
,
0000
0000
0000
0000
,
0000
0000
0000
0000
,
0001
0000
0001
0000
,
1000
0000
0010
0001
,
0100
0000
0100
0000
,
0001
0001
1000
0000
,
0010
0000
0010
0000
,
0001
0001
1000
1000
,
0001
1000
0001
0000
,
0010
0000
0100
0010
,
1000
0001
1000
0000
,
0001
0001
0010
0100
,
0001
1000
0001
0000
,
0010
1000
0100
0001
,
1000
0001
1000
0000
,
0010
0000
0110
0000
,
1000
0100
0100
0000
,
0001
0000
1000
0000
,
0010
1000
0001
0000
,
1000
0000
0100
0100
,
0001
0000
0010
0000
,
0100
0000
1000
0000
,
1001
0000
0001
0000
,
0010
1000
0100
0000
,
0001
0010
0001
0000
,
0010
0010
0100
0100
,
1000
0100
0001
0000
,
1000
0100
0010
0001
,
0001
0001
1000
1000
,
0010
0000
0100
0100
,
1000
0001
1000
0001
,
0010
0010
0110
0000
,
0001
1000
0001
0000
,
0010
0000
0100
0010
,
1000
0001
1000
0000
,
0001
0001
0010
0100
,
0001
1000
0001
0000
,
0010
1000
0100
0001
,
1000
0001
1000
0000
,
0020
0000
0130
0000
,
0001
1000
0001
0000
,
0010
0000
0100
0010
,
1000
0001
1000
0000
,
0001
0001
0010
0100
,
0001
1000
0001
0000
,
0010
1000
0100
0001
,
1000
0001
1000
0000
,
0010
0100
0110
0000
,
1001
0000
0000
0000
;

//---------------dance-single - ----------------
#NOTES:
     dance-single:
     :
     Medium:
     5:
     :
0000
0000
0000
0000
,
0000
0000
0000
0000
,
0000
0000
0000
0000
,
1000
0100
1000
1000
,
1000
0000
0100
0000
0001
0100
0001
0000
,
1001
0100
1000
0001
,
1000
0010
0100
0000
0010
0000
0110
0000
,
0001
0100
0001
1001
,
0001
0001
0001
0000
,
0022
0033
0100
1000
,
1000
0010
0100
0000
0010
0000
0100
0000
,
2020
3030
0100
0001
,
0001
0010
0100
1000
,
0022
0033
0100
1000
,
0001
0010
0100
0000
0001
0000
1000
0000
,
2020
3030
0100
0001
,
1001
0000
0110
0100
,
0100
0000
0100
0000
0010
0000
0000
0100
,
0010
0000
1000
0000
0001
1000
0100
0000
,
0001
0000
0001
0000
1000
0000
0100
0002
,
0000
0000
0013
1100
,
0100
0000
0100
0000
0010
0000
0000
0001
,
0100
0010
0100
0000
1000
0000
0001
0000
,
1000
1000
0100
0010
,
0010
0001
0010
1000
,
0001
0000
0001
0100
0020
0000
0130
0000
,
0010
1000
0100
0000
0001
0000
1100
0000
,
0001
0001
0010
1000
,
1000
0100
1000
0000
0100
0000
0001
0000
,
0001
0100
1000
0000
1000
0001
1000
0000
,
0010
0100
0001
1001
,
0010
0000
0100
0000
0100
0010
0100
0000
,
0001
0001
0100
0000
,
0022
0033
0100
1000
,
1000
0010
0100
0000
0010
0000
0100
0000
,
2020
3030
0100
0001
,
0001
0010
0100
1000
,
0022
0033
0100
1000
,
0001
0010
0100
0000
0001
0000
1000
0000
,
2020
3030
0100
0101
,
2002
3003
0100
1001
,
2020
3030
0100
0101
,
0001
0010
0100
0000
0010
1000
0100
0000
,
0022
0033
0100
1100
,
1000
0010
0100
0001
,
2020
3030
0100
0101
,
1000
0010
0100
0000
1000
0100
0001
0000
,
0022
0033
0101
1100
,
1001
1001
0010
0100
,
1001
0000
0000
0000
;

//---------------dance-single - ----------------
#NOTES:
     dance-single:
     :
     Hard:
     7:
     :
0000
0000
0000
0000
,
0000
0000
0000
0000
,
0000
0000
0000
0000
,
0001
0100
0001
0100
0010
0100
0010
1000
,
0010
1000
0020
0000
0130
0010
0100
0000
,
0001
0000
0010
0001
0010
0000
0000
0000
0010
0100
0010
0000
0100
0000
0000
0000
,
1000
0010
0100
0000
0010
0001
0100
0000
,
0001
0000
0010
0001
0010
0000
0000
0000
0010
0100
0010
0000
0100
0000
0000
0000
,
1000
0100
0010
0100
1000
0100
0010
0100
,
0020
0000
0130
0000
0001
0010
0100
0000
,
1001
0100
0001
0000
1000
0001
1000
0010
,
0200
0000
0310
0000
1000
0010
0100
0000
,
0001
0000
0100
0000
0001
0000
1000
0100
0000
0000
0010
0000
0001
0000
0100
0000
,
0020
0000
0130
0000
0001
0010
0100
1000
,
0001
0100
0010
0000
0100
0001
0100
0001
,
0200
0000
0310
0000
1000
0010
0100
0000
,
0001
0000
0100
0000
0001
0000
0001
0100
0000
0000
0000
0000
0000
0000
0000
0000
,
1000
0000
0100
0000
1000
0000
0000
0000
1001
0000
0000
0000
0000
0000
0100
0001
,
0000
1000
0010
0000
0200
0000
0310
0000
,
0001
0100
0001
0000
1001
0000
0000
2000
,
0000
0000
0100
0000
3010
0100
0010
1000
,
0100
0000
0001
0100
0001
0000
0000
0000
0010
0100
0010
0000
0000
0000
1000
0000
,
0001
0010
0100
1000
,
0001
0000
1000
0001
1000
0000
0000
0000
0010
0100
0010
0000
0000
0000
0000
0000
,
1010
0100
0101
0011
,
0010
0010
0001
1000
0001
1000
1000
0100
,
0010
0100
0010
0010
0001
1000
0010
0100
,
0001
0100
0001
0000
1000
0010
0100
0000
,
0001
0100
0010
0100
0110
0000
1100
0000
,
0001
0000
0010
0100
0010
0000
0000
0000
1000
0100
1000
0000
0001
0000
0000
0000
,
1001
0000
1000
0001
1000
0001
1000
0000
,
0001
0000
0010
0100
0010
0000
0000
0000
1000
0100
1000
0000
0001
0000
0000
0000
,
0001
0000
0001
1000
0001
0000
0100
0000
,
0020
0000
0130
0000
0001
0010
0100
0000
,
1001
0100
0001
0000
1000
0001
1000
0010
,
0200
0000
0310
0000
1000
0010
0100
0000
,
0001
0000
0100
0000
0001
0000
1000
0100
0000
0000
0010
0000
0001
0000
0100
0000
,
0020
0000
0130
0000
0001
0010
0100
1000
,
0001
0100
0010
0000
0100
1000
0100
0001
,
0200
0000
0310
0000
1000
0010
0100
0000
,
0001
0000
0100
0000
0001
0000
0001
0100
0000
0000
0001
0000
0100
0000
0001
0000
,
0020
0000
0130
0000
1000
0010
0100
0000
,
0001
0001
1000
0000
0001
1000
0001
0010
,
0200
0000
0310
0000
0001
0010
0100
0000
,
1000
0100
1000
0100
0001
0100
0001
0100
,
0020
0000
0130
0000
1000
0010
0100
0001
,
1000
0100
0010
0000
0100
0000
0100
1000
,
0200
0000
0310
0000
0001
0010
0100
0000
,
1000
0000
0100
0000
1000
0000
0100
0000
0000
0100
0010
0100
0010
0000
0000
0000
,
1001
0000
0000
0000
;

//---------------dance-double - ----------------
#NOTES:
     dance-double:
     :
     Easy:
     3:
     :
00000000
00000000
00000000
00000000
,
00000000
00000000
00000000
00000000
,
00000000
00000000
00000000
00000000
,
00000020
00000000
00000000
00000030
,
00000100
00000100
00000100
00000000
,
00001001
00000001
00000100
00000000
,
00001000
00001000
00010000
00000000
,
00100000
00100000
10000000
00000000
,
00010000
10000000
00010000
10000000
,
01100000
01000000
01000000
00000000
,
00010000
00000000
00000010
00000000
,
00000100
00000100
00000100
00000000
,
00000001
00001000
00000001
00001000
,
00000110
00000100
00000100
00000000
,
00001000
00000000
00100000
00000000
,
01000000
01000000
01000000
00000000
,
10000000
00010000
10000000
00000000
,
01100000
00000000
01000000
00000000
,
00001000
00000000
00000010
00000000
,
00000110
00000000
00000010
00000000
,
00002000
00003000
00010000
00100000
,
10000000
00000000
10000000
00000000
,
00020000
00000000
01030000
00000000
,
00010000
00000000
00010000
00000000
,
20000000
00000000
31000000
00000000
,
00100000
00010000
00000200
00000300
,
00000000
00000010
00000001
00000001
,
00000001
00000000
00000000
00001000
,
00001000
00000000
00000000
00000000
,
00011000
00000000
00100000
00000000
,
00010000
00001000
00010000
00000000
,
00011000
00000000
00000010
00000000
,
00001000
00010000
00001000
00000000
,
00000110
00000100
00000100
00000000
,
00001000
00000000
00100000
00000000
,
01000000
01000000
01000000
00000000
,
10000000
00010000
10000000
00010000
,
01100000
01000000
01000000
00000000
,
00010000
00000000
00000010
00000000
,
00000100
00000100
00000100
00000000
,
00000001
00001000
00000001
00000000
,
00000110
00000000
00000100
00000000
,
00010000
00000000
00010000
00000000
,
01100000
00000000
00100000
00000000
,
00100000
00000000
01000000
01000000
,
01100000
00000000
01000000
00000000
,
00001000
00000000
00001000
00000000
,
00000110
00000000
00000010
00000000
,
00000010
00000010
00000100
00000000
,
00001001
00000000
00000000
00000000
;

//---------------dance-double - ----------------
#NOTES:
     dance-double:
     :
     Medium:
     6:
     :
00000000
00000000
00000000
00000000
,
00000000
00000000
00000000
00000000
,
00000000
00000000
00000000
00000000
,
00010000
00000000
10000000
00000000
,
00100000
00100000
00100000
01000000
,
10010000
00000000
10000000
00000000
00010000
01000000
00010000
00000000
,
10000000
00100000
00010000
00000000
00001000
00000000
00000010
00000000
,
00001001
00000000
00001000
00000000
00000001
00000100
00000001
00000000
,
00000101
00001000
00011000
00100000
,
10010000
00000000
01000000
00000000
00100000
10000000
01000000
00000000
,
00010000
00000000
00000010
00000000
00000100
00000001
00001000
00000000
,
00000010
00000000
00000100
00000000
00000001
00000010
00001000
00000000
,
00020000
00130000
20000000
31000000
,
10010000
00000000
00100000
00000000
01000000
10000000
00100000
00000000
,
00010000
00000000
00000100
00000000
00000010
00000001
00001000
00000000
,
00000100
00000000
00000010
00000000
00000001
00000100
00001000
00000000
,
00020000
01030000
20000000
30100000
,
01010000
00000000
00001000
00000000
00010000
00001000
00010000
00000000
,
00000100
00000010
00000100
00000000
,
00010100
00001000
00010000
01000000
,
10000000
00010000
10000000
00000000
00010000
10000000
00010000
00000000
,
00110000
00010000
01000000
01000000
,
10100000
10000000
01000000
01000000
,
00101000
00001000
00010000
00010000
,
00000010
00000100
00000001
00000001
,
00001100
00000000
00000100
00000010
00000002
00000000
00000000
00000000
,
00000003
00000000
00000100
00001000
00010000
00000000
00010000
01000000
,
10000000
10000000
10000000
10000000
,
00010000
00010000
00010000
00010000
,
20100000
30100000
01020000
01030000
,
00001000
00000010
00000001
00000001
,
00000012
00000013
00002100
00003100
,
00010000
00000000
00100000
00000000
10000000
00010000
00100000
00000000
,
10010000
00000000
01000000
00000000
00100000
10000000
01000000
00000000
,
00010000
00000000
00000010
00000000
00000100
00000001
00001000
00000000
,
00000010
00000000
00000100
00000000
00000001
00000010
00001000
00000000
,
00020000
00130000
20000000
31000000
,
10010000
00000000
00100000
00000000
01000000
10000000
00100000
00000000
,
00010000
00000000
00000100
00000000
00000010
00000001
00001000
00000000
,
00000100
00000000
00000010
00000000
00000001
00000100
00001000
00000000
,
00010000
01000000
10000000
00000000
10000000
00000000
10000000
00000000
,
00120000
01030000
20100000
31000000
,
00010000
00001000
00000010
00000001
,
00002010
00003100
00000012
00000103
,
00002000
00003000
00020000
00030000
,
00120000
01030000
20100000
31000000
,
00010000
00001000
00000010
00000001
,
00002010
00003100
00000012
00000103
,
00001010
00000000
00011000
00000000
00010000
01000000
10000000
00010000
,
01000000
00000000
00000000
00000000
;

//---------------dance-double - ----------------
#NOTES:
     dance-double:
     :
     Hard:
     8:
     :
00000000
00000000
00000000
00000000
,
00000000
00000000
00000000
00000000
,
00000000
00000000
00000000
00000000
,
00000001
00000001
00001000
00001000
,
00000010
00000000
00000010
00000000
00000100
00000010
00000100
00000000
,
00001001
00000001
00000001
00000000
00000100
00000001
00000100
00000000
,
00001000
00010000
00001000
00000000
00100000
00000000
01000000
00000000
,
10010000
10000000
10000000
00000000
01000000
00100000
01000000
00000000
,
00011000
00001000
00011000
00000000
00000110
00000010
00000011
00000000
,
00001100
00000000
00000010
00000001
00000100
00000000
00000100
00000001
,
00000010
00000100
00001000
00010000
00100000
01000000
01000000
00000000
,
00100000
01000000
10000000
00100000
01000000
00000000
01000000
00100000
,
10200000
00000000
00320000
00000000
00032000
00000000
00003010
00000100
,
00001010
00000000
00000100
00000001
00000010
00000000
00000010
00000001
,
00000100
00000010
00001000
00000000
00100000
10000000
00010000
00010000
,
01000000
00100000
10000000
01000000
00100000
00000000
00010000
10000000
,
00100000
00000000
01000000
00000000
00001000
00000000
00010000
00001000
00000000
00000000
00000000
00000000
01000000
00000000
00000000
00000000
,
00021000
00000000
00000000
00000000
00000100
00000000
00000000
00000000
00001000
00000000
00030000
00000000
00000000
00000000
00010000
00001000
,
00000000
00001000
00010000
00000100
,
00012000
00000000
00000000
00000000
01000000
00000000
00000000
00000000
00010000
00000000
00003000
00000000
00000000
00000000
00001000
00010000
,
00001000
00010000
00001000
00010000
,
00001100
00000000
00000010
00000100
00000000
00000000
00000000
00000000
00000001
00000000
00000010
00000100
00000000
00000000
00000000
00000000
,
00000000
00000000
00010000
00000000
00001000
01000000
00000000
00000000
00100000
00000000
10000000
01000000
00000000
00000000
00000000
00000000
,
00000000
00000000
00010000
00000000
00100000
01000000
00000000
00000000
10000000
00000000
00100000
00010000
00000000
00000000
00000000
00000000
,
00000000
00000000
00001000
00000000
00010000
00000100
00000000
00000000
00000010
00000000
00000001
00000100
00000000
00000000
00000000
00000000
,
00001001
00000100
00001000
00010000
00002000
00000000
00010000
00000000
,
00100000
00000000
00010000
00000000
01000000
00000000
00010000
00010000
,
00013000
00000000
01000000
00000000
10000000
00000000
00100000
00010000
,
00011000
00000000
00001000
00000000
00000010
00000000
00000001
00001000
,
00001001
00010000
00001100
00010000
,
00001000
01000000
00100000
10000000
00010000
00100000
01000000
00100000
,
10010000
00001000
01010000
00001000
,
00010000
00000100
00000010
00000001
00001000
00000010
00000100
00000001
,
00001100
00000000
00000010
00000001
00000100
00000000
00000100
00000001
,
00000010
00000100
00001000
00010000
00100000
01000000
01000000
00000000
,
00100000
01000000
10000000
00100000
01000000
00000000
01000000
00100000
,
10200000
00000000
00320000
00000000
00032000
00000000
00003010
00000100
,
00001010
00000000
00000100
00000001
00000010
00000000
00000010
00000001
,
00000100
00000010
00001000
00000000
00100000
10000000
00010000
00010000
,
01000000
00100000
10000000
01000000
00100000
00000000
00010000
10000000
,
00100000
00000000
01000000
00000000
00001000
00000000
00010000
00001000
00000000
00000000
00000000
00000000
00011000
00000000
00001000
00000000
,
00010100
00000000
00000100
00000010
00000000
00000000
00000000
00000000
00000100
00001000
00000000
00000000
00001000
00000000
00000001
00000000
,
00000100
00000000
00001000
00010000
00000100
00010000
00011000
00001000
,
01001000
00000000
01000000
00010000
00000000
00000000
00000000
00000000
00100000
01000000
00000000
00000000
10000000
00000000
10000000
00000000
,
01000000
00010000
00001000
00000000
00100000
00010000
00011000
00001000
,
00010100
00000000
00000100
00000010
00000000
00000000
00000000
00000000
00000100
00001000
00000000
00000000
00001000
00000000
00000001
00000000
,
00000100
00000000
00001000
00010000
00000100
00010000
00011000
00001000
,
01001000
00000000
01000000
00010000
00000000
00000000
00000000
00000000
00100000
01000000
00000000
00000000
10000000
00000000
10000000
00000000
,
01000000
00000000
00010000
00000000
00001000
00000000
00100000
00000000
00001000
00010000
00000100
00000000
00000010
00000000
00000100
00000000
,
00001001
00000000
00000000
00000000
;
