#TITLE:Kids in America;
#ARTIST:KIM WILDE;
#BANNER:Kids In America.png;
#BACKGROUND:Kids In America-bg.png;
#MUSIC:Kids In America.ogg;
#SAMPLESTART:37.61;
#SAMPLELENGTH:15;
#DISPLAYBPM:159;
#BPMS:0=159.62,52=159.79,100=159.55,132=159.53,164=159.9,196=159.2;
#BGCHANGES:4=Kids In America.avi=1=1=0=0=StretchNoLoop==CrossFade==,230.5=Kids In America-bg.png=1=0=0=1;

//---------------dance-single - ----------------
#NOTES:
     dance-single:
     :
     Beginner:
     1:
     :
0000
0000
0000
0000
,
0000
0000
0000
0000
,
0000
0000
0000
0000
,
0000
0000
0000
0000
,
0010
0000
0000
0000
,
0000
0000
0000
0000
,
0001
0000
0000
0000
,
0000
0000
0000
0000
,
0100
0000
0000
0000
,
0000
0000
0000
0000
,
1000
0000
0000
0000
,
0001
0000
1000
0000
,
0010
0000
0100
0000
,
0010
0000
0000
0000
,
0010
0000
0000
0000
,
0000
0000
0000
0000
,
1000
0000
0000
0000
,
0000
0000
0000
0000
,
0100
0000
0000
0000
,
0000
0000
0000
0000
,
0001
0000
0000
0000
,
1000
0000
0001
0000
,
0010
0000
0100
0000
,
0010
0000
0000
0000
,
0100
0000
0010
0000
,
0100
0000
0000
0000
,
1000
0000
0100
0000
,
0001
0001
0001
0000
,
0010
0000
1000
0000
,
0100
0100
0100
0000
,
0001
0000
0010
0000
,
1000
1000
1000
0000
,
0000
0100
0000
0010
,
0000
0100
0000
0010
,
0010
0000
0010
0000
,
0001
0001
0000
1001
,
0000
0100
0000
0010
,
0000
0100
0000
0010
,
0010
0000
0010
0000
,
1000
1000
1000
0000
,
0001
0001
0001
0000
,
0010
0000
0100
0000
,
0010
0000
1000
0000
,
0100
0000
0001
0000
,
0010
0000
1000
0000
,
0100
0100
0100
0000
,
0010
0000
0001
0000
,
0100
0000
1000
0000
,
0010
0000
0001
0000
,
0100
0100
0100
0100
,
0000
1000
0000
0010
,
0000
0001
0000
0100
,
0000
1000
0000
0010
,
0000
0001
0000
0100
,
0000
0001
0000
0010
,
0000
1000
0000
0100
,
0000
0001
0000
0010
,
0000
1000
1000
1000
,
0000
1000
0000
0010
,
0000
0001
0000
0100
,
0000
1000
0000
0010
,
0000
0001
0001
0001
;

//---------------dance-single - ----------------
#NOTES:
     dance-single:
     :
     Easy:
     4:
     :
0000
0000
0000
0000
,
0000
0000
0000
0000
,
0000
0000
0000
0000
,
0000
0001
0000
1000
,
0001
0010
0100
0000
,
1000
0000
0100
0000
,
0001
0001
0100
0100
,
2000
0000
3100
0000
,
0002
0100
0003
0100
,
0001
0000
0001
0000
,
0010
0000
0001
1000
,
0010
1000
0200
0000
,
0000
0000
0300
1001
,
0000
1000
1000
0001
,
1000
0100
0010
0000
,
0001
0000
0100
0000
,
1000
0100
0100
0001
,
0002
0000
0103
0000
,
2000
0100
3000
0100
,
1000
0000
1000
0000
,
0010
0000
1000
0001
,
0010
0001
0001
0000
,
0010
0100
0000
0100
,
0000
1000
1000
0000
,
0100
0001
0000
0001
,
2000
3000
0100
0100
,
0020
0030
0001
0001
,
1000
1000
0200
0300
,
0010
0010
0002
0003
,
1000
0000
0100
0001
,
1000
1000
0001
0001
,
0100
0000
0100
0000
,
0010
1000
0100
0000
,
0010
0000
0010
0000
,
0001
0001
1000
1001
,
0000
0100
0100
0000
,
0010
1000
0100
0000
,
0010
0000
0010
0000
,
2000
3000
0001
0100
,
2000
3000
0001
0100
,
0001
0001
0100
0100
,
0200
0000
0300
0000
,
0001
0001
0001
0000
,
1000
0100
0100
0000
,
0001
0001
1000
0100
,
0020
0000
0030
0000
,
1000
1000
1000
0000
,
0001
0100
0100
0000
,
1000
1000
0001
0100
,
0001
1000
0100
0000
,
1000
0001
0010
0000
,
1000
1000
0001
0010
,
0001
0010
0100
1000
,
0001
1000
0100
0000
,
1000
0001
0010
0000
,
1000
1000
0001
0010
,
0001
0010
0100
1000
,
1000
0001
0100
0000
,
0001
1000
0010
0000
,
0001
0001
1000
0010
,
1000
0010
0100
0000
;

//---------------dance-single - ----------------
#NOTES:
     dance-single:
     :
     Medium:
     6:
     :
0000
0000
0000
0000
,
0000
0000
0000
0000
,
0000
0000
0000
0000
,
0000
0001
0001
0100
,
1000
0010
0001
0100
,
1000
0000
1000
0000
0001
0010
0100
0000
,
1000
0000
0001
0000
1000
0010
0100
0000
,
0002
0100
0103
0000
,
1000
0100
0001
0100
,
0200
0300
2000
3000
,
0020
0030
0002
0003
,
1000
0001
1000
0000
0010
0000
0001
0000
,
0200
0000
0300
0110
,
0000
0000
1000
0001
1000
0000
0100
0000
,
0001
0010
1000
0100
,
0001
0000
0001
0000
1000
0010
0100
0000
,
0001
0000
1000
0000
0001
0010
0100
0000
,
2000
0001
3100
0000
,
0001
0100
1000
0100
,
0200
0300
0102
0003
,
0021
0030
2010
3000
,
0001
1000
0001
0000
0200
0000
0300
0000
,
0010
0100
0020
0000
1030
0000
1001
0000
,
0001
0100
0200
0300
,
0001
0100
0010
0100
0010
0000
0110
0000
,
1000
1000
0200
0310
,
0001
0100
0002
0000
1003
0000
0100
0000
,
0001
0001
0200
0310
,
0001
0100
0002
0000
1003
0000
0100
0000
,
1000
1000
0002
0103
,
1000
0010
0100
0000
0110
0000
0000
0000
,
0001
0100
0001
0000
0200
0000
0310
0000
,
0001
0010
0100
1000
,
1000
0100
1000
0000
0010
0100
0001
0000
,
1000
0100
0010
0001
,
1000
0100
1000
0000
0200
0000
0310
0000
,
1000
0010
0100
0001
,
0001
0100
0001
0000
0010
0100
1000
0000
,
0001
0010
0100
0000
0010
0000
1000
0000
,
0001
0000
1000
0000
0001
1000
0100
0000
,
0010
0010
0001
0100
,
0200
0000
0010
0301
,
0001
0000
0100
0000
0100
0010
1000
0000
,
1000
0000
0010
0100
0010
0000
0002
0000
,
1003
2000
3001
1001
,
0020
0000
0100
1030
,
1000
0000
0100
0000
0100
0010
0001
0000
,
0001
0000
0010
0100
0010
0000
2000
0000
,
3001
0002
1003
1001
,
0202
0303
0010
1000
,
0100
0000
1000
0000
0001
1000
0001
0000
,
0010
0000
0010
0001
0200
0000
0310
0000
,
0001
0010
0100
0000
0010
0000
1000
0000
,
2200
3300
0010
0011
,
0100
0000
0001
0000
0010
0001
1000
0000
,
0010
0000
0010
1000
0200
0000
0310
0000
,
1000
0010
0100
0000
0010
0100
0001
0000
,
0202
0303
0010
1010
,
0100
0000
1000
0000
0010
1000
0001
0000
,
0010
0000
0010
0001
0200
0000
0310
0000
,
0001
0010
0100
0000
0010
0100
1000
0000
;

//---------------dance-single - ----------------
#NOTES:
     dance-single:
     :
     Hard:
     7:
     :
0000
0000
0000
0000
,
0000
0000
0000
0000
,
0000
0000
0000
0000
,
0000
0000
0001
0010
0002
0000
0103
0001
,
0000
0001
0010
0000
0100
1000
1000
0000
,
1000
0001
0100
0010
1000
0100
0001
0000
,
0001
0010
0100
0010
0001
0100
0010
0000
,
0001
0010
0100
1000
1000
0000
1001
0000
,
0001
0100
0100
0000
1000
0001
0100
0010
,
1000
0001
2000
0000
3001
0100
0001
0010
,
0210
1300
0120
0031
,
0010
1000
0010
0000
0100
0001
0100
0000
,
0010
0100
0010
1000
0001
0000
1001
0000
,
0000
0000
1000
0010
2000
0000
3100
1000
,
0000
1000
0010
0000
0100
0001
0001
0000
,
0001
1000
0100
0010
0001
0100
0001
1000
,
0000
0010
0100
0010
1000
0100
0010
0000
,
1000
0010
0100
0000
0110
0000
0001
0000
,
1000
0100
0100
0000
0001
1000
0100
0010
,
0001
1000
0002
0000
1003
0100
1000
0010
,
0210
0301
0120
1030
,
0001
1000
0100
0000
1001
0000
1000
0001
,
0000
0001
0100
0000
0001
0010
0100
0000
,
1000
0001
0100
0000
1001
0000
0001
1000
,
0000
1000
0100
0000
1000
0010
0100
0000
,
0100
0001
0100
0010
1000
0010
0100
0001
,
0100
1000
1010
1100
,
0100
1000
0100
0010
0001
0010
0100
1000
,
0100
0001
0011
0101
,
0100
0001
0100
0010
1000
0000
0001
0000
,
1000
0010
0100
0010
0010
0100
0001
0000
,
1000
0000
2000
0000
3001
0010
0100
0000
,
0001
0010
0000
0100
1000
0000
1001
0000
,
0001
1000
0002
0000
1003
0000
1100
0000
,
1000
0010
0000
0010
0100
0000
0110
0000
,
1001
0000
0002
0000
1003
0010
0100
0000
,
1000
0010
0000
0100
0001
0000
1001
0000
,
1000
0001
2000
0000
3001
0000
0101
0000
,
0001
0010
0000
0010
0100
0000
0110
0000
,
1000
0010
0000
0010
0100
0000
0020
0000
,
0100
0130
0001
1001
,
1000
0100
0001
0000
0010
1000
0010
0100
,
0001
0002
2003
3100
,
0010
0001
0100
0000
0010
1000
0100
0010
,
0001
1000
0002
0000
1000
0000
0103
0000
,
0001
0100
1000
0000
0010
0001
0010
0100
,
1000
2000
3002
0103
,
0010
1000
0100
0000
0010
0001
0100
0010
,
1000
0001
2000
0000
0001
0000
3100
0000
,
0100
0100
0001
0010
,
2000
0001
0010
0001
,
0001
0100
0001
3100
,
0001
0010
0001
0010
0100
1000
0100
1000
,
0100
0010
0100
0000
0001
0000
0100
0000
,
0002
1000
0010
1000
,
1000
0100
1000
0103
,
1000
0010
0000
0000
1000
0010
0000
0000
0100
0001
0000
0000
0100
0000
0001
0000
,
1000
0010
0100
0000
0001
0100
1000
0000
,
0020
0100
0001
1000
,
1000
0001
1000
0130
,
0001
0100
0000
0000
0010
0100
0000
0000
0010
1000
0000
0000
0001
0000
0100
0000
,
0110
0000
0000
0000
;

//---------------dance-double - ----------------
#NOTES:
     dance-double:
     :
     Easy:
     3:
     :
00000000
00000000
00000000
00000000
,
00000000
00000000
00000000
00000000
,
00000000
00000000
00000000
00000000
,
00000000
00000001
00000000
00000001
,
00000000
00001000
00000000
00001000
,
00000000
00000001
00000000
00000001
,
00000000
00000100
00000000
00001000
,
00010000
00010000
00000000
00000000
,
00000000
00000000
00000000
00010000
,
00010000
00000000
00001000
00000000
,
00010000
00000000
00100000
00000000
,
01000000
01000000
00000000
00000000
,
00000000
00000000
00000000
00000000
,
10010000
10000000
00000000
10000000
,
00000000
10000000
00000000
01000000
,
00000000
00010000
00000000
00010000
,
00000000
00001000
00000000
00001000
,
00000010
00000010
00000000
00000000
,
00000000
00000000
00000000
00000001
,
00001001
00000000
00000100
00001000
,
00011000
00000000
00010000
00100000
,
01100000
01000000
01000000
01000000
,
01000000
01000000
01000000
01000000
,
00000000
00100000
00100000
00100000
,
01000000
01000000
01000000
00000000
,
10010000
00000000
00010000
00000000
,
10000000
10000000
10000000
00000000
,
10010000
00000000
01000000
00000000
,
00010000
00010000
00010000
00000000
,
00011000
00000000
00001000
00000000
,
00000010
00000010
00000010
00000000
,
00001001
00000001
00000001
00001000
,
00001000
00000001
00000001
00000000
,
00000000
00000001
00000001
00000100
,
00000100
00001000
00001000
00000000
,
00000000
00001000
00001000
00010000
,
00010000
00100000
00100000
00000000
,
00000000
10000000
10000000
00100000
,
00100000
01000000
01000000
00000000
,
00020000
00030000
20000000
00000000
,
00000000
30000000
01000000
00000000
,
00010000
00000000
00001000
00000000
,
00000010
00000000
00000001
00000000
,
00001000
00000000
00000010
00000000
,
00000100
00000100
00000100
00000000
,
00001001
00000000
00000001
00000001
,
00000001
00000000
00000100
00000100
,
00000100
00000000
00001000
00001000
,
00001000
00010000
00100000
01000000
,
01100000
00000000
01000000
00000000
,
00000000
00010000
10000000
00000000
,
00000000
00010000
10000000
10000000
,
01000000
00010000
00001000
00000000
,
00011000
00000000
00001000
00000000
,
00000000
00000010
00000100
00000000
,
00000000
00000010
00000100
00000100
,
00001000
00000001
00000100
00000000
,
00001001
00000000
00000100
00000000
,
00000000
00000100
00001000
00000000
,
00000000
00001000
00010000
00010000
,
00100000
00100000
00100000
00000000
,
10010000
00000000
00000000
00000000
;

//---------------dance-double - ----------------
#NOTES:
     dance-double:
     :
     Medium:
     7:
     :
00000000
00000000
00000000
00000000
,
00000000
00000000
00000000
00000000
,
00000000
00000000
00000000
00000000
,
00000000
00000001
00000001
00000001
,
00001000
00000000
00001000
00000000
00000001
00000100
00001000
00000000
,
00001000
00010000
00010000
00010000
,
01000000
00000000
01000000
00000000
10000000
00010000
10000000
00000000
,
00100000
01000000
00200000
00000000
01000000
00000000
01000000
00000000
,
01000000
01000000
01000000
10300000
,
00020000
10030000
00200000
00310000
,
00020000
00031000
00002000
00003010
,
00000010
00000002
00000020
00000000
00000000
00000000
00000000
00000000
,
00000000
00000000
00000003
00000130
,
00001001
00000001
00000100
00000010
,
00001000
00010000
00100000
00100000
,
00100000
01000000
01000000
01000000
,
10000000
00100000
00010000
00000100
,
00000010
00000001
00000020
00000000
00000000
00000000
00000100
00000000
,
00000000
00000100
00000000
00000130
,
00000200
00001300
00002000
00003010
,
00000020
00000130
00000200
00001300
,
00001000
00010000
00001000
00000000
00010000
00000000
00010000
00100000
,
10000000
10000000
01010000
11000000
,
00000000
00000000
00010000
00000000
00010000
00000000
00010000
00100000
,
01000000
10000000
01010000
11000000
,
10010000
10000000
00100000
00010000
,
00001000
00000100
00000001
00000000
00000001
00000000
00001000
00000000
,
00001001
00000001
00000010
00001000
,
00010000
01000000
10000000
00000000
10000000
00000000
00010000
00000000
,
10010000
00000000
00010000
00000000
10000000
00000000
00100000
01000000
,
00100000
00000000
10000000
00010000
10000000
00000000
01100000
00000000
,
10020000
10000000
10000000
10030000
,
10000000
01000000
00010000
00000000
00001000
00000000
00001000
00000000
,
00010000
00001000
00000010
00000001
,
00000001
00000100
00001000
00000000
00000100
00000000
00000100
00000000
,
00000100
00001001
00000100
00000010
,
00001000
00000001
00000100
00000000
00001000
00000000
00010000
00000000
,
00010000
01000000
10000000
00010000
,
01200000
10000000
10000000
10300000
,
02100000
00010000
00010000
03010000
,
00200000
01000000
02300000
03100000
,
10010000
10000000
01000000
00010000
,
00000010
00000100
00000001
00001000
,
00000010
00000010
00000100
00000001
,
00001000
00000001
00000010
00000100
,
00001001
00000001
00000100
00001000
,
00100000
01000000
10000000
00010000
,
00100000
00100000
01000000
10000000
,
00010000
00100000
01000000
00000000
10000000
00100000
01000000
00000000
,
10010000
01100000
10000000
00010000
,
00100000
01010000
00001000
00010000
,
00000100
00001010
00000100
00000001
,
00000010
00000001
00000100
00000000
00000010
00001000
00000100
00000000
,
00001001
00000110
00000001
00001000
,
00000010
00001100
00010000
00001000
,
01000000
00110000
01000000
10000000
,
00100000
10000000
01000000
00000000
00100000
00010000
01000000
00000000
,
10010000
01100000
10000000
00010000
,
00100000
01010000
00001000
00010000
,
00000100
00001010
00000100
00000001
,
00000010
00000001
00000100
00000000
00000010
00001000
00000100
00000000
,
00001001
00000110
00000001
00001000
;

//---------------dance-double - ----------------
#NOTES:
     dance-double:
     :
     Hard:
     8:
     :
00000000
00000000
00000000
00000000
,
00000000
00000000
00000000
00000000
,
00000000
00000000
00000000
00000000
,
00000000
00000000
00010000
10000000
00010000
00000000
00010000
00000000
,
10000000
00000000
00100000
00000000
00010000
00001000
00010000
00000000
,
00001000
00000000
00000010
00000001
00001000
00000000
00000001
00000000
,
00001000
00000000
00000010
00000000
00000100
00000001
00001000
00000000
,
00001000
00000001
00002000
00000000
00000001
00000000
00000001
00000000
,
00000001
00000001
00003001
00001000
,
00020000
00130000
02000000
13000000
,
00020000
01030000
00200000
10300000
,
00010000
10000000
00020000
00000000
00000000
00000000
00000000
00000000
,
00200000
00000000
00330000
11000000
,
00110000
00000000
00001000
00000010
00000100
00000000
00000100
00000000
,
00001000
00000001
00001000
00000000
00000001
00001000
00000001
00000000
,
00000001
00000000
00001000
00000010
00000100
00000000
00000100
00000000
,
00000001
00000010
00001000
00000000
00010000
01000000
10000000
00000000
,
10000000
00100000
02000000
00000000
00010000
00000000
00010000
00000000
,
00010000
00010000
03010000
00010000
,
00010000
00000000
10000000
01000000
00010000
00000000
00001000
00000000
,
00000100
00000000
00000001
00000010
00000001
00000000
00001000
00000000
,
00000010
00000100
00000010
00000000
00001100
00000000
00000100
00000000
,
00000010
00000000
00000010
00000001
00000010
00000000
00001100
00000000
,
00000001
00000000
00001000
00000010
00001000
00000000
00000101
00000000
,
00001000
00000000
00001000
00010000
00001000
00000000
00010100
00000000
,
00011000
00000000
00010000
00000000
00100000
00000000
00100000
01000000
,
00100000
00000000
10000000
00010000
10000000
00000000
01000000
00100000
,
01000000
00000000
00100000
00000000
00010000
00000000
00010000
10000000
,
00010000
00000000
00100000
01000000
00100000
00000000
00010000
10000000
,
00010000
00000000
10000000
00000000
00100000
00000000
00010000
00001000
,
00000010
00000000
00000010
00000100
00000010
00000001
00001000
00000001
,
00002001
00000001
00000001
00003001
,
00000001
00000000
00000001
00000100
00001000
00000000
00001000
00000000
,
00010000
00010000
00100000
00100000
,
00100000
10000000
01000000
00000000
00100000
00010000
01000000
00000000
,
01000000
10010000
00010000
00010000
,
10000000
00000000
10000000
01000000
00010000
00000000
00010000
00000000
,
00001000
00001000
00000010
00000010
,
00000010
00000001
00000100
00000000
00000010
00001000
00000100
00000000
,
00000001
00000100
00002000
00000000
00010000
00000000
00010000
00000000
,
00010000
00010000
00023000
00031000
,
00011000
00000000
00100000
00000000
10000000
00010000
00100000
00000000
,
11000000
00000000
00100000
00000000
00010000
10000000
00100000
00000000
,
01010000
00000000
00001000
00000000
00010000
00000010
00000100
00000000
,
00001001
00000000
00000010
00000000
00000100
00001000
00000001
00000010
,
00000110
00000000
00001000
00000000
00000001
00001000
00000100
00000000
,
00000011
00000000
00000100
00000000
00001000
00000001
00000100
00000000
,
00001010
00000000
00010000
00000000
00001000
01000000
00100000
00000000
,
10000000
00010000
01000000
00100000
10000000
00010000
00100000
00000000
,
01100000
00000000
10010000
00000000
10000000
01000000
00010000
00000000
,
00001000
00000000
00010100
00000000
00001000
00000100
00000001
00000000
,
00000010
00000001
00001000
00000000
00001000
00000001
00000100
00000000
,
00000010
00001000
00000100
00000010
00000001
00001000
00000010
00000000
,
00000110
00000000
00001001
00000000
00000001
00000100
00001000
00000000
,
00010000
00000000
01001000
00000000
00010000
01000000
10000000
00000000
,
00100000
10000000
00010000
00000000
00010000
10000000
01000000
00000000
,
00100000
00010000
01000000
00100000
10000000
01000000
00100000
00000000
,
10010000
00000000
00100000
00000000
10000000
01000000
00010000
00000000
,
00001000
00000000
00010100
00000000
00001000
00000100
00000001
00000000
,
00000010
00000001
00001000
00000000
00001000
00000001
00000100
00000000
,
00000010
00001000
00000100
00000010
00000001
00000100
00000010
00000000
,
00000010
00000000
00001001
00000000
00000001
00000100
00001000
00000000
;
