#TITLE:Familiar Feeling;
#ARTIST:MOLOKO;
#BANNER:Familiar Feeling.png;
#BACKGROUND:Familiar Feeling-bg.png;
#CDTITLE:./CDTitles/DANCING STAGE FUSION.png;
#MUSIC:Familiar Feeling.ogg;
#SAMPLESTART:60.02;
#SAMPLELENGTH:15;
#BPMS:0=132;

//---------------dance-single - ----------------
#NOTES:
     dance-single:
     :
     Beginner:
     1:
     :
0000
0000
0000
0000
,
0000
0000
0000
0000
,
0100
0000
0000
0000
,
0010
0000
0001
0000
,
0100
0000
0000
0000
,
0100
0000
0000
0000
,
0100
0000
0000
0000
,
0000
0100
0000
0100
,
0000
0010
0010
0010
,
0010
0000
0010
0000
,
0100
0000
0100
0000
,
0010
0000
1000
0000
,
0100
0000
0100
0000
,
0100
0000
0010
0000
,
0100
0000
0010
0000
,
0001
0000
1000
0000
,
0001
0000
1000
0000
,
0010
0000
0010
0000
,
0100
0000
0100
0000
,
0010
0000
0001
0000
,
0100
0000
0100
0000
,
0100
0000
0010
0000
,
0100
0000
0010
0000
,
1000
0000
0001
0000
,
1000
0000
0001
0000
,
0010
0000
0010
0000
,
0100
0000
0100
0000
,
0010
0000
1000
0000
,
0100
0000
0100
0000
,
0100
0000
0010
0000
,
0100
0000
0010
0000
,
0001
0000
1000
0000
,
0001
0000
1000
0000
,
0001
0001
0001
0000
,
0100
0000
0100
0000
,
1000
1000
0000
0010
,
0010
0000
1000
1000
,
1000
1000
1000
0000
,
0100
0000
0100
0000
,
0001
0001
0000
0010
,
0010
0000
0001
0001
,
0001
0001
0001
0000
,
0100
0000
0100
0000
,
1000
1000
0000
0010
,
0010
0000
1000
1000
,
1000
1000
1000
0000
,
0100
0000
0100
0000
,
0001
0001
0000
0010
,
0010
0000
0000
0000
;

//---------------dance-single - ----------------
#NOTES:
     dance-single:
     :
     Easy:
     4:
     :
0000
0000
0000
0000
,
0000
0000
0000
0000
,
0000
0000
0000
0000
,
0010
0000
0010
0000
,
0100
0000
0000
0000
,
2002
3003
0000
0000
,
2002
3003
0000
0000
,
0100
0000
0001
1000
,
0001
1000
0001
1000
,
0001
0000
0001
0100
,
0010
0000
0010
1000
,
0002
0003
2000
3000
,
0200
0300
0002
0003
,
1000
0001
0000
1000
,
0001
1000
0000
0001
,
0010
0000
0010
0000
,
0200
0300
0010
1001
,
1000
0000
1000
0100
,
0010
0010
0110
0000
,
2000
3000
0002
0003
,
0200
0300
2000
3000
,
0001
0001
1000
0001
,
1000
1000
0001
1000
,
0010
0000
0010
0000
,
0200
0300
0010
1001
,
0001
0000
0001
0100
,
0010
0000
0010
1000
,
0010
0010
0001
0001
,
0100
0100
1000
1000
,
0020
0030
0110
0000
,
0100
0100
1000
0001
,
2000
0000
3000
0000
,
0002
0000
1003
0110
,
1001
0000
0002
0103
,
1000
0100
0001
0100
,
1000
1000
0001
0000
,
0010
0000
0110
1001
,
1001
0000
2000
3100
,
0001
0100
1000
0100
,
0002
0003
2000
3000
,
0020
0130
0010
1001
,
1001
0000
0002
0103
,
1000
0100
0001
0100
,
1000
1000
0001
0000
,
0010
0000
0110
1001
,
1001
0000
2000
3100
,
0001
0100
1000
0100
,
1001
0000
0000
0000
1001
0000
0000
1001
;

//---------------dance-single - ----------------
#NOTES:
     dance-single:
     :
     Medium:
     5:
     :
0000
0000
0000
0000
,
0000
0000
0000
0000
,
0000
0000
0000
0000
,
0010
0010
0100
0100
,
0010
0000
0001
0000
0100
0000
1000
0001
,
0000
0000
0000
0000
0000
0000
0010
0100
,
0000
0000
0000
0000
,
0001
0001
0010
1000
,
2002
0003
3001
0100
,
1001
0000
1000
0000
0001
1000
0001
1000
,
0100
0001
1000
1000
,
0001
0100
1000
0100
,
0001
0010
1000
0100
,
0010
0000
0001
0100
,
0010
0100
0010
0000
0001
0000
0100
0000
,
1001
0000
0001
0000
,
1001
0000
0011
0110
,
1001
0000
0001
0000
1000
0001
1000
0001
,
0100
1000
0001
0001
,
1000
0100
0001
0100
,
1000
0010
0001
0100
,
0010
0001
1000
0100
,
0010
0100
0010
0000
1000
0000
0100
0000
,
1001
0000
1000
0000
,
1001
0000
1010
0110
,
1001
0000
1000
0000
0001
1000
0001
0000
,
0100
0000
0010
0000
1000
0001
1000
0000
,
0020
0130
0200
0301
,
0002
1003
2000
3001
,
1001
0000
1000
0000
0001
0100
0001
0000
,
1000
0000
0001
0000
0100
0000
0001
0100
,
0001
0001
1000
1000
,
0010
1010
0001
0101
,
2002
3003
0110
1001
,
0001
0000
0010
0000
1000
0010
0100
0000
,
0001
0101
1000
1010
,
0010
0000
0100
0000
0001
0010
0100
0000
,
2002
3003
0110
1001
,
1000
0000
0010
0000
0001
0010
0100
0000
,
1000
1100
0001
0011
,
1001
0000
0000
0000
1000
0010
0100
0000
,
2002
3003
0110
1001
,
0001
0000
0010
0000
1000
0001
0100
0000
,
0011
1001
1100
0110
,
0001
0000
1000
0000
0001
0010
0100
0000
,
2002
3003
0110
1001
,
1000
0100
0010
0000
0001
0010
0100
0000
,
1001
0000
0000
1000
0000
0000
0001
0000
0001
0000
0000
1000
0000
0000
1001
0000
;

//---------------dance-single - ----------------
#NOTES:
     dance-single:
     :
     Hard:
     7:
     :
0000
0000
0000
0000
,
0000
0000
0000
0000
,
0000
0000
0020
0130
,
1000
0100
0010
0100
0010
0001
0100
0010
,
1000
0000
0100
0000
0010
0000
0002
0000
0000
0000
0000
0000
0003
0000
1000
0200
,
0000
0000
0000
0000
0000
0000
0000
0000
0010
0000
0000
0000
0300
0000
0000
0001
,
0020
0000
1000
0130
,
1000
0100
1000
0000
0100
0000
0010
0000
0001
0010
0001
0000
0010
0000
0100
0000
,
1000
0100
1000
0001
0100
0001
0101
0000
,
0010
0000
0000
1000
0000
0000
0010
0000
0100
0000
0000
0001
0000
0000
0100
0000
,
0110
0000
0000
1010
0000
0000
0110
0000
0110
0000
0000
0101
0000
0000
0110
0000
,
0001
0000
0000
0100
0000
0000
0010
0000
0100
0000
0000
0010
0000
0000
1000
0000
,
0001
0000
0000
0100
0000
0000
0010
0000
0100
0000
0000
0010
0000
0000
1000
0000
,
1000
0000
0000
0100
0000
0000
0010
0000
1001
0000
0000
0010
0000
0000
0100
0000
,
0110
0000
0000
0010
0000
0000
0100
0000
0001
0000
0000
0100
0000
0000
0010
0000
,
1000
0000
0000
0110
0000
0000
0010
0000
0100
0000
0000
0110
0000
0000
0001
0000
,
0001
0000
0000
0100
0000
0000
0010
0000
1000
0001
1000
0000
0001
1000
0001
0000
,
0010
0000
0000
0001
0000
0000
0010
0000
0100
0000
0000
1000
0000
0000
0100
0000
,
0110
0000
0000
0011
0000
0000
0110
0000
0110
0000
0000
1100
0000
0000
0110
0000
,
1000
0000
0000
0100
0000
0000
0010
0000
0100
0000
0000
0010
0000
0000
0001
0000
,
0001
0000
0000
0100
0000
0000
0010
0000
0100
0000
0000
0010
0000
0000
1000
0000
,
0001
0000
0000
0100
0000
0000
0010
0000
1001
0000
0000
0010
0000
0000
0100
0000
,
0110
0000
0000
0010
0000
0000
0100
0000
1000
0000
0000
0100
0000
0000
0010
0000
,
0001
0000
0000
0110
0000
0000
0010
0000
0100
0000
0000
0110
0000
0000
1000
0000
,
1000
0000
0000
0100
0000
0000
0010
0000
0001
1000
0001
0000
1000
0001
1000
0000
,
0010
0000
0000
1000
0000
0000
0010
0000
0100
0000
0000
0001
0000
0000
0100
0000
,
0010
0000
0000
1010
0000
0000
0010
0000
0100
0000
0000
0101
0000
0000
0100
0000
,
0001
0000
0000
0100
0000
0000
0010
0000
0100
0000
0000
0010
0000
0000
1000
0000
,
1000
0000
0000
0100
0000
0000
0010
0000
0100
0000
0000
0010
0000
0000
0001
0000
,
1000
0000
0000
0100
0000
0000
1000
0000
0100
0000
0000
0010
0000
0000
0001
0000
,
0100
0000
0000
0001
0000
0000
0100
0000
0010
0000
0000
1000
0000
0000
0100
0000
,
0010
0000
0000
0011
0000
0000
0010
0000
0100
0000
0000
1100
0000
0000
0100
0000
,
0010
0000
0000
0001
0000
0000
1000
0000
1001
0000
0000
0000
0110
0000
0000
0000
,
1001
0000
0100
0010
1000
0100
1000
0100
,
0001
0010
0001
0010
0100
1000
0100
1000
,
0010
0100
0010
0100
0001
1000
0001
0000
,
1100
0000
0101
0000
0011
0010
0100
0100
,
1001
0000
0100
0010
0001
0100
0001
0100
,
1000
0010
1000
0010
0100
0001
0100
0001
,
1001
1000
0100
0000
1001
0001
0100
0000
,
1000
0010
1000
0000
1010
0010
0100
0100
,
1001
0000
0100
0010
1000
0100
1000
0100
,
0001
0010
0001
0010
0100
1000
0100
1000
,
0010
0100
0010
0100
0001
1000
0001
0000
,
1100
0000
0101
0000
0011
0010
0100
0100
,
1001
0000
0100
0010
0001
0100
0001
0100
,
1000
0010
1000
0010
0100
0001
0100
0001
,
1001
0000
0000
0101
0000
0000
1001
0000
1001
0000
0000
1100
0000
0000
1001
0000
;
