#TITLE:Danger! High Voltage;
#ARTIST:Electric Six;
#BANNER:Danger! High Voltage.png;
#BACKGROUND:Danger! High Voltage-bg.png;
#CDTITLE:./CDTitles/DANCING STAGE FUSION.png;
#MUSIC:Danger! High Voltage.ogg;
#SAMPLESTART:60.46;
#SAMPLELENGTH:15;
#DISPLAYBPM:123;
#BPMS:0=123.02;

//---------------dance-single - ----------------
#NOTES:
     dance-single:
     :
     Beginner:
     1:
     :
0000
0000
0000
0000
,
0000
0000
0000
0000
,
0000
0000
0000
0000
,
0001
0000
1000
0000
,
0001
0000
1000
0000
,
0001
0000
1000
0000
,
0001
0000
1000
0000
,
0001
0001
0100
0000
,
1000
0000
0100
0000
,
0000
0001
0000
0001
,
0001
0001
0000
1000
,
1000
1000
0000
0100
,
0000
0001
0000
0100
,
0000
1000
0000
1000
,
1000
1000
0000
1000
,
1000
0000
0000
0000
,
0001
0000
0000
0000
,
0010
0000
0000
0000
,
0100
0000
0001
0001
,
0001
0001
0001
0000
,
1000
1000
1000
0000
,
0010
0010
0010
0000
,
0100
0100
0100
0000
,
0010
0000
0001
0000
,
0010
0000
1000
0000
,
1000
0000
0100
0000
,
0010
0000
0001
0000
,
0100
0000
0000
0000
,
0010
0000
1000
0000
,
0010
0000
0001
0000
,
0001
0000
0100
0000
,
1000
0000
0000
0000
,
0001
0000
0000
0000
,
0010
0000
0000
0000
,
0100
0000
0001
0001
,
0001
0001
0001
0000
,
1000
1000
1000
0000
,
0010
0010
0010
0000
,
0100
0100
0100
0000
,
0001
0000
0000
0000
,
1000
0000
0000
0000
,
0010
0000
0000
0000
,
0100
0000
1000
1000
,
1000
1000
1000
0000
,
0001
0001
0001
0000
,
0010
0010
0010
0000
,
0100
0100
0100
0000
;

//---------------dance-single - ----------------
#NOTES:
     dance-single:
     :
     Easy:
     4:
     :
0000
0000
0000
0000
,
0000
0000
0000
0000
,
0000
0000
0000
0000
,
1001
0000
1000
0000
,
1000
0000
0100
0001
,
1001
0000
0001
0000
,
1000
0000
0001
1001
,
1000
1000
0000
0000
,
0001
0001
0000
0000
,
0010
0000
0100
0000
,
0010
0010
0100
0010
,
1000
1000
0100
0000
,
0001
0001
0100
0000
,
0100
0000
0010
0000
,
0110
0000
0100
0001
,
0101
0001
0001
0001
,
1000
1000
1000
0001
,
1000
0000
1001
0000
,
0001
0000
1000
0100
,
1100
1000
1000
1000
,
0001
0001
0001
1000
,
0001
0000
1001
0000
,
1000
0001
1001
0000
,
0110
0000
0110
0000
,
1000
0000
0001
0110
,
0001
0001
0010
0000
,
1000
0001
1001
0000
,
0110
0000
0110
0000
,
0001
0000
1000
0001
,
1001
0000
0110
0000
,
0101
0000
1001
0000
,
0010
0100
0100
0001
,
1001
1000
0001
1001
,
0001
0001
0010
0000
,
1000
0010
1001
0000
,
0010
0100
0110
0000
,
1001
0001
1000
1001
,
0001
1000
0100
0001
,
0010
1000
1001
0000
,
0010
0010
0010
0000
,
0001
0001
1000
0001
,
0100
0100
0010
0010
,
1000
0001
1001
0000
,
0100
0100
0100
0000
,
0001
0000
1000
0000
,
0010
0010
0100
0100
,
0010
0000
0110
0000
;

//---------------dance-single - ----------------
#NOTES:
     dance-single:
     :
     Medium:
     5:
     :
0000
0000
0000
0000
,
0000
0000
0000
0000
,
0000
0000
0000
0000
,
1001
0000
0110
0000
,
1001
0000
0110
0000
,
0010
1010
0001
0101
,
1000
0000
0100
0000
0001
0010
0001
1000
,
0010
0000
0010
0000
0010
0100
0010
0000
,
0100
0000
0100
0010
0100
0010
0100
0000
,
0001
1000
0001
0000
1000
0001
1000
0000
,
0100
0100
0110
1001
,
0100
0000
0100
0000
0100
0010
0100
0000
,
0010
0000
0010
0100
0010
0100
0010
0000
,
1000
0001
1000
0000
0001
1000
0001
0000
,
0010
0000
0110
1001
,
1000
0001
0100
0001
1000
0000
1000
0000
,
0001
0010
1000
0100
,
0001
0001
0100
0000
1000
1000
0100
0000
,
1000
0001
0110
1001
,
0001
1000
0100
1000
0001
0000
0001
0000
,
1000
0010
0001
0100
,
1100
0000
0011
0000
,
0001
1000
0001
0000
0110
0000
1001
0000
,
0001
0100
1000
0000
,
0100
0000
0001
1000
,
0001
0000
0100
0000
1000
0001
0100
0000
,
0010
0100
0110
1001
,
1000
0100
0001
0000
,
0100
0000
1000
0001
,
1000
0000
0100
0000
0001
1000
0100
0000
,
0010
0001
0100
0000
0110
0000
1001
0000
,
0101
0000
1010
0000
,
1000
0001
0011
1100
,
0001
0010
1000
0110
,
0010
1001
1000
0001
,
1100
0000
0011
0000
,
0001
1000
1010
0101
,
1000
0110
0001
0110
,
0010
1001
0100
1001
,
1001
0000
1000
0001
,
0001
0100
0001
0100
0001
0000
1000
0000
,
0001
0101
0100
0110
,
0010
0100
0010
0000
0110
0000
1001
0000
,
1000
0000
1000
0001
1000
0000
0100
0000
,
0001
0100
0001
0000
0100
0000
1100
0000
,
1000
1001
0001
0101
,
0100
0000
0110
0000
0100
0010
0100
0010
;

//---------------dance-single - ----------------
#NOTES:
     dance-single:
     :
     Hard:
     7:
     :
0000
0000
0000
0000
,
0000
0000
0000
0000
,
0000
0000
0000
0000
0000
0000
0000
0000
1010
0000
0000
0000
0101
0000
0001
0100
,
0001
0000
0000
0000
0100
0000
0000
0000
0101
0000
0000
0000
0100
0000
0010
0100
,
0010
0000
1010
0000
0010
0100
0010
0000
,
1001
0100
1000
0001
0010
0100
1000
0001
,
1000
1000
1100
0100
1000
0001
0100
0001
,
1001
0100
1000
0100
1100
0100
1000
0100
,
0010
0001
0010
0001
0011
0001
0010
0001
,
0100
0010
0100
0010
1000
0001
1001
0000
,
0001
0001
1000
0100
0010
0001
1000
0001
,
1001
0100
0001
0100
0101
0100
0001
0100
,
0010
1000
0010
1000
1010
1000
0010
1000
,
0001
0100
0001
1000
0001
0010
1001
0000
,
1000
1000
0001
0100
0010
1000
0001
0000
,
0010
0100
0010
0000
1000
0000
0001
0000
1000
0000
1000
0000
0100
0000
0010
0000
,
0001
0010
1000
0100
,
0001
0100
0001
0000
1000
0000
0100
0000
0001
0000
1000
0100
1000
0000
0001
0000
,
0100
0010
0100
0001
1001
0001
1000
0010
,
0010
0100
0010
0000
0001
0000
1000
0000
0001
0000
0001
0000
0100
0000
0010
0000
,
1000
0000
0000
0000
0010
0000
0000
0000
0001
0000
1000
0100
1000
0000
0001
0000
,
0100
0000
0001
0100
0001
0000
0100
0000
1000
0000
0000
0000
0100
0000
0000
0000
,
0001
0100
1000
0000
0001
0100
1000
0100
,
1001
0100
1001
0100
,
0010
0000
0011
0000
0001
0010
0100
0000
,
0001
0010
0001
0100
0001
0000
1000
0000
,
1000
0010
1000
0100
0001
0100
1000
0100
,
1001
0100
1001
0100
,
0010
0000
1010
0000
1000
0010
0100
0000
,
1000
0010
1000
0100
1000
0000
0001
0000
,
0001
0010
0001
0100
1000
0100
1001
0000
,
1100
0000
0001
0100
0010
0100
0001
1000
,
1001
0000
1000
0100
0010
0100
0001
1000
,
0011
0000
1000
0010
0100
0001
1000
0001
,
1000
0100
0001
0100
0001
0100
1000
0100
,
0101
0000
1000
0100
0010
0100
1000
0001
,
1001
0000
0001
0100
0010
0100
1000
0001
,
1010
0000
0001
0010
0110
0000
1000
0001
,
1001
0000
1000
0100
0101
0000
1001
0000
,
1000
0100
1000
0010
0100
0001
0100
0001
,
0101
0100
0001
0010
0100
1000
0100
1000
,
1001
0010
0001
0000
1000
0010
0100
0010
,
1000
0100
1000
0100
0001
0100
1000
0100
,
0001
0010
0001
0100
0001
0010
0100
1000
,
0001
0100
0001
0000
1000
0000
0010
0000
,
0001
0100
0001
0100
1000
0100
1000
0000
,
0001
0000
0100
0000
0001
1000
0001
1000
;
