#TITLE:Believe;
#ARTIST:Eddie.J;
#BANNER:Believe.png;
#BACKGROUND:Believe-bg.png;
#CDTITLE:./CDTitles/DANCING STAGE FUSION.png;
#MUSIC:Believe.ogg;
#SAMPLESTART:82.885;
#SAMPLELENGTH:15;
#BPMS:0=136;

//---------------dance-single - ----------------
#NOTES:
     dance-single:
     :
     Beginner:
     1:
     :
0000
0000
0000
0000
,
0000
0000
0000
0000
,
0000
0000
0000
0000
,
0001
0000
0100
0000
,
1000
0000
0100
0000
,
0001
0000
0000
0000
,
1000
0000
0000
0000
,
0010
0000
0000
0000
,
0000
0000
0000
0000
,
0001
0000
0000
0000
,
0000
0000
0000
0000
,
0100
0000
0000
0000
,
0100
0000
0000
0000
,
1000
0000
1000
0000
,
1000
0000
1000
0000
,
0010
0000
0000
0000
,
0010
0000
0000
0000
,
1000
0000
0000
0000
,
1000
0000
0000
0000
,
0100
0000
0000
0000
,
0100
0000
0000
0000
,
0001
0000
0001
0000
,
0001
0000
0001
0000
,
0010
0010
0010
0000
,
1000
1000
1000
0000
,
0001
0001
0001
0000
,
0000
1000
0000
0001
,
0001
0000
0100
0000
,
1000
0000
0100
0000
,
0001
0000
1000
0000
,
0001
0000
1000
0000
,
0010
0010
0010
0000
,
1000
1000
1000
0000
,
0001
0001
0001
0000
,
0000
0001
0000
1000
,
1000
0000
0010
0000
,
0001
0000
0010
0000
,
1000
0000
0001
0000
,
0010
0000
0110
0000
,
0010
0010
0010
0000
,
1000
1000
1000
0000
,
0001
0001
0001
0000
,
0000
1000
0000
0001
,
0001
0000
0100
0000
,
1000
0000
0100
0000
,
0001
0000
1000
0000
,
0001
0000
1000
0000
,
0010
0010
0010
0000
,
1000
1000
1000
0000
,
0001
0001
0001
0000
,
0000
0001
0000
1000
,
1000
0000
0010
0000
,
0001
0000
0010
0000
,
1000
0000
0001
0000
,
1000
0000
0001
0000
,
1000
0000
1001
0000
,
0001
0000
1001
0000
;

//---------------dance-single - ----------------
#NOTES:
     dance-single:
     :
     Easy:
     4:
     :
0000
0000
0000
0000
,
0000
0000
0000
0000
,
0000
0000
0000
0000
,
0010
0000
0010
0000
,
0010
0000
0100
0000
,
1000
0000
1001
0000
,
0001
0000
1001
0000
,
0001
0001
0100
0000
,
1000
0000
0001
0000
,
1000
0100
0010
0000
,
0001
0100
0001
1000
,
0002
0003
0020
0030
,
0200
0300
2000
3000
,
0010
0100
0010
0000
,
0001
0000
1000
0001
,
2000
0000
0000
3000
,
0001
0000
0100
0010
,
0002
0000
0000
0003
,
1000
0000
0100
0000
,
0001
0001
0001
0000
,
1000
1000
0100
0000
,
0010
0000
0001
0000
,
0001
1000
0100
0000
,
0010
0010
0001
0000
,
1000
0100
0001
0000
,
0001
0000
0110
0000
,
1000
0000
1001
0000
,
0002
0003
0020
0030
,
0200
0000
0300
0000
,
1000
1000
1000
0000
,
0001
0000
1000
0001
,
0200
0300
0100
0000
,
0001
0100
1000
0000
,
1000
0000
0110
0000
,
0001
0000
1001
0000
,
2000
3000
0020
0030
,
0200
0000
0300
0000
,
0001
0001
0001
0000
,
1000
0000
0001
1000
,
0010
0010
0001
0000
,
1000
0100
0001
0000
,
0001
0000
0110
0000
,
1000
0000
1001
0000
,
0002
0003
0020
0030
,
0200
0000
0300
0000
,
1000
1000
1000
0000
,
0001
0000
1000
0001
,
0200
0300
0100
0000
,
0001
0100
1000
0010
,
0100
0000
0110
0000
,
0001
1000
1001
0000
,
2000
3000
0020
0030
,
0200
0000
0300
0000
,
0001
0001
0001
0000
,
1000
0000
0001
1000
,
1000
0000
1001
0000
,
0001
0000
1001
0000
;

//---------------dance-single - ----------------
#NOTES:
     dance-single:
     :
     Medium:
     6:
     :
0000
0000
0000
0000
,
0000
0000
0000
0000
,
0000
0000
0000
0000
,
1000
1000
1000
1000
,
0001
0001
0100
0001
,
1001
0000
0001
0100
,
0110
0000
2000
0000
,
3001
0000
0100
0000
1000
0010
0100
0010
,
1000
1000
0001
0100
,
0020
0000
0030
0000
0010
1000
0100
0000
,
0001
1000
0001
0000
0100
0000
0010
0000
,
1000
1000
0002
0103
,
0010
0000
0100
0000
,
0001
0000
0001
0010
0100
0000
0000
0000
,
1000
1000
0100
0010
,
0002
0000
0003
0100
,
1000
0100
1001
0100
,
2000
0000
3000
0010
,
0001
0100
1000
0100
,
1000
0000
1000
0000
0010
0100
0001
0000
,
0010
0001
0010
0000
0100
0000
1000
0000
,
1001
0000
0010
0100
,
0010
0010
0010
0100
,
0110
0000
0000
0000
0010
0100
0001
0000
,
0010
0000
0100
0010
0001
0000
1000
0000
,
0001
0010
0100
0000
0010
0100
1000
0000
,
0001
0100
1000
0100
,
0010
0011
1000
1100
,
0010
0100
0110
0000
,
0001
0010
0001
0000
0200
0000
0000
0000
,
0301
0001
0010
0110
,
2000
0000
3000
1001
,
0010
0000
0100
0010
1000
0000
0001
0000
,
1000
0010
0100
0000
0010
0100
0001
0000
,
1000
0100
1001
0100
,
0010
1010
0001
0101
,
0010
0100
0110
0000
,
1000
0010
1000
0000
0200
0000
0000
0000
,
1300
0000
0010
0100
,
0110
0000
0000
0000
0010
0100
1000
0000
,
0010
0000
0100
0010
1000
0000
0001
0000
,
1000
0010
0100
0000
0010
0100
0001
0000
,
1000
0100
0001
0100
,
0010
1010
0001
0101
,
0010
0100
0110
0000
,
1000
0010
1000
0000
0200
0000
0000
0000
,
1300
1000
0010
0110
,
0002
0000
0003
1001
,
0010
0000
0100
0010
0001
0000
1000
0000
,
0001
0010
0100
0000
0010
0100
1000
0000
,
0001
0100
1001
0100
,
0010
0011
1000
1100
,
0010
0100
0110
0000
,
0001
0010
0001
0000
0200
0000
0000
0000
,
0301
0100
0010
0110
,
1001
0010
0001
0100
,
0110
0000
1000
0000
0001
1001
0000
0000
;

//---------------dance-single - ----------------
#NOTES:
     dance-single:
     :
     Hard:
     7:
     :
0000
0000
0000
0000
,
0000
0000
0000
0000
,
0000
0000
0000
0000
,
0001
0000
0001
0100
0001
0100
0010
0000
,
1000
0000
1000
0100
1000
0010
0100
0001
,
1001
0000
0000
0001
0000
1000
0000
0000
,
1001
0000
0000
2000
0000
0000
3001
0000
,
0001
0010
0001
0100
0001
0010
0100
0000
,
1000
0100
1000
0000
0100
0000
0100
0000
,
0010
0001
0010
0000
0001
0000
1100
0000
,
0010
1000
0100
0000
1000
0000
0001
0000
,
1000
0100
0010
0000
0220
0000
0330
0000
,
1000
0000
1000
0001
0100
0000
0100
0000
,
0010
0000
0010
0000
1000
0001
0100
0000
,
1000
0000
1000
0000
0001
0010
0100
0010
,
0002
0100
0000
0103
,
0001
0010
0001
0010
0011
0000
1100
0000
,
2000
0100
0001
3100
,
1000
0010
1000
0010
1000
0000
0101
0000
,
0010
0010
1001
0100
,
0100
0010
0100
0000
1001
0000
0001
0000
,
0010
1000
0100
0000
,
0010
0100
0010
0100
0001
1000
0100
0000
,
0100
0100
0100
1001
,
0010
0100
0010
0000
1000
0001
0100
0010
,
1000
0000
1010
0000
0001
0000
0001
1000
,
0000
1001
0000
0001
1000
0010
0100
0000
,
0002
0100
0103
0000
0020
1000
1030
0010
,
0100
0010
0100
0000
0200
0000
0310
0000
,
0010
0100
1000
0000
0100
0000
0010
0001
,
0000
0110
0000
0100
0000
1001
0000
0002
,
1000
0000
1000
0003
1000
0010
0100
0000
,
0002
0000
0013
0000
1000
0010
0100
0000
,
0001
0000
0011
0000
1000
0000
1000
0001
,
0000
1001
0000
1000
0001
0010
0100
0000
,
2000
0100
3100
0000
0020
0001
0031
0010
,
0100
0010
0100
0000
0200
0000
0310
0000
,
0010
0100
0001
0000
0100
0000
0010
0100
,
0000
0110
0000
1000
0000
1001
0000
0000
,
0100
0100
0100
1001
,
0010
0100
0010
0000
1000
0001
0100
0010
,
1000
0000
1010
0000
0001
0000
0001
1000
,
0000
1001
0000
0001
1000
0010
0100
0000
,
0002
0100
0103
0000
0020
1000
1030
0010
,
0100
0010
0100
0000
0200
0000
0310
0000
,
0010
0100
1000
0000
0100
0000
0010
0001
,
0000
0110
0000
0100
0000
1001
0000
0002
,
1000
0000
0100
0003
1000
0010
0100
0000
,
0002
0000
0013
0000
1000
0010
0100
0000
,
0001
0000
0011
0000
1000
0000
1001
0001
,
0000
1001
0000
1000
0001
0010
0100
0000
,
2000
0100
3100
0000
0020
0001
0031
0010
,
0100
0010
0100
0000
0200
0000
0310
0000
,
0010
0100
0001
0000
0100
0000
0010
0100
,
0000
0110
0000
1000
0000
1001
0000
0100
,
1001
0000
0000
0000
0110
0000
0000
0001
0000
0000
1000
0000
0000
0000
0001
0000
,
1001
0000
0000
0000
0110
0000
0000
1000
0000
0000
1001
0000
0000
0000
0000
0000
;

//---------------dance-double - ----------------
#NOTES:
     dance-double:
     :
     Easy:
     4:
     :
00000000
00000000
00000000
00000000
,
00000000
00000000
00000000
00000000
,
00000000
00000000
00000000
00000000
,
00000001
00000000
00000001
00000000
,
00001000
00000000
00001000
00000000
,
00020000
00000000
00001000
00031000
,
00002000
00000000
00010000
00003000
,
00011000
00010000
00010000
00000000
,
00100000
00100000
01000000
00000000
,
00010000
00010000
10000000
10000000
,
00100000
00100000
00100000
00000000
,
00200000
00000000
01000000
00300000
,
00000000
00000000
00000000
00000000
,
10000000
10000000
01000000
01000000
,
00010000
00000000
00001000
00000000
,
00011000
00001000
00001000
00000000
,
00000010
00000010
00000100
00000000
,
00001000
00001000
00000001
00000001
,
00000010
00000010
00000010
00000000
,
00000020
00000000
00000100
00000030
,
00000100
00000000
00000100
00000000
,
00001000
00001000
00010000
00010000
,
00100000
01000000
01000000
01000000
,
20020000
00000000
00000000
30030000
,
01000000
01000000
00010000
00010000
,
00001000
00000000
00000010
00000000
,
00000001
00001000
00000000
00000000
,
00001000
00001000
00000001
00000001
,
00000100
00000100
00001000
00000000
,
00010000
00010000
00100000
00100000
,
01000000
01000000
00010000
10000000
,
20020000
00000000
00000000
30030000
,
00100000
00100000
00010000
00010000
,
00001000
00000000
00000100
00000000
,
00000001
00001000
00000000
00000000
,
00001000
00001000
00000001
00000001
,
00000010
00000010
00001000
00000000
,
00010000
00010000
01000000
01000000
,
00100000
00100000
00010000
10000000
,
10020000
00000000
10000000
00030000
,
10000000
10000000
01000000
01000000
,
00010000
00000000
00001000
00000000
,
00000100
00000100
00000000
00000000
,
00000001
00000001
00001000
00001000
,
00000001
00000001
00000100
00000000
,
00001000
00010000
00010000
00100000
,
01000000
01000000
00010000
10000000
,
10020000
00000000
10000000
00030000
,
10000000
10000000
00100000
00100000
,
00010000
00000000
00001000
00000000
,
00000010
00000010
00000000
00000000
,
00000001
00000001
00001000
00001000
,
00000001
00000001
00000010
00000000
,
00001000
00001000
00010000
00010000
,
00100000
10000000
00010000
00100000
,
20020000
00000000
00000000
30030000
,
01100000
00000000
00000000
00010000
00000000
10000000
00000000
00000000
;

//---------------dance-double - ----------------
#NOTES:
     dance-double:
     :
     Medium:
     7:
     :
00000000
00000000
00000000
00000000
,
00000000
00000000
00000000
00000000
,
00000000
00000000
00000000
00000000
,
00000001
00000000
00000001
00000000
,
00001000
00000000
00001000
00000000
,
00002001
00000000
00000000
00000100
00000000
00000100
00003000
00000000
,
00010100
00000000
00001000
00000000
00010000
00100000
10000000
00000000
,
01010000
00000000
00010000
00000000
10000000
00010000
10000000
00000000
,
00100000
00100000
00010000
00010000
,
00001000
00000000
00000010
00000000
00000001
00001000
00000001
00000000
,
00000010
00000010
00000100
00000100
,
00001000
00000000
00000001
00000000
00000001
00000100
00001000
00000000
,
00010000
01000000
10000000
10000000
,
01000000
01000000
00010000
00010000
,
00001000
00000000
00001000
00000000
00000010
00000100
00000010
00000000
,
00001100
00000000
00001000
00000000
00000001
00001000
00000001
00000000
,
00000010
00000010
00001000
00001000
,
00010000
00000000
00100000
00000000
10000000
00010000
10000000
00000000
,
00100000
00100000
01000000
01000000
,
00010000
00000000
10000000
00000000
10000000
01000000
00010000
00000000
,
00001000
00000100
00000001
00000001
,
00001000
00001000
00000010
00000010
,
00000101
00000000
00001000
00010000
01000000
00000000
11000000
00000000
,
10010000
00010000
00010000
00010000
,
10000000
10000000
01000000
01000000
,
00010000
00001000
00000100
00000001
,
00000110
00000000
00001000
00000001
00001000
00000000
00000001
00000000
,
00000010
00000000
00001000
00000000
00010000
00001000
00010000
00000000
,
00010000
00000000
01000000
00000000
10000000
00010000
10000000
00000000
,
20000000
00010000
00010000
30010000
,
10100000
00000000
00100000
00010000
00001000
00000000
00000010
00000000
,
00001001
00001000
00001000
00001000
,
00000001
00000001
00000100
00000100
,
00001000
00010000
01000000
10000000
,
01100000
00000000
00010000
10000000
00010000
00000000
10000000
00000000
,
00100000
00000000
00010000
00000000
00001000
00010000
00001000
00000000
,
00001000
00000000
00000100
00000000
00000001
00001000
00000001
00000000
,
00000002
00001000
00001000
00001003
,
00000011
00000000
00000010
00001000
00010000
00000000
00100000
10000000
,
00010000
00010000
00010000
00010000
,
10000000
10000000
00100000
00010000
,
00000100
00000010
00000001
00001000
,
00000110
00000000
00001000
00000001
00001000
00000000
00000001
00000000
,
00000100
00000000
00001000
00000000
00010000
00001000
00010000
00000000
,
00010000
00000000
00100000
00000000
10000000
00010000
10000000
00000000
,
20000000
00000000
00000000
00000000
00010000
00000000
00000000
30000000
00010000
00000000
10000000
00000000
00010000
00000000
00000000
00000000
,
11000000
00000000
01000000
00010000
00001000
00000000
00000100
00000000
,
00001001
00001000
00001000
00001000
,
00000001
00000001
00000010
00001000
,
01000000
00100000
10000000
00010000
,
01100000
00000000
00010000
10000000
01000000
00000000
01000000
00000000
,
00010000
00000000
00010000
00000000
00001000
00010000
00001000
00000000
,
00001000
00000000
00000010
00000000
00000001
00001000
00000001
00000000
,
00000002
00000000
00000000
00000000
00000000
00000000
00000000
00000003
00001000
00000000
00000001
00000000
00001000
00000000
00000000
00000000
,
00000011
00000000
00000010
00001000
00010000
00100000
01000000
00000000
,
20010000
00000000
00000000
01000000
00000000
01000000
30000000
00000000
,
10010000
00000000
00000000
01100000
00000000
10010000
00000000
00000000
;

//---------------dance-double - ----------------
#NOTES:
     dance-double:
     :
     Hard:
     8:
     :
00000000
00000000
00000000
00000000
,
00000000
00000000
00000000
00000000
,
00000000
00000000
00000000
00000000
,
00010000
00010000
00010000
00010000
,
10000000
10000000
10000000
10000000
,
01100000
00000000
00000000
10010000
00000000
01100000
00000000
00000000
,
10010000
00000000
01000000
00010000
00001000
00000100
00000001
00000000
,
00001100
00000000
00000001
00000000
00000010
00000100
00001000
00000000
,
00001000
00000000
00000001
00000000
00000100
00001000
00010000
00000000
,
00010000
00000000
01000000
00000000
10000000
00010000
10000000
00000000
,
10000000
00100000
10000000
00000000
10000000
01000000
10000000
00000000
,
00100000
00000000
00010000
00000000
00001000
00000010
00000100
00000000
,
00000100
00000000
00001000
00000000
00000010
00000100
00000010
00000000
,
00000100
00000001
00000010
00001000
,
00010000
00001000
01000000
00100000
10000000
01000000
01000000
00000000
,
01010000
00000000
10000000
00000000
00100000
01000000
00010000
00000000
,
00010000
00000000
10000000
00000000
01000000
00010000
00001000
00000000
,
00001000
00000000
00000100
00000000
00000001
00001000
00000001
00000000
,
00000001
00000010
00000001
00000000
00000001
00000100
00000001
00000000
,
00000010
00000000
00001000
00000000
00010000
00100000
01000000
00000000
,
01000000
00000000
00010000
00000000
00100000
01000000
00100000
00000000
,
00010000
10000000
00100000
00010000
,
00001000
00010000
00000100
00000010
00000000
00001001
00000000
00000010
,
00000200
00001000
00001000
00001300
,
00000010
00000001
00000010
00000000
00000100
00001000
00000100
00000000
,
00010000
00000000
00001000
00000000
01000000
00100000
01000000
00100000
,
00000000
20010000
00000000
00000000
01000000
00000000
31000000
00000000
,
01000000
00010000
00001000
00000000
00010000
00000000
00001000
00000000
,
00001000
00000100
00000001
00000000
00000010
00000000
00000100
00000000
,
00001000
00000001
00000100
00000000
00001000
00000000
00010000
00001000
,
00000000
00010100
00000000
00011000
00000000
00010000
00100000
00000000
,
02100000
10000000
10000000
13000000
,
00100000
10000000
00100000
00000000
01000000
00010000
01000000
00000000
,
00001000
00000000
00010000
00000000
00000100
00000010
00000100
00000010
,
00000000
00001002
00000000
00000000
00000100
00000000
00000103
00000000
,
00000100
00001000
00010000
00000000
00001000
00000000
00010000
00000000
,
00010000
01000000
10000000
00000000
00100000
00000000
01000000
00000000
,
00010000
10000000
01000000
00000000
00010000
00000000
00001000
00010000
,
00001000
00000010
00000001
00000010
00001000
00000010
00000001
00001000
,
00000002
00001000
00001000
00001003
,
00000100
00000001
00000100
00000000
00000010
00001000
00000010
00000000
,
00010000
00000000
00001000
00000000
00100000
01000000
00100000
01000000
,
00000000
20010000
00000000
00000000
00100000
00000000
30100000
00000000
,
00100000
00010000
00001000
00000000
00010000
00000000
00001000
00000000
,
00001000
00000010
00000001
00000000
00000100
00000000
00000010
00000000
,
00001000
00000001
00000010
00000000
00001000
00000000
00010000
00001000
,
00000000
00010010
00000000
00011000
00000000
00010000
01000000
00000000
,
01200000
10000000
10000000
10300000
,
01000000
10000000
01000000
00000000
00100000
00010000
00100000
00000000
,
00001000
00000000
00010000
00000000
00000010
00000100
00000010
00000100
,
00000000
00001002
00000000
00000000
00000010
00000000
00000013
00000000
,
00000010
00001000
00010000
00000000
00001000
00000000
00010000
00000000
,
00010000
00100000
10000000
00000000
01000000
00000000
00100000
00000000
,
00010000
10000000
00100000
00000000
00010000
00000000
00001000
00010000
,
00001000
00000100
00000001
00000100
00001000
00000100
00000001
00001000
,
00001002
00000000
00000000
00000010
00000000
00000100
00000003
00000000
,
00001001
00000000
00000000
00000110
00000000
00001001
00000000
00000000
;
