
//----- song ID: vity -----//
#TITLE:Virtuality;
#ARTIST:VBirds;
#BANNER:Virtuality.png;
#BACKGROUND:Virtuality-bg.png;
#CDTITLE:./CDTITLES/Dancing Stage Fever.png;
#MUSIC:Virtuality.ogg;
#SAMPLESTART:58.245;
#SAMPLELENGTH:15;
#DISPLAYBPM:103;
#BPMS:0=103.053,35=101.124,36=103.022;

//---------------dance-single - ----------------
#NOTES:
     dance-single:
     :
     Beginner:
     1:
     :
0000
0000
0000
0000
,
0000
0000
0000
0000
,
0000
0000
0000
0000
,
0010
0000
0000
0000
,
1000
0000
0000
0000
,
0010
0000
0000
0000
,
0001
0000
0000
0000
,
0010
0010
0010
0000
,
1000
1000
1000
0000
,
1001
0000
0001
0000
,
0110
0000
1000
0000
,
0110
0000
1001
0000
,
0001
0000
0110
0000
,
1001
0000
0000
0000
,
0110
0000
1001
0000
,
0001
0000
0110
0000
,
1000
0000
1001
0000
,
0001
0000
0000
0000
,
1000
0000
1000
0000
,
1000
0000
0000
0000
,
0001
0001
0001
0000
,
0010
0000
0001
0000
,
1000
0000
1000
0000
,
0100
0000
0000
0000
,
0001
0000
0000
0000
,
0100
0000
0000
0000
,
1000
0000
0000
0000
,
0010
0000
0000
0000
,
1000
0000
0000
0000
,
0010
0000
0000
0000
,
0001
0000
0000
0000
,
0010
0010
0010
0000
,
1000
1000
1000
0000
,
0000
1001
0000
0001
,
0000
0110
0000
1000
,
0000
0110
0000
1001
,
0000
0001
0000
0110
,
0000
1000
0000
1001
,
0000
0001
0000
0110
,
0000
1000
0000
0110
,
0000
1001
0000
0000
,
0000
0001
0000
0001
;

//---------------dance-single - ----------------
#NOTES:
     dance-single:
     :
     Easy:
     3:
     :
0000
0000
0000
0000
,
0000
0000
0000
0000
,
0000
0000
0000
0000
,
0010
0000
0100
0000
,
1000
0000
0001
0100
,
0001
0000
0100
0100
,
0001
0000
1000
0000
,
0020
0030
1000
0001
,
0100
1000
0001
0000
,
1001
0000
0001
0000
,
0110
0000
1000
0000
,
0110
0000
1001
0000
,
0001
0000
0110
0000
,
1000
0000
0000
0000
,
0110
0000
1001
0000
,
0001
0000
1000
0000
,
0110
0000
1001
0000
,
0002
0003
0100
0000
,
2000
3000
0100
0001
,
1000
0000
0001
0000
,
0001
0000
0100
1000
,
2000
3000
0010
0000
,
0002
0003
0010
0000
,
0010
0010
0100
0000
,
0110
0000
0001
0100
,
1000
0000
1000
0000
,
0001
0000
0001
0000
,
0010
0000
0100
0000
,
1000
0000
0001
0100
,
0001
0000
0100
0100
,
0001
0000
1000
0000
,
0020
0030
1000
0001
,
0100
1000
0001
0000
,
1001
0000
0001
0000
,
0110
0000
1000
0000
,
0110
0000
1001
0000
,
0001
0000
0110
0000
,
1000
0000
1001
0000
,
0001
0000
0110
0000
,
1000
0000
0110
0000
,
1001
0000
0000
0000
;

//---------------dance-single - ----------------
#NOTES:
     dance-single:
     :
     Medium:
     4:
     :
0000
0000
0000
0000
,
0000
0000
0000
0000
,
0000
0000
0000
0000
,
0020
0030
0100
0010
,
0200
0300
1000
0001
,
1001
0000
0001
1000
,
1000
0100
0001
0100
,
0200
0300
0100
0010
,
0001
0100
1000
0010
,
1000
0001
0100
0101
,
0010
0010
1000
1100
,
0001
0001
0001
0110
,
0100
2000
3001
1001
,
0001
1000
0100
1100
,
0010
0010
0001
0101
,
1000
1000
1000
0110
,
0100
0002
1003
1001
,
0001
0000
0001
0100
,
1000
0000
1000
0100
,
0020
0030
0200
0300
,
1000
0100
0001
0100
,
2000
3100
0002
0103
,
0010
0000
0010
1001
,
1000
0100
0001
0100
,
1000
0001
0010
0000
,
1001
0000
0100
1000
,
2000
3001
0200
0310
,
0020
0030
0100
0010
,
0200
0300
0001
1000
,
1001
0000
1000
0001
,
0001
0101
1000
1100
,
0200
0300
0100
0010
,
1000
0100
0001
0010
,
1000
0001
0100
0101
,
0010
0010
1000
1100
,
0001
0001
0001
0110
,
0100
2000
3001
1001
,
0001
1000
0100
1100
,
0010
0010
0001
0101
,
1000
1000
1000
0110
,
0100
0002
1003
1001
;

//---------------dance-single - ----------------
#NOTES:
     dance-single:
     :
     Hard:
     5:
     :
0000
0000
0000
0000
,
0000
0000
0000
0000
,
0000
0000
0000
0000
,
0010
0000
0100
0000
0010
0100
0010
0000
,
0200
1300
0001
1000
,
2000
3002
0013
0100
,
1000
0001
1000
0000
0001
1000
0001
0000
,
2020
3030
0001
0100
,
0010
0011
0100
1100
,
0010
1000
0002
0103
,
0010
0100
0010
0000
2000
0000
3001
0000
,
0010
1000
0100
0000
0020
0000
0130
0000
,
0010
1000
0100
0010
0002
0000
0103
0000
,
0010
0001
2000
3100
,
0010
0100
0010
0000
0002
0000
1003
0000
,
0010
0001
0100
0000
0020
0000
0130
0000
,
0010
0001
0100
0000
0220
0000
0330
0000
,
0002
0000
0103
0000
1000
0100
1000
0000
,
0020
0000
1030
0000
0001
0100
0001
0000
,
0010
0000
1000
0000
0001
0100
1000
0000
,
0100
0000
0001
0000
1000
0100
0001
0000
,
0020
0130
0200
0310
,
0001
0000
0100
0000
1000
0010
0100
0000
,
0001
0100
0001
0010
0100
0000
1000
0000
,
0002
0103
2000
3100
,
1001
0010
0100
0010
,
1001
0100
0101
0100
,
0010
0000
0100
0000
0010
0100
0010
0000
,
0200
0301
1000
1001
,
0002
2003
3020
0130
,
0001
1000
0001
0000
1000
0001
1000
0000
,
0022
0033
1000
0100
,
0010
1010
0100
0101
,
0010
1000
0002
0103
,
0010
0100
0010
0000
2000
0000
3001
0000
,
0010
1000
0100
0000
0020
0000
0130
0000
,
0010
1000
0100
0010
0002
0000
0103
0000
,
0010
0001
2000
3100
,
0010
0100
0010
0000
0002
0000
1003
0000
,
0010
0001
0100
0000
0020
0000
0130
0000
,
0010
0001
0100
0000
0110
0000
1001
0000
;

//---------------dance-double - ----------------
#NOTES:
     dance-double:
     :
     Easy:
     2:
     :
00000000
00000000
00000000
00000000
,
00000000
00000000
00000000
00000000
,
00000000
00000000
00000000
00000000
,
00000000
00000000
00000000
00000000
,
00000000
00000000
00000000
00000000
,
00000001
00000000
00000000
00000000
,
00001000
00000000
00000000
00000000
,
00000001
00000001
00001000
00001000
,
00000001
00000000
00000100
00000000
,
00011000
00000000
00000000
00000000
,
00020000
00000000
00000000
00030000
,
00200000
00000000
00000000
00300000
,
02000000
00000000
03000000
01000000
,
10010000
00000000
01000000
00000000
,
10010000
00000000
00010000
00000000
,
00011000
00000000
00001000
00000000
,
00000010
00000010
00000001
00000000
,
00001001
00000000
00000000
00000000
,
00000001
00000100
00001000
00001000
,
00010000
00000000
00010000
00010000
,
00010000
00000000
00100000
00000000
,
10010000
00000000
01000000
00000000
,
01000000
01000000
01000000
00000000
,
01000000
00010000
00001000
00001000
,
00010000
00000000
00001000
00000000
,
00011000
00000000
00000000
00000000
,
00000110
00000000
00000000
00000000
,
00001001
00000000
00000000
00000000
,
00001001
00000000
00000000
00000000
,
00011000
00000000
00000000
00000000
,
01100000
00000000
00000000
00000000
,
00010000
10000000
00100000
00000000
,
00100000
00000000
01000000
01000000
,
10010000
00000000
01000000
01000000
,
00010000
00000000
00001000
00001000
,
00001000
00000000
00000010
00000010
,
00000001
00000000
00000001
00001000
,
00001001
00000000
00001000
00001000
,
00000110
00000000
00000100
00000100
,
00001001
00000000
00001000
00000000
,
00000010
00000000
00000100
00000000
,
00001001
00000000
00000000
00000000
;

//---------------dance-double - ----------------
#NOTES:
     dance-double:
     :
     Medium:
     4:
     :
00000000
00000000
00000000
00000000
,
00000000
00000000
00000000
00000000
,
00000000
00000000
00000000
00000000
,
00000000
00000000
00000000
00000000
,
00000000
00000000
00000000
00000000
,
00010000
00000000
10000000
10000000
,
10000000
00000000
00010000
00010000
,
10000000
00000000
01000000
00010000
,
00001000
00000000
00000100
00000001
,
00001001
00000000
00000010
00000100
,
00001001
00000000
00000010
00001000
,
00011000
00000000
00010000
00001000
,
00011000
00000000
00010000
00100000
,
10010000
01000000
00100000
01000000
,
10010000
00000000
00100000
00010000
,
00011000
00000000
00001000
00010000
,
00011000
00000000
00000100
00000010
,
00001100
00000001
00000001
00000010
,
00000200
00001000
00000000
00001300
,
00000101
00001000
00001000
00000010
,
00000200
00000010
00000000
00000310
,
00001001
00000000
00000100
00001000
,
00010000
00010000
01000000
10000000
,
00010000
00010000
10000000
10000000
,
00200000
01000000
00000000
01300000
,
20020000
30030000
00000000
00000000
,
00022000
00033000
00000000
00000000
,
00002002
00003003
00000000
00000000
,
00002200
00003300
00000000
00000000
,
00002002
00003003
00000000
00000000
,
00022000
00033000
00000000
00000000
,
10010000
01000000
00100000
00100000
,
10010000
00010000
10000000
10000000
,
10010000
00100000
01000000
00100000
,
10010000
10000000
01000000
00010000
,
00001000
00010000
00001000
00010000
,
00011000
00001000
00000010
00000001
,
00001001
00000010
00000100
00000010
,
00001001
00000001
00000100
00001000
,
00010000
00001000
00010000
00001000
,
00011000
00000000
00100000
00000000
,
10010000
00000000
00000000
00000000
;

//---------------dance-double - ----------------
#NOTES:
     dance-double:
     :
     Hard:
     5:
     :
00000000
00000000
00000000
00000000
,
00000000
00000000
00000000
00000000
,
00000000
00000000
00000000
00000000
,
00000000
00000000
00000000
00000000
,
00000000
00000000
00000000
00000000
,
10000000
00010000
10000000
00000000
00010000
00000000
00010000
00000000
,
00010000
10000000
00010000
00000000
10000000
00000000
10000000
00000000
,
10000000
01000000
00010000
00001000
00010000
00000000
00010000
00000000
,
00010100
00001000
00000100
00000001
,
00001100
00000001
00000010
00000010
,
00000101
00001000
00000010
00000010
,
00001001
00000001
00000100
00001000
,
00011000
00001000
00100000
01000000
,
01010000
10000000
00100000
00100000
,
11000000
00010000
00100000
00100000
,
10010000
10000000
01000000
00010000
,
00011000
00000010
00000100
00000000
,
00001001
00000000
00000001
00000000
00001000
00000000
00000001
00001000
,
00000001
00000010
00000100
00001000
,
00000001
00000000
00000001
00000000
00000100
00000000
00001000
00010000
,
00001000
00000000
00010000
00000000
01000000
00000000
10000000
00010000
,
10000000
10000000
00100000
01000000
,
00010000
00000000
00010000
00000000
10000000
00010000
10000000
00000000
,
00100000
01000000
01000000
01000000
,
00010000
10000000
01000000
00000000
00010000
00001000
00010000
00000000
,
00022000
00033000
00000010
00000100
,
00002200
00000300
00003001
00000010
,
00000202
00000300
00001003
00000010
,
00002002
00000003
00003010
00000100
,
00000202
00000300
00000013
00001000
,
00022000
00033000
00010000
00100000
,
10000000
00010000
01000000
00000000
00100000
10000000
01000000
00000000
,
10020000
01000000
01000000
01030000
,
01100000
10000000
00100000
00100000
,
11000000
00010000
01000000
01000000
,
10010000
10000000
01000000
00010000
,
00011000
00010000
00000010
00000100
,
00001100
00000001
00000010
00000010
,
00000101
00001000
00000010
00000010
,
00001001
00000001
00000100
00001000
,
00011000
00100000
01000000
00000000
,
10010000
00000000
00000000
00000000
;
