
//----- song ID: teen -----//
#TITLE:Teenage Kicks;
#ARTIST:The Undertones;
#BANNER:Teenage Kicks.png;
#BACKGROUND:Teenage Kicks-bg.png;
#CDTITLE:./CDTITLES/Dancing Stage Fever.png;
#MUSIC:Teenage Kicks.ogg;
#SAMPLESTART:24.833;
#SAMPLELENGTH:15;
#DISPLAYBPM:135;
#BPMS:0=132.353,9=136.089,24=136.192,36=137.405,40=133.829,48=136.364,64=134.328,68=132.841,72=133.663,84=135,96=133.829,120=135.338,136=135.977,152=132.11,160=135.084,168=134.496,180=131.868,184=133.63,204=133.235;

//---------------dance-single - ----------------
#NOTES:
     dance-single:
     :
     Beginner:
     1:
     :
0000
0000
0000
0000
,
0000
0000
0000
0000
,
0000
0000
0000
0000
,
0010
0010
0010
0000
,
0100
0100
0100
0100
,
0100
0100
0100
0000
,
0001
0000
0100
0000
,
1000
0000
0001
0000
,
1000
0000
0010
0000
,
0001
0000
1000
0000
,
1000
0000
0100
0000
,
0001
0000
1000
0000
,
0001
0000
0010
0000
,
1000
0000
0001
0000
,
0010
0000
0000
0000
,
0001
0001
0001
0000
,
0100
0000
0000
0000
,
1000
1000
1000
0000
,
0000
1000
0000
0001
,
0000
1000
0000
0001
,
0000
0010
0000
0100
,
0000
0010
0000
0100
,
0000
0001
0000
1000
,
0000
0001
0000
1000
,
0000
0010
0000
0100
,
0000
0010
0000
0100
,
0000
0000
0000
0000
,
1000
0000
0001
0000
,
1000
0000
0010
0000
,
0001
0000
1000
0000
,
1000
0000
0100
0000
,
0001
0000
1000
0000
,
0001
0000
0010
0000
,
1000
0000
0001
0000
,
0010
0000
0000
0000
,
1000
1000
1000
0000
,
0100
0000
0000
0000
,
0001
0001
0001
0000
,
0000
1000
0000
0001
,
0000
1000
0000
0001
,
0000
0010
0000
0100
,
0000
0010
0000
0100
,
0000
0001
0000
1000
,
0000
0001
0000
1000
,
0000
0010
0000
0100
,
0000
0010
0000
0100
,
0000
0000
0000
0000
,
0001
0001
0001
0000
,
0100
0000
0000
0000
,
1000
1000
1000
0000
,
0010
0000
0100
0100
,
0100
0100
0100
0000
;

//---------------dance-single - ----------------
#NOTES:
     dance-single:
     :
     Easy:
     3:
     :
0000
0000
0000
0000
,
0000
0000
0000
0000
,
0000
0000
0000
0000
,
0000
0000
0000
0000
,
0010
0000
0100
0000
,
0001
1000
0001
0000
,
0010
0000
0100
0000
,
0001
0001
1000
0100
,
1000
0000
0001
0000
,
0010
0010
0100
0001
,
0010
0010
0100
0000
,
0001
0000
1000
0100
,
0010
0010
0100
0000
,
1000
0000
0001
0100
,
0010
0000
0010
0000
,
0001
0100
1000
0000
,
1000
0000
0001
0000
,
0010
0010
0001
1000
,
0000
1000
0000
0100
,
0000
1000
0000
0100
,
0000
0001
0000
0100
,
0000
0001
0000
0100
,
0000
0001
0000
0010
,
0000
0001
0000
0010
,
0000
1000
0000
0010
,
0000
1000
0000
0100
,
0010
0000
0100
0000
,
1000
1000
0001
0100
,
0001
0000
1000
0000
,
0010
0010
0100
1000
,
0010
0010
0100
0000
,
1000
0000
0001
0100
,
0010
0010
0100
0000
,
0001
0000
1000
0100
,
0100
0000
0100
0000
,
1000
0010
0001
0000
,
0001
0000
1000
0000
,
0100
0100
1000
0001
,
0000
0000
0001
0001
0000
0000
0000
0000
,
0000
0000
0000
0000
,
0000
0000
1000
1000
0000
0000
0000
0000
,
0000
0000
0000
0000
,
0000
0000
1000
1000
0000
0000
0000
0000
,
0000
0000
0000
0000
,
0000
0000
0001
0001
0000
0000
0000
0000
,
0000
0001
0000
0100
,
0100
0000
0100
0000
,
1000
0010
0001
0000
,
0001
0000
1000
0000
,
0100
0100
1000
0001
,
0100
0000
0001
0000
,
1000
0001
0200
0000
,
0000
0300
0000
0000
;

//---------------dance-single - ----------------
#NOTES:
     dance-single:
     :
     Medium:
     5:
     :
0000
0000
0000
0000
,
0000
0000
0000
0000
,
0000
0000
0000
0000
,
0000
0000
0000
0000
,
0010
0020
0030
0100
,
0000
0001
1000
0100
,
0010
0002
1003
0100
,
1000
1000
1000
0100
,
0001
0010
0001
0100
,
1000
0100
1000
0000
0001
0000
0100
0000
,
0010
2000
3001
0100
,
0001
0001
0001
0100
,
1000
0010
1000
0100
,
0001
0100
0001
0000
1000
0000
0100
0000
,
2000
0100
3001
0000
,
0100
1000
0000
1001
,
0001
0001
1000
1000
,
0010
0001
0010
1000
,
0100
0000
1000
1000
0000
0000
0010
0000
,
0000
0000
0100
0100
0000
0000
0001
0000
,
0000
0000
0010
0010
0000
0000
0100
0000
,
0000
0000
0001
0001
0000
0000
1000
0000
,
0100
0000
0001
0001
0000
0000
0010
0000
,
0000
0000
0100
0100
0000
0000
1000
0000
,
0000
0000
0010
0010
0000
0000
0100
0000
,
0000
0000
1000
1000
0000
0000
0001
0000
,
0000
0002
1003
0100
,
1000
1001
1000
0100
,
0001
0010
0001
0100
,
1000
0100
1000
0000
0001
0000
0100
0000
,
0010
2000
3001
0100
,
1001
0100
1001
0100
,
1000
0010
1000
0100
,
0001
0100
0001
0000
1000
0000
0100
0000
,
0002
0100
1003
0000
,
0100
1001
0000
1001
,
1000
1000
0001
0001
,
0010
1000
0010
0001
,
0100
0000
0001
0001
0000
0000
0110
0000
,
0000
0000
0100
0100
0000
0000
1000
0000
,
0001
0000
0010
0010
0000
0000
0100
0000
,
0000
0000
1000
1000
0000
0000
1001
0000
,
0100
0000
1000
1000
0000
0000
0110
0000
,
0000
0000
0100
0100
0000
0000
0001
0000
,
1000
0000
0010
0010
0000
0000
0100
0000
,
0000
0000
0001
0001
0000
0000
1001
0000
,
2000
0010
3001
0000
,
0010
1001
0000
1001
,
0001
1001
0100
0110
,
0100
0001
0100
1000
,
0010
0001
1000
0100
,
0001
1000
0001
0200
0000
0000
0000
0000
,
0000
0000
0000
0300
;

//---------------dance-single - ----------------
#NOTES:
     dance-single:
     :
     Hard:
     6:
     :
0000
0000
0000
0000
,
0000
0000
0000
0000
,
0000
0000
0000
0000
,
0000
0000
0000
0000
,
0200
0000
0301
0000
1000
0100
0001
0000
,
0020
0130
1001
0000
,
0010
0001
0200
0000
0302
0000
1003
0000
,
1000
0000
0100
0000
0001
0010
0100
0000
,
0100
1000
0020
0000
0230
0000
0301
0000
,
0001
0000
0100
0000
1000
0100
0010
0000
,
0010
1000
0200
0000
1300
0000
1001
0000
,
0001
0000
0100
0000
1000
0010
0100
0000
,
0100
0001
0020
0000
0130
0000
1001
0000
,
1000
0000
0100
0000
0001
0010
0100
0000
,
2000
3100
0002
0103
,
1000
0100
1000
0000
0010
0000
0110
0000
,
0001
1000
0002
0000
1000
0000
0103
0000
,
1000
0001
2000
0000
0001
0000
3100
0000
,
0100
0000
0001
0100
0000
0000
0101
0000
,
0000
0000
1000
0100
0000
0000
1100
0000
,
0000
0000
0010
0100
0000
0000
0110
0000
,
0000
0000
1000
0001
1000
0000
1001
0000
,
0100
0000
1000
0100
0000
0000
1100
0000
,
0000
0000
0001
0100
0000
0000
0101
0000
,
0000
0000
0010
0100
0000
0000
0110
0000
,
0000
0000
0001
1000
0001
0000
1001
0000
,
0010
1000
0200
0000
2300
0000
3001
0000
,
0001
0000
0100
0000
1000
0010
0100
0000
,
0100
0001
0020
0000
0230
0000
1300
0000
,
1000
0000
0100
0000
0001
0100
0010
0000
,
0010
0001
0200
0000
0301
0000
1001
0000
,
1000
0000
0100
0000
0001
0010
0100
0000
,
0100
1000
0020
0000
0130
0000
1001
0000
,
0001
0000
0100
0000
1000
0010
0100
0000
,
0002
0103
2000
3100
,
0001
0100
0001
0000
0010
0000
0110
0000
,
1000
0001
2000
0000
0001
0000
3100
0000
,
0001
1000
0002
0000
1000
0000
0103
0000
,
0100
0000
1000
0100
0000
0000
1100
0000
,
0000
0000
0001
0100
0001
0000
0101
0000
,
0110
0000
0010
0100
0000
0000
0110
0000
,
0000
0000
0001
1000
0001
0000
1001
0000
,
0100
0000
0001
0100
0000
0000
0101
0000
,
0000
0000
1000
0100
1000
0000
1100
0000
,
0110
0000
0010
0100
0000
0000
0110
0000
,
0000
0000
1000
0001
1000
0000
0102
0000
,
2003
3100
0002
0103
,
1000
0100
1000
0000
0010
0000
0110
0000
,
0001
1000
0002
0000
1000
0000
0103
0000
,
1000
0001
2000
0000
0001
0000
3100
0000
,
0010
0100
0010
0000
1000
0100
0010
0000
,
0001
0100
0002
2000
0000
0000
0000
0000
,
0000
0000
0000
3003
;

//---------------dance-double - ----------------
#NOTES:
     dance-double:
     :
     Easy:
     3:
     :
00000000
00000000
00000000
00000000
,
00000000
00000000
00000000
00000000
,
00000000
00000000
00000000
00000000
,
00000000
00000000
00000000
00000000
,
00200000
00000000
00000000
00300000
,
10000000
00000000
00010000
00010000
,
20020000
00000000
00000000
30030000
,
01000000
00000000
01000000
00010000
,
00020000
00000000
00000000
00030000
,
00001000
00000000
00001000
00001000
,
00000020
00000000
00000000
00000030
,
00000100
00000000
00000100
00001000
,
00002000
00000000
00000000
00003000
,
00000001
00000000
00000100
00001000
,
00011000
00000000
00000000
00000000
,
00010000
00000000
00010000
01000000
,
10000000
00000000
10000000
00000000
,
10000000
10000000
10000000
00000000
,
10010000
10000000
00000000
01000000
,
00000000
00010000
00000000
00001000
,
00000000
00000010
00000000
00000001
,
00000000
00000100
00000000
00001000
,
00011000
00000000
00000000
00010000
,
00000000
00100000
00000000
10000000
,
00000000
01000000
00000000
00010000
,
00000000
00001000
00000000
00000010
,
00002002
00000000
00000000
00003003
,
00000100
00000000
00000100
00001000
,
00002000
00000000
00000000
00003000
,
00010000
00000000
00010000
00010000
,
00200000
00000000
00000000
00300000
,
01000000
00000000
01000000
00010000
,
00020000
00000000
00000000
00030000
,
10000000
00000000
01000000
00010000
,
00011000
00000000
00000000
00000000
,
00001000
00000000
00001000
00000100
,
00000001
00000000
00000001
00000000
,
00000001
00000001
00000001
00000000
,
00001001
00000001
00000001
00000001
,
00000001
00000000
00000100
00001000
,
00001000
00000000
00010000
00000000
,
00010000
01000000
10000000
10000000
,
10010000
10000000
10000000
10000000
,
10000000
00000000
01000000
00010000
,
00010000
00000000
00001000
00000000
,
00001000
00000100
00000001
00000001
,
00001001
00000000
00000000
00000000
,
00000100
00000000
00001000
00010000
,
00100000
00100000
00100000
00000000
,
01000000
01000000
01000000
00000000
,
10010000
00010000
10000000
10000000
,
00100000
01000000
20020000
00000000
,
00000000
00000000
00000000
30030000
;

//---------------dance-double - ----------------
#NOTES:
     dance-double:
     :
     Medium:
     5:
     :
00000000
00000000
00000000
00000000
,
00000000
00000000
00000000
00000000
,
00000000
00000000
00000000
00000000
,
00000000
00000000
00000000
00000000
,
00000001
00000000
00001000
00000000
,
00000010
00000010
00000010
00000000
,
00001001
00000000
00000100
00000100
,
00001000
00010000
00010000
01000000
,
10000000
10000000
00010000
00010000
,
00100000
00100000
00100000
00000000
,
10010000
00000000
01000000
01000000
,
00010000
00001000
00001000
00000010
,
00000001
00000001
00001000
00001000
,
00000100
00000100
00000100
00000000
,
00001002
00000000
00000100
00000003
,
00000100
00001000
00010000
00010000
,
00200000
00000000
01000000
00300000
,
01000000
00000000
00010000
00000000
10000000
00000000
10000000
00010000
,
10000000
00000000
01000000
01000000
00000000
00000000
00010000
00000000
,
00000000
00000000
00001000
00001000
00000000
00000000
00000100
00000000
,
00000000
00000000
00000001
00000001
00000000
00000000
00000010
00000000
,
00000000
00000000
00000100
00000100
00000000
00000000
00001000
00000000
,
00000101
00000000
00000010
00000010
00000000
00000000
00000100
00000000
,
00000000
00000000
00010000
00010000
00000000
00000000
00001000
00000000
,
00000000
00000000
01000000
01000000
00000000
00000000
00100000
00000000
,
00000000
00000000
10000000
00010000
00000000
00000000
01100000
00000000
,
10010000
00000000
00100000
00100000
,
00010000
00001000
00001000
00000010
,
00000001
00000001
00001000
00001000
,
00000100
00000100
00000100
00000010
,
00001001
00000000
00000010
00000010
,
00001000
00010000
00010000
01000000
,
10000000
10000000
00010000
00010000
,
00100000
00100000
00100000
01000000
,
20010000
00000000
00100000
30000000
,
00100000
00010000
00001000
00001000
,
00000200
00000000
00000010
00000300
,
00000010
00001000
00000001
00000001
,
00000001
00000000
00001000
00000100
00000010
00000000
00000010
00000000
,
00000001
00000100
00001000
00001000
,
00010000
00000000
00100000
01000000
00100000
00000000
01000000
00000000
,
00010000
10000000
00010000
00010000
,
00010000
00000000
10000000
01000000
00100000
00000000
00100000
00000000
,
10000000
01000000
00010000
00010000
,
00001000
00000000
00000010
00000100
00001000
00000000
00000010
00000000
,
00000010
00001000
00000001
00000110
,
00001002
00000000
00000100
00000003
,
00000100
00000000
00001000
00010000
,
00200000
00000000
01000000
00000000
,
01300000
00000000
00010000
00000000
10000000
00000000
10000000
00010000
,
10000000
00000000
01000000
00000000
01000000
00100000
01000000
00000000
,
10000000
00010000
00100000
02000000
00000000
00000000
00000000
00000000
,
00000000
00000000
00000000
03000000
;

//---------------dance-double - ----------------
#NOTES:
     dance-double:
     :
     Hard:
     7:
     :
00000000
00000000
00000000
00000000
,
00000000
00000000
00000000
00000000
,
00000000
00000000
00000000
00000000
,
00000000
00000000
00000000
00000000
,
00200000
01000000
01000000
01300000
,
00010000
00000000
10000000
00000000
00100000
00010000
00001000
00000000
,
00011000
00001000
00000100
00000001
,
00000010
00000000
00000010
00000001
00000100
00000000
00000100
00000000
,
00001100
00000001
00000100
00001000
,
00010000
00000000
00010000
01000000
10000000
00000000
10000000
00000000
,
01010000
00010000
00100000
01000000
,
10000000
00000000
10000000
00010000
00100000
00000000
00100000
00000000
,
11000000
10000000
00100000
00010000
,
00001000
00000000
00001000
00000100
00000001
00000000
00000001
00000000
,
00002200
00000300
00000001
00003001
,
00000010
00000100
00001000
00001000
,
00000202
00000300
00001000
00001003
,
00000010
00000100
00001000
00010000
,
00011000
00000000
00010000
01000000
00000000
00000000
11000000
00000000
,
00010000
00000000
00100000
01000000
00000000
00000000
10010000
00000000
,
00100000
00000000
00010000
00001000
00000000
00000000
00001100
00000000
,
00000010
00000000
00000001
00000100
00000000
00000000
00001001
00000000
,
00000110
00000000
00001000
00000010
00000000
00000000
00000101
00000000
,
00001000
00000000
00000010
00000100
00000000
00000000
00001001
00000000
,
00000100
00000000
00001000
00010000
00000000
00000000
00110000
00000000
,
01000000
00000000
10000000
01000000
00000000
00000000
01010000
00000000
,
00011000
00001000
00000100
00000001
,
00000010
00000000
00000010
00000001
00000100
00000000
00000100
00000000
,
00001100
00000001
00000100
00001000
,
00010000
00000000
00010000
01000000
10000000
00000000
10000000
00000000
,
01010000
00010000
00100000
01000000
,
10000000
00000000
10000000
00010000
00100000
00000000
00100000
00000000
,
11000000
10000000
00100000
00010000
,
00001000
00000000
00001000
00000100
00000001
00000000
00000001
00000000
,
00002200
00000300
00000001
00003001
,
00000010
00000100
00001000
00001000
,
00000202
00000300
00001000
00001003
,
00000010
00000100
00001000
00010000
,
00011000
00000000
00010000
01000000
10000000
00000000
10000000
00000000
,
01010000
00000000
00100000
01000000
00100000
01000000
00010000
00000000
,
10000000
00000000
01000000
00010000
00001000
00010000
00000100
00000000
,
00000010
00000000
00000001
00000100
00000001
00000100
00000001
00000000
,
00001100
00000000
00001000
00000100
00000001
00000000
00001000
00000000
,
00000001
00000000
00000010
00001000
00010000
00001000
00010000
00000000
,
00100000
00000000
10000000
01000000
10000000
01000000
10000000
00000000
,
00010000
00000000
00100000
01000000
00100000
01000000
00100000
00000000
,
20020000
30000000
01000000
01030000
,
00100000
10000000
01000000
00100000
,
20020000
00030000
01000000
31000000
,
01000000
00000000
00010000
00000000
00001000
00010000
00001000
00000000
,
00010100
00000000
00001000
00000100
00000001
00000000
00000010
00000000
,
00000001
00000100
00001000
00000020
00000000
00000000
00000000
00000000
,
00000000
00000000
00000000
00000030
;
