
//----- song ID: stbe -----//
#TITLE:One Step Beyond;
#ARTIST:Madness;
#BANNER:One Step Beyond.png;
#BACKGROUND:One Step Beyond-bg.png;
#CDTITLE:./CDTITLES/Dancing Stage Fever.png;
#MUSIC:One Step Beyond.ogg;
#SAMPLESTART:28.049;
#SAMPLELENGTH:15;
#DISPLAYBPM:80:155;
#BPMS:0=141.454,8=155.135,152=155.083,212=141.732,216=130.435,217=128.571,218=102.273,219=91.837,220=112.266;

//---------------dance-single - ----------------
#NOTES:
     dance-single:
     :
     Beginner:
     1:
     :
0000
0000
0000
0000
,
0000
0000
0000
0000
,
0000
0000
0000
0000
,
0010
0000
0010
0000
,
0001
0000
0001
0000
,
0100
0000
0000
0000
,
1000
0000
0000
0000
,
0010
0000
0010
0000
,
1000
0000
1000
0000
,
0100
0000
0000
0000
,
0000
0000
0000
0000
,
0010
0010
0010
0000
,
0001
0000
0001
0000
,
0100
0000
0000
0000
,
1000
0000
0000
0000
,
0001
0001
0001
0000
,
0001
0000
0001
0000
,
0100
0000
0100
0000
,
0001
0001
0001
0000
,
0010
0000
0010
0000
,
0001
0000
0001
0000
,
0100
0000
0000
0000
,
0001
0000
0001
0000
,
0100
0000
0000
0000
,
0001
0000
0001
0000
,
0100
0000
0000
0000
,
1000
0000
0001
0000
,
1000
1000
1000
0000
,
0001
0000
0100
0000
,
0001
0000
0100
0000
,
1000
0000
0100
0000
,
0010
0000
0000
0000
,
0100
0000
0000
0000
,
0001
0000
1000
0000
,
0001
0001
0001
0001
,
0001
0000
0100
0000
,
1000
0000
0100
0000
,
1000
0000
0100
0000
,
0001
0000
0010
0000
,
1000
0000
0000
0000
,
1000
0000
0001
0000
,
1000
0000
0001
0000
,
1000
1000
1000
0000
,
0010
0000
0010
0000
,
0001
0000
0001
0000
,
0100
0000
0000
0000
,
0001
0000
0001
0000
,
0100
0000
0000
0000
,
1000
0000
1000
0000
,
0100
0000
0000
0000
,
0000
0000
0000
0000
,
0010
0010
0010
0000
,
0001
0001
0001
0000
,
1000
1000
1000
0000
,
1000
0000
0000
0000
,
0001
0000
0000
0000
,
0000
0000
0000
0000
,
0000
0000
0000
0000
,
0000
0000
0000
0000
,
1001
0000
0000
0000
;

//---------------dance-single - ----------------
#NOTES:
     dance-single:
     :
     Easy:
     3:
     :
0000
0000
0000
0000
,
0000
0000
0000
0000
,
0000
0000
0000
0000
,
0010
0000
0010
0000
,
0001
0000
0001
0000
,
0200
0300
0000
0000
,
2000
3000
0000
0000
,
0010
0000
0010
0000
,
0001
0000
0001
0000
,
0200
0300
0000
0000
,
0000
0000
0000
0000
,
0010
0000
0010
0100
,
0001
0000
0001
0100
,
0200
0300
0000
0000
,
2000
3000
0001
0000
,
0100
0000
0100
0100
,
0001
0001
1000
1000
,
0001
0000
0100
0000
,
0001
0001
0100
0100
,
0010
0000
0010
0000
,
0001
0000
0001
0000
,
0200
0300
0000
0000
,
2000
3000
0001
0100
,
0002
0003
0100
0000
,
2000
3000
0001
0100
,
0002
0003
0100
0100
,
1000
0000
0001
0000
,
1000
1000
0100
0000
,
0001
0001
0100
0000
,
0001
0000
0100
0000
,
1000
0000
0100
0000
,
0010
0000
1000
0100
,
0100
0000
0010
0001
,
0001
0000
1000
0000
,
0001
0001
0100
0100
,
0001
0000
0100
0000
,
1000
0000
0100
0000
,
1000
0000
0100
0000
,
0001
0000
0010
0000
,
1000
0000
0001
0000
,
1000
1000
0001
0000
,
0010
0000
0100
0000
,
0001
0001
0100
0100
,
0010
0000
0010
0000
,
0001
0000
1000
0000
,
1001
0000
0000
0000
,
0010
0000
0100
0000
,
0110
0000
0000
0000
,
0100
0000
1000
0001
,
1001
0000
0000
0000
,
0010
0000
0010
0100
,
0001
0000
0001
0000
,
1000
0000
1000
0000
,
0100
0000
0100
0000
,
0010
0000
0010
0000
,
0200
0000
0000
0000
,
0000
0000
0000
0000
,
0000
0000
0000
0000
,
0000
0000
0000
0300
0000
0000
0000
0000
,
1001
0000
0000
0000
;

//---------------dance-single - ----------------
#NOTES:
     dance-single:
     :
     Medium:
     5:
     :
0000
0000
0000
0000
,
0000
0000
0000
0000
,
0000
0000
0000
0000
,
0020
0031
1000
0100
,
0002
0103
1000
1000
,
0002
0003
0100
0000
,
2000
3000
0100
0000
,
0020
1030
0001
0100
,
2000
3100
0001
0001
,
2000
3000
0100
0100
,
0002
0003
0100
0100
,
0020
0031
1000
0100
,
0002
0103
1000
1000
,
0002
0003
0100
1000
,
2000
3000
0100
0001
,
2000
0000
3100
0000
0001
0100
0001
0000
,
0020
0000
0130
0000
0010
0100
0010
0000
,
0001
0000
0001
0000
1000
0001
1000
0000
,
0001
0010
0100
1000
,
0020
1030
0001
0100
,
2000
3100
0001
0001
,
2000
3000
0100
0000
,
0001
0000
0001
1000
0010
0000
0100
0000
,
2000
3000
0100
0000
,
0001
0000
0001
1000
0010
0000
0100
0000
,
2000
3000
0100
0100
,
0001
0100
1000
0110
,
0002
0103
0000
0100
,
2000
3100
0000
0100
,
0020
1030
0100
0001
,
0020
0031
0100
1000
,
0001
0001
0100
0100
,
0010
0010
1000
1000
,
0100
0100
0020
0030
,
0001
0010
0100
1000
,
0001
0002
1003
0100
,
1000
2000
3001
0100
,
0010
0000
0100
0000
,
0010
1000
0100
0001
,
0100
1000
0100
0001
,
0100
1000
0100
0001
,
0010
0010
0100
0100
,
0001
0010
0100
1000
,
0020
0031
1000
0100
,
0002
0103
1000
1000
,
0001
1000
0000
0000
0000
0000
0000
0000
,
2000
3100
0001
0001
,
1000
0001
0000
0000
0000
0000
0000
0000
,
0020
0000
0031
0000
1000
0100
0001
0000
,
0001
1000
0000
0000
0000
0000
0000
0000
,
0020
0000
1030
0000
0001
0100
1000
0000
,
1000
1000
0100
0010
,
0001
0001
0010
0100
,
1000
1000
0100
0010
,
0001
0000
0001
0000
0010
0001
0100
0000
,
0200
0000
0000
0000
,
0000
0000
0300
0000
2000
0000
3000
0001
,
0100
1000
0000
2000
0000
0000
0000
0000
,
0000
0000
0000
3001
0000
0000
0000
0000
,
1001
0000
0000
0000
;

//---------------dance-single - ----------------
#NOTES:
     dance-single:
     :
     Hard:
     7:
     :
0000
0000
0000
0000
,
0000
0000
0000
0000
,
0000
0000
0000
0000
,
0010
1000
0010
0100
0000
1000
0000
0001
,
0000
0001
0010
0100
0000
0001
0000
1000
,
0000
0010
0000
0001
0000
0100
0000
1000
,
0000
0100
0000
0001
0000
0010
0100
1000
,
0010
1000
0010
0100
0000
1000
0000
0001
,
0000
0001
0010
0100
0000
0001
0000
1000
,
0000
0010
0000
0001
0000
0100
0000
1000
,
0000
0100
0000
0001
0000
0010
0100
0000
,
0010
1000
0010
0100
0001
1000
0000
0001
,
0000
0001
0010
0100
0010
0001
0000
1000
,
0000
0010
0100
0001
0000
0100
0000
1000
,
0000
0100
0010
0001
0000
0010
0100
1000
,
0000
0010
0000
0001
0000
0100
0000
1000
,
0000
0100
0000
0001
0000
0010
0000
1000
,
0000
0001
0000
0001
0000
1000
0000
1000
,
0001
0000
0010
0000
0100
1000
0100
0000
,
0010
1000
0010
0100
0000
1000
0000
0001
,
0000
0001
0010
0100
0000
0001
0000
1000
,
0000
0010
0000
0001
0000
0100
0000
1000
,
0000
0001
0010
0100
0000
0001
0000
0001
,
0000
0010
0000
1000
0000
0100
0000
0001
,
0000
0001
0010
0100
0010
0100
1000
0000
,
0001
0001
2000
3100
,
0001
0100
1000
0100
,
1000
0100
0010
0000
0002
0000
0103
0000
,
0001
0100
0010
0000
2000
0000
3100
0000
,
0001
0000
1000
0000
0010
0100
0010
0100
,
0000
0001
0000
1000
0000
0010
0000
0100
,
0000
0010
0100
0010
0000
1000
0100
1000
,
0000
0001
0100
0001
0000
0010
0100
0010
,
0000
1000
0001
0100
0010
0000
0100
0000
,
0001
0000
0010
0000
0100
1000
0100
0000
,
0020
0000
0030
0000
0100
0010
0001
0000
,
2000
0000
3000
0000
0001
0010
0100
0000
,
0020
0031
0002
0103
,
0200
0310
2000
3100
,
0100
0010
0100
0010
0000
0001
0100
0001
,
0000
1000
0100
1000
0000
0010
0100
0010
,
0000
0001
1000
0100
0010
0000
0100
0000
,
0001
0000
0010
0000
0100
1000
0100
0000
,
0010
1000
0010
0100
0000
1000
0000
0010
,
0000
0001
0010
0100
0000
0001
0100
1000
,
0001
1000
0000
0000
0000
0000
0000
0000
,
0010
0001
0010
0100
0000
0001
0100
0001
,
1000
0001
0000
0000
0000
0000
0000
0000
,
0010
0001
0010
0100
0010
0100
1000
0000
,
0001
1000
0000
0000
0000
0000
0000
0000
,
0001
0000
0100
0000
1000
0001
0100
0000
,
1000
0100
0001
0010
,
1000
0100
0001
0010
,
1000
0010
0001
0100
,
1000
0000
0010
0000
0001
0100
1000
0000
,
1000
0100
1000
0010
1000
0100
0010
0001
,
0010
0001
0010
0100
0010
0001
0100
0010
,
1000
0100
0001
0100
,
0100
0000
0000
1001
0000
0000
0000
0000
,
1001
0000
0000
0000
;

//---------------dance-double - ----------------
#NOTES:
     dance-double:
     :
     Easy:
     3:
     :
00000000
00000000
00000000
00000000
,
00000000
00000000
00000000
00000000
,
00000000
00000000
00000000
00000000
,
00010000
00000000
00000000
10000000
,
00000000
10000000
00000000
00010000
,
00000000
00010000
00000000
10000000
,
00000000
10000000
01000000
00010000
,
00001000
00000000
00000000
00001000
,
00000000
00001000
00000000
00001000
,
00000000
00000010
00000000
00000010
,
00000000
00000001
00001000
00000000
,
00001001
00000000
00000000
00000100
,
00000000
00001000
00001000
00001000
,
00010000
00010000
00000000
00000000
,
00000000
00000000
00010000
00100000
,
00200000
00000000
00000000
00000000
,
00300000
01000000
01000000
01000000
,
02000000
00000000
00000000
03000000
,
00010000
00000000
10000000
00000000
,
10010000
00000000
00000000
01000000
,
00000000
00010000
00000000
00001000
,
00000000
00001000
00000000
00000100
,
00000000
00000001
00000001
00000001
,
00002000
00000000
00000000
00003000
,
00000000
00001000
00001000
00001000
,
00000002
00000000
00000000
00000003
,
00000000
00000100
00000100
00001000
,
00001000
00000000
00010000
00000000
,
00000000
00010000
01000000
10000000
,
10000000
00000000
10000000
00000000
,
10000000
00010000
10000000
00000000
,
00010000
00010000
00010000
00000000
,
10000000
10000000
10000000
00000000
,
10000000
00000000
10000000
00000000
,
10000000
01000000
00010000
00001000
,
00001000
00000000
00010000
00000000
,
00001000
00000000
00000010
00000000
,
00000001
00000001
00000001
00000001
,
00000001
00000001
00000001
00000001
,
00002000
00000000
00000000
00003000
,
00000001
00000000
00000001
00000000
,
00000100
00001000
00001000
00010000
,
00010000
00000000
00000000
00000000
,
10010000
00000000
00000000
10000000
,
00000000
00010000
00000000
10000000
,
00000000
01000000
00000000
01000000
,
00000000
00010000
00001000
00001000
,
00010000
00000000
00000000
00000000
,
00000000
00001000
00000010
00000010
,
00001001
00000000
00000000
00000000
,
00000000
00000010
00000100
00000010
,
00002000
00000000
00000000
00000000
,
00000002
00000000
00000000
00003003
,
00000020
00000000
00000000
00000000
,
00000200
00000000
00000000
00000330
,
00000002
00000000
00000000
00000000
,
00000000
00000000
00000000
00000000
,
00000000
00000000
00000000
00000000
,
00000000
00000000
00000000
00000003
00000000
00000000
00000000
00000000
,
01100000
00000000
00000000
00000000
;

//---------------dance-double - ----------------
#NOTES:
     dance-double:
     :
     Medium:
     6:
     :
00000000
00000000
00000000
00000000
,
00000000
00000000
00000000
00000000
,
00000000
00000000
00000000
00000000
,
00010000
00000000
00010000
00000000
,
10000000
10000000
01000000
01000000
,
00010000
00000000
00001000
00000000
,
00000010
00000100
00001000
00000001
,
00001001
00000000
00001000
00000000
,
00000001
00000001
00000100
00000100
,
00001000
00000000
00010000
00000000
,
00100000
00000000
01000000
00000000
00010000
10000000
00010000
00000000
,
10010000
00000000
00010000
00000000
,
10000000
10000000
10000000
10000000
,
01000000
00010000
00001000
00000100
,
00000001
00000010
00001100
00001001
,
00000220
00000000
00000000
00000330
,
00001000
00001000
00001000
00001000
,
00000001
00000100
00001000
00010000
,
00010000
01000000
10000000
10000000
,
01010000
10000000
00000000
10000000
,
01000000
00010000
00001000
00000010
,
00000002
00000100
00000000
00000100
,
00000003
00000001
00001000
00000010
,
00000102
00000100
00000100
00000103
,
00000000
00000001
00000100
00000000
00001100
00000000
00010000
00000000
,
00011000
01000000
01000000
01000000
,
01000000
00000000
00100000
00000000
10000000
00100000
10000000
00000000
,
02010000
00000000
00000000
00010000
03000000
00000000
00000000
00000000
,
00000000
10000000
01000000
00000000
00010000
00000000
00010000
00000000
,
00010000
00001000
00001000
00000100
,
00000002
00001000
00001000
00001003
,
00000010
00000100
00000010
00000000
00001000
00000001
00001000
00000000
,
00000001
00000001
00000100
00001000
,
00020000
00001000
00001000
00031000
,
01001000
00110000
01010000
11000000
,
10000000
00010000
10000000
00000000
00100000
00010000
00001000
00000000
,
00001000
00000000
00001000
00000000
00001000
00000100
00000001
00000000
,
00001000
00001000
00001000
00001000
,
00000001
00000001
00000001
00000001
,
00000010
00000100
00001000
00001000
,
00000001
00000100
00001000
00000000
00000000
00010000
00010000
00000000
,
00010000
01000000
10000000
00000000
00010000
01000000
10000000
00000000
,
10000000
10000000
01010000
10010000
,
01100000
10000000
00000000
10000000
,
00000000
10000000
01000000
00010000
,
00001000
00010000
00000000
00000000
00001000
00000000
00000100
00000000
,
00000001
00000001
00001000
00000100
,
00000010
00000100
00000000
00000000
00000100
00000000
00000000
00000000
,
00000000
00000001
00000100
00000000
00001000
00000000
00010000
00000000
,
00010000
00001000
00000000
00000000
00010000
00000000
01000000
00000000
,
00000000
10000000
00010000
00000000
00100000
00000000
01000000
00000000
,
20000000
00000000
00000000
30000000
,
02000000
00000000
00000000
03000000
,
00020000
00000000
00000000
00000000
,
00031000
00000100
00000001
00000000
00000010
00000100
00000010
00000000
,
00000200
00000000
00000000
00000000
,
00000000
00000000
00000300
00000000
00002000
00000000
00003000
00000001
,
00000100
00001000
00000000
00002000
00000000
00000000
00000000
00000000
,
00000000
00000000
00000000
00013000
00000000
00000000
00000000
00000000
,
00011000
00000000
00000000
00000000
;

//---------------dance-double - ----------------
#NOTES:
     dance-double:
     :
     Hard:
     7:
     :
00000000
00000000
00000000
00000000
,
00000000
00000000
00000000
00000000
,
00000000
00000000
00000000
00000000
,
00010000
10000000
00000000
01000000
00000000
00100000
00000000
00010000
,
00000000
10000000
00000000
00100000
00000000
00010000
00000000
00001000
,
00000000
00000010
00000000
00000001
00000000
00000001
00000000
00001000
,
00000000
00000010
00000000
00000100
00000000
00000001
00001000
00000001
,
00000000
00000001
00000000
00000100
00000000
00000010
00000000
00001000
,
00000000
00000001
00000000
00000010
00000000
00001000
00000000
00010000
,
00000000
00100000
00000000
10000000
00000000
10000000
00000000
00010000
,
00000000
00100000
00000000
01000000
00000000
10000000
00010000
10000000
,
00000000
01100000
00000000
10000000
00000000
00010000
00000000
01000000
,
00000000
00100000
00000000
10000000
00000000
01000000
00000000
00010000
,
00000000
00001000
00000000
00000100
00000000
00000001
00000000
00001000
,
00000000
00000010
00000000
00000100
00000001
00000100
00000001
00001000
,
00000002
00000100
00000000
00000100
00000000
00000100
00000000
00000100
,
00000003
00000100
00000100
00000000
00001000
00000000
00010000
00000000
,
00022000
00000000
00000000
00033000
,
00012000
01003000
02010000
03100000
,
10010000
00100000
01000000
10000000
,
00100000
00010000
00001000
00100000
,
01000000
10000000
00100000
00010000
,
00001000
00000010
00000001
00001000
,
00001000
00000010
00000100
00000001
,
00000010
00001000
01000000
00100000
,
10000000
00010000
00100000
01000000
,
10000000
00000000
10000000
00010000
00100000
01000000
00100000
00000000
,
10010000
01000000
00010000
00001000
,
00000100
00000001
00000010
00001000
,
00010000
00010000
00000100
00000010
,
00000001
00001000
00000010
00000100
,
00000001
00001000
00000001
00000000
00000010
00000100
00000010
00000000
,
00000001
00000100
00001000
00010000
00001000
00010000
00100000
00000000
,
01000000
00010000
10000000
00100000
,
01020000
10030000
21000000
30010000
,
00100000
00010000
01000000
00000000
00100000
10000000
01000000
00000000
,
00010000
00000000
00001000
00000000
00001000
00000100
00000001
00000000
,
00000002
00001000
00001000
00001000
,
00001000
00001000
00001000
00001003
,
00000220
00000000
00000000
00000330
,
00000001
00000000
00000100
00000000
00000100
00001000
00010000
00000000
,
00010000
01000000
10000000
00000000
00010000
01000000
10000000
00000000
,
01020000
10030000
21000000
30010000
,
01000000
00100000
00000000
10000000
00000000
01000000
00000000
00010000
,
00000000
00001000
00000000
00000100
00000000
00000001
00000000
00001000
,
00000100
00001000
00000000
00000001
00000000
00000100
00000000
00000010
,
00000000
00001000
00000000
00000100
00000000
00000010
00000000
00001000
,
00000100
00001000
00000000
00000001
00000000
00000100
00000000
00001000
,
00000000
00010000
00000000
01000000
00000000
10000000
00000000
10000000
,
10000000
10000000
00000000
10000000
00000000
01000000
00000000
00010000
,
00000000
00001000
00000000
00001000
00000100
00000001
00001000
00000000
,
00000110
00000001
00001000
00000001
,
00000100
00001000
00010000
01000000
,
10000000
00010000
01000000
00100000
,
10000000
00000000
00010000
01000000
00010000
00000000
00100000
00000000
01000000
00000000
10000000
00000000
01000000
00000000
10000000
00000000
,
22000000
00000000
00000000
00000000
,
00000000
00000000
33000000
00000000
00010000
00001000
00010000
00001000
,
00000010
00000100
00002000
00000002
00000000
00000000
00000000
00000000
,
00000000
00000000
00000003
00003001
00000000
00000000
00000000
00000000
,
00000110
00000000
00000000
00000000
;
