
//----- song ID: foca -----//
#TITLE:Cool for Cats;
#ARTIST:Squeeze;
#BANNER:Cool for Cats.png;
#BACKGROUND:Cool for Cats-bg.png;
#CDTITLE:./CDTITLES/Dancing Stage Fever.png;
#MUSIC:Cool for Cats.ogg;
#SAMPLESTART:61.885;
#SAMPLELENGTH:15;
#DISPLAYBPM:145;
#BPMS:0=145.27;

//---------------dance-single - ----------------
#NOTES:
     dance-single:
     :
     Beginner:
     1:
     :
0000
0000
0000
0000
,
0000
0000
0000
0000
,
0000
0000
0000
0000
,
0000
0000
0000
0000
,
0000
0000
0000
0000
,
0010
0000
0000
0000
,
0001
0001
0001
0000
,
0010
0000
0000
0000
,
1000
1000
1000
0000
,
0001
0000
0001
0000
,
1000
0000
1000
0000
,
0010
0000
0000
0000
,
0100
0000
0000
0000
,
0001
0000
1000
0000
,
0001
0001
0001
0000
,
0010
0000
0100
0000
,
0001
0001
0001
0000
,
0010
0000
0100
0000
,
1000
1000
1000
0000
,
0001
0000
0000
0000
,
1000
0000
0000
0000
,
0010
0000
0000
0000
,
0001
0000
0000
0000
,
0000
0000
0000
0000
,
1000
0000
0000
0000
,
0000
0000
0000
0000
,
0000
0000
0000
0000
,
0000
0000
0000
0000
,
1000
0000
0000
0000
,
0001
0000
0000
0000
,
1000
0000
0000
0000
,
0001
0000
0000
0000
,
1000
0000
1000
0000
,
0001
0000
0001
0000
,
1000
0000
0000
0000
,
0001
0000
0000
0000
,
0100
0000
0000
0000
,
0000
0000
0010
0000
,
0100
0000
0001
0001
,
0001
0000
0010
0000
,
0100
0000
1000
1000
,
1000
0000
0001
0000
,
0001
0000
1000
0000
,
1000
0000
0010
0000
,
0000
0000
0100
0000
,
0000
0000
0001
0000
,
1000
0000
0001
0001
,
0001
0000
0010
0000
,
0100
0000
0001
0001
,
0001
0000
0010
0000
,
0100
0000
1000
1000
,
1000
0000
0001
0000
,
0100
0000
1000
0000
,
0010
0000
1001
0000
;

//---------------dance-single - ----------------
#NOTES:
     dance-single:
     :
     Easy:
     3:
     :
0000
0000
0000
0000
,
0000
0000
0000
0000
,
0000
0000
0000
0000
,
0000
0000
0000
0000
,
0000
0000
0000
0000
,
0010
0000
0100
0000
,
0001
0001
0001
0000
,
0010
0000
0100
0000
,
1000
1000
1000
0000
,
0001
0000
0001
0000
,
1000
0000
1000
0000
,
0010
0000
0000
0000
,
0100
0000
0000
0000
,
0001
0000
1000
0000
,
0001
0001
1000
0000
,
0010
0000
0100
0000
,
0001
0001
0001
0000
,
0010
0000
0100
0000
,
1000
1000
1000
0000
,
0001
0000
0000
0000
,
1000
0000
1000
0000
,
0010
0000
0010
0000
,
0001
0000
0001
0000
,
0100
0000
0100
0000
,
1000
0000
0000
0000
,
0001
0000
0000
0000
,
0100
0000
0010
0000
,
0100
0000
0001
0000
,
1000
0000
0100
0000
,
0001
0000
0100
0000
,
1000
0000
0100
0000
,
0001
0000
0100
0000
,
1000
0000
1000
0000
,
0001
0000
0001
0000
,
1000
0000
0000
0000
,
0001
0000
1000
0000
,
0100
0000
0001
0000
,
1000
0000
0010
0000
,
0100
0000
0001
0001
,
0001
0000
0010
0000
,
0100
0000
1000
1000
,
1000
0000
0001
0000
,
0001
0000
1000
0000
,
1000
0000
0010
0000
,
0000
0000
0100
0000
,
0000
0000
0001
0000
,
1000
0000
0001
0001
,
1000
0000
0010
0000
,
0100
0000
0001
0001
,
0001
0000
0010
0000
,
0100
0000
1000
1000
,
1000
0000
0001
0000
,
0100
0000
1000
0000
,
0010
0000
1001
0000
;

//---------------dance-single - ----------------
#NOTES:
     dance-single:
     :
     Medium:
     4:
     :
0000
0000
0000
0000
,
0000
0000
0000
0000
,
0000
0000
0000
0000
,
0000
0000
0000
0000
,
0010
0001
0100
1000
,
0010
0000
0001
0000
1000
0001
1000
0000
,
0001
0001
1000
0000
,
0010
0000
1000
0000
0001
1000
0001
0000
,
1000
1000
0001
0000
,
0100
0100
0010
0010
,
1000
0100
0001
0100
,
1000
1000
0001
0001
,
0010
1000
0010
0001
,
0100
0100
0010
0010
,
0001
0100
1000
0100
,
0010
0000
1000
0000
0001
1000
0001
0000
,
1000
1000
0001
0000
,
0010
0000
0001
0000
1000
0001
1000
0000
,
0001
0100
0001
0000
1000
0000
1000
0000
,
0001
0100
1000
0010
,
0002
0003
0100
0000
,
1000
1000
0100
0000
,
0002
0003
0010
0000
,
1000
1000
0001
0100
,
0020
0030
0100
0000
,
0001
1000
1000
0001
,
0010
0000
1000
0000
,
0002
0003
0100
0100
,
0010
0100
1000
0000
,
0010
0100
0001
0000
,
2000
3000
0001
0000
,
0020
0030
1000
0000
,
0001
0010
0100
0000
,
2000
3000
0002
0003
,
0100
0001
0010
0000
,
1000
1000
0001
0000
,
0100
1000
0001
0100
,
1000
0100
0010
0001
,
1000
0001
1000
0000
0001
0000
0001
0000
,
1000
0000
0010
1000
,
0001
1000
0001
0000
1000
0000
1000
0000
,
0001
0000
0100
0100
,
0010
0010
1000
0100
,
0001
0100
1000
1000
,
0001
0001
0010
1000
,
0010
0001
0100
0100
,
0010
0010
0001
0100
,
1000
0100
0010
1000
,
0001
1000
0001
0000
1000
0000
1000
0000
,
0001
0000
0010
0001
,
1000
0001
1000
0000
0001
0100
0001
0000
,
1000
0100
1000
0000
0001
0000
0100
0000
,
1000
0010
0001
0100
,
1000
0010
0002
0103
,
2000
3100
0010
0010
,
0010
0000
0000
0000
;

//---------------dance-single - ----------------
#NOTES:
     dance-single:
     :
     Hard:
     5:
     :
0000
0000
0000
0000
,
0000
0000
0000
0000
,
0000
0000
0000
0000
,
0000
0000
0000
0000
,
0010
0002
1003
0100
,
0020
0000
1030
0000
0010
1000
0100
0010
,
0001
1000
0001
0100
,
0020
0000
0031
0000
0010
0001
0100
0010
,
1000
0001
1000
0100
,
0002
0100
1000
0103
,
2000
0100
0001
3100
,
0001
0000
0100
0000
1000
0010
0100
0000
,
1000
2000
3001
0100
,
1000
0000
0100
0000
0001
0010
0100
0000
,
0001
0002
1003
0100
,
0020
0000
0031
0000
0010
0001
0100
0010
,
1000
0001
1000
0100
,
0020
0000
1030
0000
0010
1000
0100
0010
,
0001
1000
0001
0100
,
0010
0001
0010
0001
,
1000
0010
2000
0000
0100
0000
3010
0000
,
0001
0010
0002
0000
0010
0000
0103
0000
,
1000
0100
0001
0100
,
0010
1000
0100
0000
0010
0001
0100
0000
,
0001
0001
0100
0010
0000
0000
1000
0000
,
0002
0103
0200
1300
,
0010
0001
0100
1000
,
0020
0000
0130
0000
,
1001
0000
0000
0000
0100
0000
0000
0010
,
0100
0100
0002
0003
,
1000
0000
0000
0000
0100
0000
0000
0010
,
0100
0100
2000
3000
,
0001
0100
1000
0000
,
0010
1000
0020
0000
1030
0000
0000
0000
,
0100
0001
0200
0000
0301
0000
0000
0000
,
1000
0100
0002
0000
0103
0000
0000
0000
,
1001
0000
0000
0000
0000
0000
0000
0000
0000
0000
0100
0000
0000
0001
0000
0000
,
1000
0100
0020
0031
,
0010
0001
0100
0010
1000
0000
0001
0000
,
1000
0100
0020
1030
,
0010
1000
0100
0010
0001
0000
1000
0000
,
0001
0100
2000
0100
,
0001
3100
0002
0100
,
1000
0103
1000
0100
,
0001
0010
0100
0000
0001
0000
0002
0000
,
1003
0100
0001
0100
,
1000
0010
0100
0000
1000
0000
2000
0000
,
3001
0100
0020
1030
,
0010
1000
0100
0010
0001
0000
1000
0000
,
0001
0100
0020
0031
,
0010
0001
0100
0010
1000
0000
0001
0000
,
1000
0000
0100
0000
0001
0100
0001
0000
,
1000
0100
1000
0000
0010
0100
0010
0100
,
0001
0100
1000
0000
0001
0000
0001
0000
,
1000
0100
0020
0100
,
0130
0100
0000
0000
;

//---------------dance-double - ----------------
#NOTES:
     dance-double:
     :
     Easy:
     2:
     :
00000000
00000000
00000000
00000000
,
00000000
00000000
00000000
00000000
,
00000000
00000000
00000000
00000000
,
00000000
00000000
00000000
00000000
,
00000000
00000000
00000000
00000000
,
00000001
00000000
00000001
00000000
,
00001000
00001000
00001000
00000000
,
00001000
00000000
00001000
00000000
,
00000001
00000001
00000001
00000000
,
00000100
00000000
00000100
00000000
,
00001000
00001000
00001000
00000000
,
00010000
00000000
00010000
00000000
,
00001000
00001000
00001000
00010000
,
00011000
00000000
00010000
00000000
,
00100000
00100000
00100000
00000000
,
10000000
10000000
10000000
10000000
,
01000000
00000000
01000000
00000000
,
10000000
10000000
00010000
00010000
,
00100000
00000000
00100000
00000000
,
10000000
01000000
00010000
00010000
,
00001000
00000000
00010000
00000000
,
00001000
00000000
00000010
00000000
,
00000002
00000000
00000000
00000003
,
00001000
00000000
00000100
00000000
,
00001000
00000001
00000000
00000100
,
00000000
00000100
00000000
00000100
,
00000000
00001000
00000000
00000000
,
00010000
00001000
00010000
00010000
,
00010000
00000000
00100000
00000000
,
02000000
00000000
00000000
03000000
,
00010000
00000000
00010000
00000000
,
20000000
00000000
00000000
30000000
,
10000000
00000000
10000000
00000000
,
01000000
00000000
01000000
00000000
,
00010000
00000000
00010000
00000000
,
00001000
00000000
00001000
00000000
,
00000010
00000000
00000001
00001000
,
00000001
00001001
00000001
00000000
,
00000001
00000000
00001000
00001000
,
00001000
00000000
00001000
00000000
,
00001000
00000000
00000001
00000001
,
00000001
00000000
00000100
00000000
,
00000100
00000000
00001000
00001000
,
00001000
00000000
00010000
00000000
,
00010000
00000000
00001000
00001000
,
00001000
00000000
00010000
00000000
,
00010000
00000000
00100000
01000000
,
00100000
00000000
10000000
10000000
,
10000000
10000000
01000000
00000000
,
01000000
00000000
10000000
10000000
,
00010000
00010000
00100000
00100000
,
00100000
00100000
10000000
01000000
,
00010000
00010000
00001000
00001000
,
00010000
00000000
00011000
00000000
;

//---------------dance-double - ----------------
#NOTES:
     dance-double:
     :
     Medium:
     4:
     :
00000000
00000000
00000000
00000000
,
00000000
00000000
00000000
00000000
,
00000000
00000000
00000000
00000000
,
00000000
00000000
00000000
00000000
,
00000000
00000000
00000000
00000000
,
00000001
00000001
00001000
00001000
,
00000100
00000100
00000100
00000000
,
00010000
00010000
00001000
00001000
,
00010000
00010000
00010000
00000000
,
00100000
00100000
01000000
01000000
,
00010000
10000000
00010000
00000000
,
00100000
00100000
01000000
01000000
,
10000000
00010000
10000000
00000000
10010000
00000000
00010000
00000000
,
01100000
00100000
10000000
01000000
,
00010000
00001000
00001000
00000000
,
00011000
00010000
00000100
00000010
,
00000001
00000100
00000100
00000000
,
00000010
00000010
00000100
00000100
,
00000001
00001000
00000010
00000100
,
00001001
00000001
00000001
00000001
,
00000010
00000000
00000100
00000000
,
00001000
00000000
00000001
00000000
,
00000100
00000000
00001000
00000000
,
00010000
00000000
01000000
00000000
,
10000000
10000000
00000000
10000000
,
00000000
10000000
01000000
00010000
,
00001000
00001000
00001000
00000010
,
00000001
00000000
00000000
00000000
00001000
00000001
00001000
00000000
,
00001001
00000000
00000100
00000000
,
00000010
00000001
00000100
00000000
,
00001000
00000000
00010000
00000000
,
00010000
00000000
01000000
00000000
,
10000000
10010000
10000000
00000000
,
10000000
00000000
01000000
00010000
,
00001000
00010000
00001000
00000000
,
00000010
00000010
00000110
00000001
,
00001000
00000000
00000001
00000000
,
00000010
00000100
00000010
00000000
00001001
00000000
00000001
00000000
,
00001000
00001000
00000100
00000100
,
00000100
00000000
00010000
00010000
,
00001000
00001000
00010000
00010000
,
00010000
00000000
00100000
00100000
,
01000000
01000000
00010000
10000000
,
00010000
00000000
00100000
00100000
,
01000000
01000000
00010000
10000000
,
00010000
00000000
10000000
10000000
,
01000000
01000000
00010000
00001000
,
00010000
00000000
00001000
00001000
,
00000010
00000010
00000100
00001000
,
00000100
00000000
00001000
00001000
,
00000001
00000001
00000010
00000100
,
00000010
00000001
00001001
00000001
,
00000001
00000001
00000100
00000100
,
00000100
00000100
00001001
00000000
;

//---------------dance-double - ----------------
#NOTES:
     dance-double:
     :
     Hard:
     6:
     :
00000000
00000000
00000000
00000000
,
00000000
00000000
00000000
00000000
,
00000000
00000000
00000000
00000000
,
00000000
00000000
00000000
00000000
,
00000000
00000000
00000000
00000000
,
00010000
00000000
10000000
00000000
00100000
01000000
00100000
00000000
,
01000000
01000000
01000000
00000000
,
00010000
00000000
10000000
00000000
01000000
00100000
01000000
00000000
,
00100000
00100000
00100000
00000000
,
10000000
00000000
01000000
00000000
00010000
00001000
00010000
00000000
,
00001000
00000100
00000001
00000000
,
00001000
00000000
00000100
00000000
00000001
00001000
00000001
00000000
,
00000010
00000100
00000010
00000001
00001000
00000000
00001001
00000000
,
00000001
00000000
00000100
00000000
00001000
00010000
00001000
00000000
,
00010000
00000000
01000000
10000000
00010000
00000000
00010000
10000000
,
00010000
00000000
00010000
00000000
10000000
00100000
01000000
00000000
,
01000000
00000000
01000000
00100000
01000000
00000000
00000000
00000000
,
10000000
01000000
00010000
00001000
,
00000100
00000000
00000001
00000000
00000001
00001000
00000001
00001000
,
00000100
00000000
00000100
00000000
00000100
00000010
00000100
00000000
,
00001002
00000000
00001000
00000003
,
00000010
00000100
00000001
00000000
,
00000011
00000000
00000100
00000000
,
00001000
00000001
00000100
00000000
,
00001000
00000001
00000100
00000001
00000000
00000100
00001000
00000000
,
00000000
00001000
00010000
00000000
00000000
01010000
00000000
00000000
,
00000000
00010000
00000000
00000000
00010000
01000000
00000000
01000000
,
00000000
00100000
10000000
00010000
10000000
01000000
00100000
00000000
,
20020000
00000000
00000000
00030000
,
02000000
00000000
00000000
30000000
,
00020000
00000000
00000000
03000000
,
00002000
00000000
00000000
00033000
,
00000000
00011000
00001000
00000100
,
00000001
00000001
00000001
00000001
,
00000001
00000001
00000002
00000000
,
00001000
00001000
00001000
00001003
,
00000200
00000000
00000000
00000300
,
00001000
00010000
01100000
00010000
,
00100000
01000000
00100000
00000000
01000000
00000000
01000000
00000000
,
01000000
00000000
00010000
10000000
,
01000000
00100000
01000000
00000000
00100000
00000000
00100000
00000000
,
00100000
00000000
10000000
01000000
,
00010000
00001000
00010000
00000000
00001000
00000000
00000100
00000000
,
00000001
00000000
00001000
00000100
,
00000001
00001000
00000001
00000000
00000010
00000000
00000010
00000000
,
00000010
00000000
00000001
00000100
,
00001000
00010000
00001000
00000000
00010000
00000000
01000000
00000000
,
01000000
00000000
10000000
00010000
,
10000000
00100000
01000000
00000000
01000000
00000000
01000000
00100000
,
01000000
00000000
10000000
01000000
,
00010000
00001000
00000100
00000001
,
00000001
00001000
00000001
00001000
00000100
00000100
00000100
00000100
,
00000100
00000000
00000010
00000000
00000001
00001000
00000100
00000000
,
00000010
00000110
00001001
00000000
;
