
//----- song ID: cmon -----//
#TITLE:Come On Eileen;
#ARTIST:Dexy's Midnight Runners;
#BANNER:Come On Eileen.png;
#BACKGROUND:Come On Eileen-bg.png;
#CDTITLE:./CDTITLES/Dancing Stage Fever.png;
#MUSIC:Come On Eileen.ogg;
#SAMPLESTART:58.64;
#SAMPLELENGTH:15;
#DISPLAYBPM:110;
#BPMS:0=114.286,4=104.651,20=103.448,24=104.348,36=104.046,40=106.785,72=107.052,100=110.769,104=106.195,112=106.667,120=107.463,124=109.312,130=111.111,132=110.092,136=112.853,140=114.014,156=116.883,157=102.273,158=109.756,159=108.434,160=107.249;

//---------------dance-single - ----------------
#NOTES:
     dance-single:
     :
     Beginner:
     1:
     :
0000
0000
0000
0000
,
0000
0000
0000
0000
,
0000
0000
0000
0000
,
0000
0000
0000
0000
,
0000
0000
0000
0000
,
0000
0000
0000
0000
,
0001
0000
0001
0000
,
1000
0000
1000
0000
,
0010
0010
0010
0010
,
0000
1000
0000
0001
,
0001
0001
0001
0000
,
1000
1000
1000
0000
,
0010
0010
0010
0000
,
0100
0000
0100
0000
,
0010
0000
0000
0000
,
0001
0000
0000
0000
,
0001
0000
0100
0000
,
1000
0000
1000
0000
,
0010
0000
0000
0000
,
1000
0000
0000
0000
,
1000
0000
0100
0000
,
0001
0000
0001
0000
,
0000
0000
0001
0001
,
0000
0000
1000
1000
,
0000
0001
0000
1000
,
0000
0001
0000
0000
,
0010
0010
0010
0000
,
0100
0100
0100
0100
,
0100
0000
0000
0000
,
0001
0000
1000
0000
,
0001
0000
1000
0000
,
0010
0000
1000
1000
,
0000
0000
0001
0001
,
0000
0000
0100
0100
,
0000
0000
0010
0010
,
0010
0000
0001
0001
,
0000
0000
1000
1000
,
0000
0000
0100
0100
,
0000
0000
0010
0010
,
0010
0000
1001
0000
;

//---------------dance-single - ----------------
#NOTES:
     dance-single:
     :
     Easy:
     3:
     :
0000
0000
0000
0000
,
0000
0000
0000
0000
,
0000
0000
0000
0000
,
0000
0000
0000
0000
,
0001
0001
1000
0010
,
0020
0030
0000
0000
,
1000
1000
0001
0000
,
0010
0010
1000
0000
,
1000
1000
0001
0010
,
0020
0030
0000
0000
,
1000
1000
0000
0000
,
0010
0010
0100
1000
,
0001
0000
1000
0000
,
0010
0001
0001
1000
,
0200
0300
0001
0001
,
2000
3000
0001
0100
,
1000
0000
0001
0000
,
0010
0010
0100
0100
,
0200
0300
1000
1000
,
0002
0003
1000
0100
,
0001
0000
1000
0000
,
0010
0000
0100
0100
,
1000
0020
0030
0000
,
0001
0200
0300
0000
,
0001
0000
0100
0000
,
0001
0000
1000
0001
,
1000
1000
0100
0100
,
0010
0010
0001
0001
,
0200
0000
0300
0000
,
0002
0003
1000
0100
,
0010
0010
0010
0100
,
0100
0100
0001
2000
,
3001
0000
1000
0002
,
1003
0000
0001
0001
,
0200
0300
0001
0010
,
0100
1000
1000
0002
,
1003
0000
0001
2000
,
3001
0000
1000
1000
,
0200
0300
1000
0100
,
0010
0001
0200
0000
,
0300
0110
0000
0000
;

//---------------dance-single - ----------------
#NOTES:
     dance-single:
     :
     Medium:
     4:
     :
0000
0000
0000
0000
,
0000
0000
0000
0000
,
0000
0000
0000
0000
,
0000
0000
0000
0000
,
0001
0010
1000
0010
,
0020
1000
0100
1030
,
0100
1000
0001
0101
,
1000
0010
0100
0110
,
1000
0010
0001
0010
,
0020
0001
0100
0031
,
1000
1000
0002
0103
,
0010
0002
0103
1000
,
0001
1000
1000
0100
,
0010
0001
0100
1000
,
0100
0110
0001
1000
,
0002
0000
0100
0103
,
1000
0100
1000
0001
,
1000
1000
0010
0001
,
0100
0110
0001
1000
,
0002
0000
0100
0103
,
0001
0100
0001
1000
,
1001
1000
0100
0001
,
0001
0200
0310
0001
,
1000
0200
0310
1000
,
0001
0100
0010
0110
,
0010
0200
0310
0001
,
1000
0100
0010
0001
,
0010
0110
0001
0101
,
0100
0100
0100
0100
,
0001
0100
1000
0100
,
0020
1000
0001
1030
,
0100
0100
0010
0002
,
1003
1000
0001
0200
,
0310
0010
0001
0001
,
0100
0100
0001
0011
,
1000
1100
0010
2000
,
3001
0001
1000
0200
,
0310
0010
1000
1000
,
0100
0100
1000
1010
,
0001
0101
0200
0000
,
0000
0310
0000
0000
;

//---------------dance-single - ----------------
#NOTES:
     dance-single:
     :
     Hard:
     5:
     :
0000
0000
0000
0000
,
0000
0000
0000
0000
,
0000
0000
0000
0000
,
0000
0000
0000
0000
,
1000
0010
0101
1000
,
0002
1000
0100
1003
,
0010
1000
0101
0001
,
1000
0000
0010
0000
0001
1000
0001
0000
,
0001
0010
1100
0001
,
2000
0001
0100
3001
,
1000
0000
0001
1000
0100
0000
0001
0000
,
0010
0000
1000
0001
0100
0001
1000
0001
,
0010
0000
1000
0001
0100
0000
0010
0000
,
0010
1000
0001
0100
0010
0001
1000
0000
,
0110
1001
0010
0100
,
0020
0000
0100
0130
,
1000
0101
1000
1100
,
0001
0000
1000
0001
0100
0000
0001
0000
,
0110
1001
0010
0100
,
0020
0000
0100
0130
,
0001
1100
0001
0101
,
0000
0001
0100
0001
0100
1000
0001
0000
,
0010
0000
1000
0000
1000
0010
1000
0010
,
0100
0000
0001
0000
0001
0100
0001
0100
,
1000
0101
1000
0101
,
1000
0010
0100
0001
0100
0000
0100
0000
,
0010
0001
0100
1000
,
0011
0101
1100
1010
,
0010
0010
0010
0010
,
1000
0001
0100
0010
1000
0001
0100
0000
,
0020
1000
0100
0031
,
0100
0100
0100
0000
0010
1000
0001
0100
,
0001
0000
0001
0000
1000
0001
1000
0100
,
0010
0000
0010
0000
1000
0001
1000
0001
,
0010
0010
0011
1100
,
1000
0001
0100
0000
0010
0001
1000
0100
,
1000
0000
1000
0000
0001
1000
0001
0100
,
0010
0000
0010
0000
0001
1000
0001
1000
,
0010
0010
1010
0101
,
0001
1000
0100
0000
0020
0000
0000
0000
,
0000
0130
0000
0000
;

//---------------dance-double - ----------------
#NOTES:
     dance-double:
     :
     Easy:
     2:
     :
00000000
00000000
00000000
00000000
,
00000000
00000000
00000000
00000000
,
00000000
00000000
00000000
00000000
,
00000000
00000000
00000000
00000000
,
10000000
10000000
00010000
00010000
,
00200000
00000000
00300000
00000000
,
10000000
00010000
10010000
00000000
,
00010000
10000000
10010000
00000000
,
10000000
01000000
00010000
00001000
,
00022000
00000000
00033000
00000000
,
00001000
00010000
00001000
00000000
,
00000010
00000100
00000010
00000010
,
00001000
00000001
00001000
00000000
,
00000001
00000001
00000100
00000000
,
00001000
00000000
00010000
00000000
,
00010000
00010000
00100000
00000000
,
01000000
01000000
10000000
10000000
,
00010000
00010000
00010000
00000000
,
10000000
00000000
01000000
00000000
,
00010000
00010000
00001000
00000000
,
00010000
00010000
00001000
00001000
,
00000010
00000010
00000010
00000000
,
00001001
00000100
00000000
00000000
,
00001001
00000100
00000000
00000000
,
00001000
00000000
00010000
00000000
,
00000000
00001000
00010000
00000000
,
00011000
00000000
00010000
00100000
,
01100000
00000000
00010000
10000000
,
20020000
00000000
00000000
30030000
,
01000000
00000000
00010000
00002000
,
00010000
00010000
00010000
00013000
,
00000000
00000000
00001001
00001001
,
00000000
00000010
00000110
00000110
,
00000000
00000001
00000100
00001000
,
00000000
00010000
00010000
00000000
,
00100000
00000000
01100000
01100000
,
00000000
10000000
10010000
10010000
,
00000000
10000000
01000000
00010000
,
00000000
00001000
00000010
00000100
,
00000100
00000000
00002000
00000000
,
00000000
00003001
00000000
00000000
;

//---------------dance-double - ----------------
#NOTES:
     dance-double:
     :
     Medium:
     5:
     :
00000000
00000000
00000000
00000000
,
00000000
00000000
00000000
00000000
,
00000000
00000000
00000000
00000000
,
00000000
00000000
00000000
00000000
,
00000001
00000100
00000100
00001000
,
00020000
00000000
00000000
00030000
,
00100000
00100000
01000000
01000000
,
00010000
00010000
10000000
10000000
,
01000000
00010000
00010000
00001000
,
00022000
00000000
00000000
00033000
,
00010000
00001000
00010000
00000000
00000100
00000000
00000100
00000000
,
00000010
00000100
00000010
00000000
00000001
00000000
00000001
00001000
,
00000001
00001000
00000001
00000000
00000100
00000000
00000100
00000000
,
00000001
00000000
00000100
00000000
00001000
00010000
00001000
00000000
,
00011000
01000000
00100000
01000000
,
00010000
00010000
00010000
00010000
,
10000000
00010000
10000000
00000000
00010000
10000000
00010000
00000000
,
10000000
01000000
00010000
00001000
,
00011000
00000100
00000010
00000100
,
00001000
00001000
00001000
00001000
,
00000010
00000100
00000010
00000000
00000100
00000010
00000100
00000000
,
00000001
00000000
00000001
00001000
00000100
00000000
00000100
00000000
,
00001001
00000000
00000100
00000000
00000000
00000100
00001000
00000000
,
00011000
00000000
00010000
00000000
00000000
00100000
01000000
00000000
,
10010000
00100000
01100000
10000000
,
10000000
00000000
10000000
00010000
10000000
00000000
01000000
00000000
,
00200000
00301000
00002000
00013000
,
00020000
00030100
00000200
00000310
,
00000002
00000000
00000000
00000003
,
00001000
00000000
00001000
00000000
00000001
00001000
00000002
00000000
,
00000100
00000100
00000100
00000103
,
00000000
00000000
00000000
00000000
00001000
00010000
00001000
00000000
,
00010000
00000000
00010000
00000000
01000000
10000000
01000000
00000000
,
00000000
00100000
00010000
10000000
00000000
00100000
00000000
01000000
,
00000000
00100000
00000000
10010000
00000000
00000000
00010000
10000000
,
00000000
00000000
01000000
00100000
10000000
01000000
10000000
00000000
,
01000000
00000000
00010000
00000000
00001000
00010000
00001000
00000000
,
00000100
00000000
00000001
00000000
00000010
00000100
00000010
00000100
,
00000000
00001000
00000000
00000110
00000000
00000001
00000010
00000100
,
00000000
00000100
00001000
00000000
00000020
00000000
00000000
00000000
,
00000000
00000130
00000000
00000000
;

//---------------dance-double - ----------------
#NOTES:
     dance-double:
     :
     Hard:
     6:
     :
00000000
00000000
00000000
00000000
,
00000000
00000000
00000000
00000000
,
00000000
00000000
00000000
00000000
,
00000000
00000000
00000000
00000000
,
00000001
00001000
00000010
00000100
,
00000002
00001000
00001000
00001003
,
00000020
00000100
00000130
00001100
,
00020000
00001000
00031000
00011000
,
00100000
01000000
00010000
00100000
,
02000000
10000000
10000000
13000000
,
00010000
00100000
01000000
00100000
01000000
00000000
01000000
00000000
,
10000000
00100000
01000000
00100000
01000000
00010000
10000000
00000000
,
10000000
01000000
00010000
00001000
00010000
00000000
00010000
00000000
,
00001000
00000100
00000001
00001000
00000001
00000100
00001000
00000000
,
00000101
00001000
00000010
00000100
,
00002001
00000000
00000100
00000000
00000100
00000000
00003000
00000100
,
00000010
00000001
00000100
00000000
00000001
00000100
00001000
00000000
,
00010000
00001000
00010000
01000000
10000000
00010000
01000000
00000000
,
00100000
10010000
01000000
00100000
,
10020000
00100000
01000000
00030000
,
00100000
00010000
00010000
00000000
10000000
00100000
00010000
00000000
,
00001000
00010000
00001000
00000010
00000001
00001000
00000010
00000000
,
00000101
00000000
00002000
00000000
00003000
00000010
00000100
00000000
,
00001100
00000000
00000002
00000000
00000003
00000010
00000100
00000000
,
00001000
00000001
00000100
00000000
00001000
00010000
01000000
00000000
,
00000000
10000000
00010000
00100000
01000000
10000000
10000000
00000000
,
01020000
10030000
21000000
30010000
,
00210000
00301000
00021000
00030100
,
00000220
00000000
00000000
00000330
,
00001000
00000001
00000100
00000010
00000100
00000100
00000200
00000000
,
00000000
00000000
00000001
00001300
,
00001000
00010000
00001000
00010000
00011000
00000000
00010000
00100000
,
00000000
01000000
00010000
00100000
01000000
00000000
10000000
00010000
,
00000000
00010000
00010000
00100000
00000000
01000000
10000000
00010000
,
00000000
00000000
00010000
10000000
00100000
00000000
00010000
00002000
,
00000000
00010000
00013000
00000000
00011000
00000000
00001000
00000010
,
00000000
00000100
00001000
00000010
00000100
00000000
00000001
00001000
,
00000000
00001000
00001000
00000010
00000000
00000100
00000001
00001000
,
00000000
00000000
00001000
00000001
00000100
00001000
00010000
00001000
,
00001000
00010000
00200000
00000000
,
00000000
01300000
00000000
00000000
;
